Subcategories

Dire Straits: Promo, CDS & CDV Collection (1986 - 1998)

Posted By: v3122
Dire Straits: Promo, CDS & CDV Collection (1986 - 1998)

Dire Straits: Promo, CDS & CDV Collection (1986 - 1998)
EAC | Flac(Image) + Cue + Log & MP3 CBR 320Kbps
16CD | Label: Various | ~ 1559 or 429 Mb | Scans(jpg) -> 97 Mb
Blues Rock / Classic Rock

Dire Straits were a British rock band that formed in Deptford, London, in 1977 by Mark Knopfler (lead vocals and lead guitar), his younger brother David Knopfler (rhythm guitar and backing vocals), John Illsley (bass guitar and backing vocals), and Pick Withers (drums and percussion). Dire Straits' sound drew from a variety of musical influences, including jazz, folk, and blues, and came closest to beat music within the context of rock and roll. Despite the prominence of punk rock during the band's early years, their stripped-down sound contrasted with punk, demonstrating a more "rootsy" influence that emerged from pub rock. Many of Dire Straits' compositions were melancholic.

Dire Straits' biggest selling album, 1985's Brothers in Arms has sold over 30 million copies, and was the first album to sell a million copies on the then-new compact disc (CD) format. They also became one of the world's most commercially successful bands, with worldwide record sales of over 100 million. Dire Straits won four Grammy Awards, three Brit Awards—winning Best British Group twice, two MTV Video Music Awards, and various other music awards. The band's songs include "Money for Nothing", "Sultans of Swing", "So Far Away", "Walk of Life", "Industrial Disease", "Brothers in Arms", "Private Investigations", "Romeo and Juliet", "Tunnel of Love", and "Calling Elvis".

According to the Guinness Book of British Hit Albums, Dire Straits have spent over 1,100 weeks on the UK albums chart, ranking fifth all-time. Their career spanned a total of 15 years. The band originally split up in 1988, then reformed in 1991, and disbanded again in 1995 after Mark Knopfler launched his solo career full-time. There were several changes in personnel over both periods, leaving Mark Knopfler and John Illsley as the only two original bandmates who remained throughout the band's career…

~ wiki
Dire Straits: Promo, CDS & CDV Collection (1986 - 1998)


Dire Straits: Promo, CDS & CDV Collection (1986 - 1998):

Dire Straits: Promo, CDS & CDV Collection (1986 - 1998)

Tracklist CD01 - Brothers In Arms 1986:
Vertigo, 884 285-2, West Germany

[01] Brothers In Arms (Short Version) [06:06]
[02] Going Home – Theme From 'Local Hero' (Live Version) [05:09]
[03] Brothers In Arms (Full Length Version) [06:58]
[04] Why Worry (Instrumental Segment) [03:58]

Exact Audio Copy V1.2 from 12. August 2016

EAC extraction logfile from 24. November 2016, 18:06

Dire Straits / Brothers in Arms

Used drive : ASUS SDRW-08D1S-U Adapter: 1 ID: 2

Read mode : Secure
Utilize accurate stream : Yes
Defeat audio cache : Yes
Make use of C2 pointers : No

Read offset correction : 667
Overread into Lead-In and Lead-Out : No
Fill up missing offset samples with silence : Yes
Delete leading and trailing silent blocks : No
Null samples used in CRC calculations : Yes
Used interface : Native Win32 interface for Win NT & 2000

Used output format : User Defined Encoder
Selected bitrate : 128 kBit/s
Quality : High
Add ID3 tag : No
Command line compressor : C:\Program Files (x86)\Exact Audio Copy\Flac\flac.exe
Additional command line options : -V -8 -T "Date=%year%" -T "Genre=%genre%" %source%


TOC of the extracted CD

Track | Start | Length | Start sector | End sector
––––––––––––––––––––––––––––-
1 | 0:00.00 | 6:56.00 | 0 | 31199
2 | 6:56.00 | 6:28.00 | 31200 | 60299
3 | 13:24.00 | 4:36.52 | 60300 | 81051


Range status and errors

Selected range

Filename C:\Users\Олег\Desktop\DS - Video CD\Dire Straits - Brothers In Arms\Dire Straits - Brothers in Arms.wav

Peak level 100.0 %
Extraction speed 3.0 X
Range quality 99.9 %
Test CRC 71C536A8
Copy CRC 71C536A8
Copy OK

No errors occurred


AccurateRip summary

Track 1 accurately ripped (confidence 3) [F51B2C19] (AR v2)
Track 2 accurately ripped (confidence 3) [904618D1] (AR v2)
Track 3 accurately ripped (confidence 3) [5C8CBFC8] (AR v2)

All tracks accurately ripped

End of status report

–– CUETools DB Plugin V2.1.6

[CTDB TOCID: dLv3eGozzmGrIj6i4HWgm3aUMXo-] found
Submit result: dLv3eGozzmGrIj6i4HWgm3aUMXo- has been confirmed
Track | CTDB Status
1 | (1/1) Accurately ripped
2 | (1/1) Accurately ripped
3 | (1/1) Accurately ripped


==== Log checksum 796D224F57F2F4EB0D87E6825A3819A581C36EBF1193EABB47259923AFC06705 ====


Dire Straits: Promo, CDS & CDV Collection (1986 - 1998)

Tracklist CD02 - Money For Nothing 1987:
Warner Bros., 9 25813-2, USA

[01] Money For Nothing (Full Length Version) [08:18]
[02] One World [03:35]
[03] So Far Away [05:06]

Exact Audio Copy V1.2 from 12. August 2016

EAC extraction logfile from 24. November 2016, 17:49

Dire Straits / Money For Nothing CD Video single

Used drive : ASUS SDRW-08D1S-U Adapter: 1 ID: 2

Read mode : Secure
Utilize accurate stream : Yes
Defeat audio cache : Yes
Make use of C2 pointers : No

Read offset correction : 667
Overread into Lead-In and Lead-Out : No
Fill up missing offset samples with silence : Yes
Delete leading and trailing silent blocks : No
Null samples used in CRC calculations : Yes
Used interface : Native Win32 interface for Win NT & 2000

Used output format : User Defined Encoder
Selected bitrate : 128 kBit/s
Quality : High
Add ID3 tag : No
Command line compressor : C:\Program Files (x86)\Exact Audio Copy\Flac\flac.exe
Additional command line options : -V -8 -T "Date=%year%" -T "Genre=%genre%" %source%


TOC of the extracted CD

Track | Start | Length | Start sector | End sector
––––––––––––––––––––––––––––-
1 | 0:00.00 | 8:18.12 | 0 | 37361
2 | 8:18.12 | 3:34.38 | 37362 | 53449
3 | 11:52.50 | 5:05.57 | 53450 | 76381


Range status and errors

Selected range

Filename C:\Users\Олег\Desktop\DS - Video CD\Dire Straits - Money For Nothing\Dire Straits - Money For Nothing CD Video single.wav

Peak level 93.3 %
Extraction speed 3.0 X
Range quality 100.0 %
Test CRC 1ACD3532
Copy CRC 1ACD3532
Copy OK

No errors occurred


AccurateRip summary

Track 1 accurately ripped (confidence 2) [2DF15AB3] (AR v2)
Track 2 accurately ripped (confidence 3) [78AC7EB3] (AR v2)
Track 3 accurately ripped (confidence 3) [6D07FBC7] (AR v2)

All tracks accurately ripped

End of status report

–– CUETools DB Plugin V2.1.6

[CTDB TOCID: bL0jOS_iCSAvvmaj4rWUrGii63Q-] found
Submit result: bL0jOS_iCSAvvmaj4rWUrGii63Q- has been confirmed
Track | CTDB Status
1 | (14/15) Accurately ripped
2 | (14/15) Accurately ripped
3 | (14/15) Accurately ripped


==== Log checksum D5D6C6948327F4C743AE62A2C7549468493093A78833C2D4936B706842CC13C0 ====


Dire Straits: Promo, CDS & CDV Collection (1986 - 1998)

Tracklist CD03 - Sultans Of Swing 1987:
Warner Bros., 9 25814-2, USA

[01] Sultans Of Swing [05:48]
[02] Wild West End [04:42]
[03] Down To The Waterline [04:00]

Exact Audio Copy V1.2 from 12. August 2016

EAC extraction logfile from 25. November 2016, 20:08

Dire Straits / Sultans Of Swing

Used drive : ASUS SDRW-08D1S-U Adapter: 1 ID: 2

Read mode : Secure
Utilize accurate stream : Yes
Defeat audio cache : Yes
Make use of C2 pointers : No

Read offset correction : 667
Overread into Lead-In and Lead-Out : No
Fill up missing offset samples with silence : Yes
Delete leading and trailing silent blocks : No
Null samples used in CRC calculations : Yes
Used interface : Native Win32 interface for Win NT & 2000

Used output format : User Defined Encoder
Selected bitrate : 128 kBit/s
Quality : High
Add ID3 tag : No
Command line compressor : C:\Program Files (x86)\Exact Audio Copy\Flac\flac.exe
Additional command line options : -V -8 -T "Date=%year%" -T "Genre=%genre%" %source%


TOC of the extracted CD

Track | Start | Length | Start sector | End sector
––––––––––––––––––––––––––––-
1 | 0:00.00 | 5:48.00 | 0 | 26099
2 | 5:48.00 | 4:42.00 | 26100 | 47249
3 | 10:30.00 | 4:00.10 | 47250 | 65259


Range status and errors

Selected range

Filename C:\Users\Олег\Desktop\DS - Video CD\Dire Straits - Sultans Of Swing\Dire Straits - Sultans Of Swing.wav

Peak level 87.3 %
Extraction speed 3.0 X
Range quality 100.0 %
Test CRC 4E238BB2
Copy CRC 4E238BB2
Copy OK

No errors occurred


AccurateRip summary

Track 1 cannot be verified as accurate (confidence 3) [2965D773], AccurateRip returned [98852797] (AR v2)
Track 2 cannot be verified as accurate (confidence 3) [58BB5B66], AccurateRip returned [A11C1322] (AR v2)
Track 3 cannot be verified as accurate (confidence 3) [F109D97B], AccurateRip returned [18643F48] (AR v2)

No tracks could be verified as accurate
You may have a different pressing from the one(s) in the database

End of status report

–– CUETools DB Plugin V2.1.6

[CTDB TOCID: BKpHLaujpjs84EyarIV7RRlENuY-] found
Submit result: BKpHLaujpjs84EyarIV7RRlENuY- has been confirmed
Track | CTDB Status
1 | (6/6) Accurately ripped
2 | (6/6) Accurately ripped
3 | (6/6) Accurately ripped


==== Log checksum AC84E9A58F6A1ED261F72133C8416B9656901A27DD6782BE339701EA051DA54F ====


Dire Straits: Promo, CDS & CDV Collection (1986 - 1998)

Tracklist CD04 - 1987:
Warner Bros., 9 25810-2, USA

[01] Twisting By The Pool [03:32]
[02] Two Young Lovers [03:23]
[03] If I Had You [04:17]
[04] Two Young Lovers (Live Version) [04:49]

Exact Audio Copy V1.2 from 12. August 2016

EAC extraction logfile from 23. November 2016, 22:03

Dire Straits / Twisting By the Pool

Used drive : ASUS SDRW-08D1S-U Adapter: 1 ID: 2

Read mode : Secure
Utilize accurate stream : Yes
Defeat audio cache : Yes
Make use of C2 pointers : No

Read offset correction : 667
Overread into Lead-In and Lead-Out : No
Fill up missing offset samples with silence : Yes
Delete leading and trailing silent blocks : No
Null samples used in CRC calculations : Yes
Used interface : Native Win32 interface for Win NT & 2000

Used output format : User Defined Encoder
Selected bitrate : 128 kBit/s
Quality : High
Add ID3 tag : No
Command line compressor : C:\Program Files (x86)\Exact Audio Copy\Flac\flac.exe
Additional command line options : -V -8 -T "Date=%year%" -T "Genre=%genre%" %source%


TOC of the extracted CD

Track | Start | Length | Start sector | End sector
––––––––––––––––––––––––––––-
1 | 0:00.00 | 3:32.00 | 0 | 15899
2 | 3:32.00 | 3:23.00 | 15900 | 31124
3 | 6:55.00 | 4:17.00 | 31125 | 50399
4 | 11:12.00 | 4:49.02 | 50400 | 72076


Range status and errors

Selected range

Filename C:\Users\Олег\Desktop\Dire Strats - Twisting By the Pool\Dire Straits - Twisting By the Pool.wav

Peak level 99.2 %
Extraction speed 3.0 X
Range quality 100.0 %
Test CRC 7A0D0DB7
Copy CRC 7A0D0DB7
Copy OK

No errors occurred


AccurateRip summary

Track 1 accurately ripped (confidence 3) [EDCBD3AE] (AR v2)
Track 2 accurately ripped (confidence 3) [4155B4ED] (AR v2)
Track 3 accurately ripped (confidence 3) [D8553E67] (AR v2)
Track 4 accurately ripped (confidence 3) [6009074D] (AR v2)

All tracks accurately ripped

End of status report

–– CUETools DB Plugin V2.1.6

[CTDB TOCID: Yfro.7dZK_.s12fLZ53ZaTJHJws-] found
Submit result: Yfro.7dZK_.s12fLZ53ZaTJHJws- has been confirmed
Track | CTDB Status
1 | (3/3) Accurately ripped
2 | (3/3) Accurately ripped
3 | (3/3) Accurately ripped
4 | (3/3) Accurately ripped


==== Log checksum 9F60A6451C75DEAB00C6A5D0D04893A1577D2FF12F223C1A6004A2A45AE7E8C6 ====


Dire Straits: Promo, CDS & CDV Collection (1986 - 1998)

Tracklist CD05 - Walk Of Life 1987:
Warner Bros., 9 25811-2, USA

[01] Walk Of Life [04:08]
[02] Why Worry [05:23]
[03] Ride Across The River [06:54]

Exact Audio Copy V1.2 from 12. August 2016

EAC extraction logfile from 24. November 2016, 16:26

Dire Straits / Walk Of Life CD Video single

Used drive : ASUS SDRW-08D1S-U Adapter: 1 ID: 2

Read mode : Secure
Utilize accurate stream : Yes
Defeat audio cache : Yes
Make use of C2 pointers : No

Read offset correction : 667
Overread into Lead-In and Lead-Out : No
Fill up missing offset samples with silence : Yes
Delete leading and trailing silent blocks : No
Null samples used in CRC calculations : Yes
Used interface : Native Win32 interface for Win NT & 2000

Used output format : User Defined Encoder
Selected bitrate : 128 kBit/s
Quality : High
Add ID3 tag : No
Command line compressor : C:\Program Files (x86)\Exact Audio Copy\Flac\flac.exe
Additional command line options : -V -8 -T "Date=%year%" -T "Genre=%genre%" %source%


TOC of the extracted CD

Track | Start | Length | Start sector | End sector
––––––––––––––––––––––––––––-
1 | 0:00.00 | 4:08.00 | 0 | 18599
2 | 4:08.00 | 5:23.00 | 18600 | 42824
3 | 9:31.00 | 6:53.55 | 42825 | 73854


Range status and errors

Selected range

Filename C:\Users\Олег\Desktop\Dire Straits - Walk Of Life\Dire Straits - Walk Of Life CD Video single.wav

Peak level 98.0 %
Extraction speed 2.9 X
Range quality 99.9 %
Test CRC F761F91E
Copy CRC F761F91E
Copy OK

No errors occurred


AccurateRip summary

Track 1 accurately ripped (confidence 4) [5FC636E2] (AR v2)
Track 2 accurately ripped (confidence 4) [3581177E] (AR v2)
Track 3 accurately ripped (confidence 4) [F66A0806] (AR v2)

All tracks accurately ripped

End of status report

–– CUETools DB Plugin V2.1.6

[CTDB TOCID: VcMgrI7wflo8PHyeBEygcbPbFEs-] found
Submit result: VcMgrI7wflo8PHyeBEygcbPbFEs- has been confirmed
Track | CTDB Status
1 | (5/5) Accurately ripped
2 | (5/5) Accurately ripped
3 | (5/5) Accurately ripped


==== Log checksum 8F0283CE11F90292F2ACA89D1356D6D45BF10170F3FE1064DA97899D371FAE29 ====


Dire Straits: Promo, CDS & CDV Collection (1986 - 1998)

Tracklist CD06 - Sultans Of Swing 1989:
Vertigo, 872 611-2, Germany

[01] Sultans Of Swing [05:47]
[02] Portobello Belle/Live [04:35]
[03] Romeo & Juliet [05:33]
[04] Money For Nothing [04:05]

Exact Audio Copy V1.2 from 12. August 2016

EAC extraction logfile from 17. July 2017, 22:06

Dire Straits / Sultans of Swing (CD Single)

Used drive : ASUS SDRW-08D1S-U Adapter: 1 ID: 1

Read mode : Secure
Utilize accurate stream : Yes
Defeat audio cache : Yes
Make use of C2 pointers : No

Read offset correction : 667
Overread into Lead-In and Lead-Out : No
Fill up missing offset samples with silence : Yes
Delete leading and trailing silent blocks : No
Null samples used in CRC calculations : Yes
Used interface : Native Win32 interface for Win NT & 2000

Used output format : User Defined Encoder
Selected bitrate : 128 kBit/s
Quality : High
Add ID3 tag : No
Command line compressor : C:\Program Files (x86)\Exact Audio Copy\Flac\flac.exe
Additional command line options : -V -8 -T "Date=%year%" -T "Genre=%genre%" %source%


TOC of the extracted CD

Track | Start | Length | Start sector | End sector
––––––––––––––––––––––––––––-
1 | 0:00.33 | 5:47.07 | 33 | 26064
2 | 5:47.40 | 4:34.58 | 26065 | 46672
3 | 10:22.23 | 5:33.30 | 46673 | 71677
4 | 15:55.53 | 4:05.07 | 71678 | 90059


Range status and errors

Selected range

Filename C:\Users\Олег\Desktop\Sultans of Swing 1989\Dire Straits - Sultans of Swing (CD Single).wav

Peak level 100.0 %
Extraction speed 1.6 X
Range quality 100.0 %
Test CRC D0B2217E
Copy CRC D0B2217E
Copy OK

No errors occurred


AccurateRip summary

Track 1 accurately ripped (confidence 9) [B5FF34CD] (AR v2)
Track 2 accurately ripped (confidence 8) [E6797F04] (AR v2)
Track 3 accurately ripped (confidence 9) [80508A3F] (AR v2)
Track 4 accurately ripped (confidence 9) [E8A4F46D] (AR v2)

All tracks accurately ripped

End of status report

–– CUETools DB Plugin V2.1.6

[CTDB TOCID: 9C4kwvnYly.Wx8k.8U99vFIlvrU-] found
Submit result: already submitted
Track | CTDB Status
1 | (16/17) Accurately ripped
2 | (16/17) Accurately ripped
3 | (16/17) Accurately ripped
4 | (16/17) Accurately ripped


==== Log checksum F3F7A0B6DDFB32D9972F7540A72C9793597C67F7B092B2F30D440CACE3838C4C ====


Dire Straits: Promo, CDS & CDV Collection (1986 - 1998)

Tracklist CD07 - Calling Elvis 1991:
Vertigo, DSCD 16, UK

[01] Calling Elvis [06:27]
[02] Iron Hand [03:12]
[03] Millionaire Blues [04:24]

Exact Audio Copy V1.2 from 12. August 2016

EAC extraction logfile from 11. July 2017, 13:34

Dire Straits / Calling Elvis

Used drive : ASUS SDRW-08D1S-U Adapter: 1 ID: 1

Read mode : Secure
Utilize accurate stream : Yes
Defeat audio cache : Yes
Make use of C2 pointers : No

Read offset correction : 667
Overread into Lead-In and Lead-Out : No
Fill up missing offset samples with silence : Yes
Delete leading and trailing silent blocks : No
Null samples used in CRC calculations : Yes
Used interface : Native Win32 interface for Win NT & 2000

Used output format : User Defined Encoder
Selected bitrate : 128 kBit/s
Quality : High
Add ID3 tag : No
Command line compressor : C:\Program Files (x86)\Exact Audio Copy\Flac\flac.exe
Additional command line options : -V -8 -T "Date=%year%" -T "Genre=%genre%" %source%


TOC of the extracted CD

Track | Start | Length | Start sector | End sector
––––––––––––––––––––––––––––-
1 | 0:00.00 | 6:27.00 | 0 | 29024
2 | 6:27.00 | 3:11.50 | 29025 | 43399
3 | 9:38.50 | 4:23.67 | 43400 | 63191


Range status and errors

Selected range

Filename C:\Users\Олег\Desktop\Calling Elvis\Dire Straits - Calling Elvis.wav

Peak level 100.0 %
Extraction speed 2.9 X
Range quality 100.0 %
Test CRC 77262C85
Copy CRC 77262C85
Copy OK

No errors occurred


AccurateRip summary

Track 1 accurately ripped (confidence 8) [3DE12DAF] (AR v2)
Track 2 accurately ripped (confidence 9) [77A6AD46] (AR v2)
Track 3 accurately ripped (confidence 8) [30CB39F5] (AR v2)

All tracks accurately ripped

End of status report

–– CUETools DB Plugin V2.1.6

[CTDB TOCID: at9y9oUAU5S3SNin07aOH3wKnqI-] found
Submit result: at9y9oUAU5S3SNin07aOH3wKnqI- has been confirmed
Track | CTDB Status
1 | (51/55) Accurately ripped, or (1/55) differs in 27 samples @00:22:08,00:27:29,01:32:70,01:48:06,02:21:22
2 | (52/55) Accurately ripped
3 | (51/55) Accurately ripped


==== Log checksum 7B49E7AEFE688B9CD102D6DF6094BB7319F9EB5FC45CC499612DC3DF370EE051 ====


Dire Straits: Promo, CDS & CDV Collection (1986 - 1998)

Tracklist CD08 - Heavy Fuel 1991:
Vertigo, DSHAM 17, UK

[01] Heavy Fuel [04:57]
[02] Planet Of New Orleans [07:48]
[03] Kingdom Come [04:15]

Exact Audio Copy V1.2 from 12. August 2016

EAC extraction logfile from 11. July 2017, 17:11

Dire Straits / Heavy Fuel

Used drive : ASUS SDRW-08D1S-U Adapter: 1 ID: 1

Read mode : Secure
Utilize accurate stream : Yes
Defeat audio cache : Yes
Make use of C2 pointers : No

Read offset correction : 667
Overread into Lead-In and Lead-Out : No
Fill up missing offset samples with silence : Yes
Delete leading and trailing silent blocks : No
Null samples used in CRC calculations : Yes
Used interface : Native Win32 interface for Win NT & 2000

Used output format : User Defined Encoder
Selected bitrate : 128 kBit/s
Quality : High
Add ID3 tag : No
Command line compressor : C:\Program Files (x86)\Exact Audio Copy\Flac\flac.exe
Additional command line options : -V -8 -T "Date=%year%" -T "Genre=%genre%" %source%


TOC of the extracted CD

Track | Start | Length | Start sector | End sector
––––––––––––––––––––––––––––-
1 | 0:00.00 | 4:57.15 | 0 | 22289
2 | 4:57.15 | 7:47.57 | 22290 | 57371
3 | 12:44.72 | 4:15.03 | 57372 | 76499


Range status and errors

Selected range

Filename C:\Users\Олег\Desktop\Heavy Fuel\Dire Straits - Heavy Fuel.wav

Peak level 100.0 %
Extraction speed 1.4 X
Range quality 100.0 %
Test CRC 46B6AD24
Copy CRC 46B6AD24
Copy OK

No errors occurred


AccurateRip summary

Track 1 accurately ripped (confidence 10) [63987FC0] (AR v2)
Track 2 accurately ripped (confidence 10) [219D709C] (AR v2)
Track 3 accurately ripped (confidence 12) [74FC7117] (AR v2)

All tracks accurately ripped

End of status report

–– CUETools DB Plugin V2.1.6

[CTDB TOCID: jtMCuUyatwQaqnT8bpeE6ypzKKU-] found
Submit result: jtMCuUyatwQaqnT8bpeE6ypzKKU- has been confirmed
Track | CTDB Status
1 | (18/18) Accurately ripped
2 | (18/18) Accurately ripped
3 | (18/18) Accurately ripped


==== Log checksum FF8635478829CBA8F23A324AF69C82CDDD0B2CA2767A260A664785CBAB260DB4 ====


Dire Straits: Promo, CDS & CDV Collection (1986 - 1998)

Tracklist CD09 - Until September 1991:
Vertigo, SEPT 1, UK

[01] Walk Of Life [04:07]
[02] Money For Nothing [04:07]
[03] Romeo And Juliet [05:56]
[04] Sultans Of Swing [05:46]

Exact Audio Copy V1.2 from 12. August 2016

EAC extraction logfile from 10. July 2017, 14:12

Dire Straits / Until September (Promo)

Used drive : ASUS SDRW-08D1S-U Adapter: 1 ID: 1

Read mode : Secure
Utilize accurate stream : Yes
Defeat audio cache : Yes
Make use of C2 pointers : No

Read offset correction : 667
Overread into Lead-In and Lead-Out : No
Fill up missing offset samples with silence : Yes
Delete leading and trailing silent blocks : No
Null samples used in CRC calculations : Yes
Used interface : Native Win32 interface for Win NT & 2000

Used output format : User Defined Encoder
Selected bitrate : 128 kBit/s
Quality : High
Add ID3 tag : No
Command line compressor : C:\Program Files (x86)\Exact Audio Copy\Flac\flac.exe
Additional command line options : -V -8 -T "Date=%year%" -T "Genre=%genre%" %source%


TOC of the extracted CD

Track | Start | Length | Start sector | End sector
––––––––––––––––––––––––––––-
1 | 0:00.00 | 4:06.40 | 0 | 18489
2 | 4:06.40 | 4:07.17 | 18490 | 37031
3 | 8:13.57 | 5:56.13 | 37032 | 63744
4 | 14:09.70 | 5:46.00 | 63745 | 89694


Range status and errors

Selected range

Filename C:\Users\Олег\Desktop\Dire Straits - Until September\Dire Straits - Until September (Promo).wav

Peak level 100.0 %
Extraction speed 3.1 X
Range quality 100.0 %
Test CRC A6E52E91
Copy CRC A6E52E91
Copy OK

No errors occurred


AccurateRip summary

Track 1 accurately ripped (confidence 11) [8739647C] (AR v2)
Track 2 accurately ripped (confidence 11) [4B49271F] (AR v2)
Track 3 accurately ripped (confidence 11) [0D46AD6C] (AR v2)
Track 4 accurately ripped (confidence 11) [3ECDDAAA] (AR v2)

All tracks accurately ripped

End of status report

–– CUETools DB Plugin V2.1.6

[CTDB TOCID: okFKM2QcOeQKjg2N_hfIg3lowM4-] found
Submit result: already submitted
Track | CTDB Status
1 | (3/3) Accurately ripped
2 | (3/3) Accurately ripped
3 | (3/3) Accurately ripped
4 | (3/3) Accurately ripped


==== Log checksum F23889FB5139661DCD22574EC873651C008DF512742095513F320691C4B5009D ====


Dire Straits: Promo, CDS & CDV Collection (1986 - 1998)

Tracklist CD10 - On Every Street 1992:
Vertigo, DSCDC 18, UK

[01] On Every Street [05:04]
[02] Private Investigations [06:46]
[03] Sultans Of Swing [05:48]
[04] Romeo & Juliet [05:56]

Exact Audio Copy V1.1 from 23. June 2015

EAC extraction logfile from 9. June 2016, 17:20

Dire Straits / On Every Street - CD Single

Used drive : ASUS SDRW-08D1S-U Adapter: 1 ID: 1

Read mode : Secure
Utilize accurate stream : Yes
Defeat audio cache : Yes
Make use of C2 pointers : No

Read offset correction : 667
Overread into Lead-In and Lead-Out : No
Fill up missing offset samples with silence : Yes
Delete leading and trailing silent blocks : No
Null samples used in CRC calculations : Yes
Used interface : Native Win32 interface for Win NT & 2000

Used output format : User Defined Encoder
Selected bitrate : 128 kBit/s
Quality : High
Add ID3 tag : No
Command line compressor : C:\Program Files (x86)\Exact Audio Copy\Flac\flac.exe
Additional command line options : -V -8 -T "Date=%year%" -T "Genre=%genre%" %source%


TOC of the extracted CD

Track | Start | Length | Start sector | End sector
––––––––––––––––––––––––––––-
1 | 0:00.33 | 5:04.00 | 33 | 22832
2 | 5:04.33 | 6:46.20 | 22833 | 53302
3 | 11:50.53 | 5:47.62 | 53303 | 79389
4 | 17:38.40 | 5:55.60 | 79390 | 106074


Range status and errors

Selected range

Filename C:\Users\Олег\Desktop\Dire Straits - On Every Street (CD-single)\Dire Straits - On Every Street - CD Single.wav

Peak level 90.5 %
Extraction speed 3.2 X
Range quality 99.9 %
Test CRC A5005911
Copy CRC A5005911
Copy OK

No errors occurred


AccurateRip summary

Track 1 accurately ripped (confidence 2) [BE3854F1] (AR v2)
Track 2 accurately ripped (confidence 2) [DAA52118] (AR v2)
Track 3 accurately ripped (confidence 2) [F74701B3] (AR v2)
Track 4 accurately ripped (confidence 2) [DF9918E5] (AR v2)

All tracks accurately ripped

End of status report

–– CUETools DB Plugin V2.1.6

[CTDB TOCID: 9bJpywRp8ZCIo2IYw9XLqro6mbY-] found
Submit result: 9bJpywRp8ZCIo2IYw9XLqro6mbY- has been confirmed
Track | CTDB Status
1 | (6/6) Accurately ripped
2 | (6/6) Accurately ripped
3 | (6/6) Accurately ripped
4 | (6/6) Accurately ripped


==== Log checksum 86589FCD1AB21356F6912E66FEBE1906CCC6589E14ACBCBAEC517EB5CB14F535 ====


Dire Straits: Promo, CDS & CDV Collection (1986 - 1998)

Tracklist CD11 - The Bug 1992:
Vertigo, DSCD 19, UK

[01] The Bug [04:18]
[02] Twisting By The Pool [03:32]
[03] Expresso Love [05:04]
[04] Walk Of Life [04:07]

Exact Audio Copy V1.2 from 12. August 2016

EAC extraction logfile from 11. July 2017, 8:44

Dire Straits / The Bug [Single]

Used drive : ASUS SDRW-08D1S-U Adapter: 1 ID: 1

Read mode : Secure
Utilize accurate stream : Yes
Defeat audio cache : Yes
Make use of C2 pointers : No

Read offset correction : 667
Overread into Lead-In and Lead-Out : No
Fill up missing offset samples with silence : Yes
Delete leading and trailing silent blocks : No
Null samples used in CRC calculations : Yes
Used interface : Native Win32 interface for Win NT & 2000

Used output format : User Defined Encoder
Selected bitrate : 128 kBit/s
Quality : High
Add ID3 tag : No
Command line compressor : C:\Program Files (x86)\Exact Audio Copy\Flac\flac.exe
Additional command line options : -V -8 -T "Date=%year%" -T "Genre=%genre%" %source%


TOC of the extracted CD

Track | Start | Length | Start sector | End sector
––––––––––––––––––––––––––––-
1 | 0:00.00 | 4:17.57 | 0 | 19331
2 | 4:17.57 | 3:32.28 | 19332 | 35259
3 | 7:50.10 | 5:04.00 | 35260 | 58059
4 | 12:54.10 | 4:06.45 | 58060 | 76554


Range status and errors

Selected range

Filename C:\Users\Олег\Desktop\The Bug\Dire Straits - The Bug [Single].wav

Peak level 100.0 %
Extraction speed 3.0 X
Range quality 100.0 %
Test CRC CD62EDEA
Copy CRC CD62EDEA
Copy OK

No errors occurred


AccurateRip summary

Track 1 cannot be verified as accurate (confidence 5) [68D037BA], AccurateRip returned [1AB9D482] (AR v2)
Track 2 cannot be verified as accurate (confidence 6) [3A0632B9], AccurateRip returned [D64989FD] (AR v2)
Track 3 cannot be verified as accurate (confidence 5) [F34E2F2F], AccurateRip returned [AD4C2A4D] (AR v2)
Track 4 cannot be verified as accurate (confidence 5) [C79195D3], AccurateRip returned [BEC70707] (AR v2)

No tracks could be verified as accurate
You may have a different pressing from the one(s) in the database

End of status report

–– CUETools DB Plugin V2.1.6

[CTDB TOCID: 78ZtByUnuiPZgTWlhla0UfWXzk4-] found
Submit result: already submitted
Track | CTDB Status
1 | (16/16) Accurately ripped
2 | (16/16) Accurately ripped
3 | (15/16) Accurately ripped
4 | (16/16) Accurately ripped


==== Log checksum 3E2E5DADF6BE4E239D9B6416CC7A0F85F7D27435E838901434FD087DA206056A ====


Dire Straits: Promo, CDS & CDV Collection (1986 - 1998)

Tracklist CD12 - You And Your Friend 1992:
Vertigo, 864 613-2, Germany

[01] You And Your Friend [05:57]
[02] Ticket To Heaven [04:24]
[03] Badges, Posters, Stickers, T-Shirts [04:54]

Exact Audio Copy V1.2 from 12. August 2016

EAC extraction logfile from 11. July 2017, 14:23

Dire Straits / You And Your Friend

Used drive : ASUS SDRW-08D1S-U Adapter: 1 ID: 1

Read mode : Secure
Utilize accurate stream : Yes
Defeat audio cache : Yes
Make use of C2 pointers : No

Read offset correction : 667
Overread into Lead-In and Lead-Out : No
Fill up missing offset samples with silence : Yes
Delete leading and trailing silent blocks : No
Null samples used in CRC calculations : Yes
Used interface : Native Win32 interface for Win NT & 2000

Used output format : User Defined Encoder
Selected bitrate : 128 kBit/s
Quality : High
Add ID3 tag : No
Command line compressor : C:\Program Files (x86)\Exact Audio Copy\Flac\flac.exe
Additional command line options : -V -8 -T "Date=%year%" -T "Genre=%genre%" %source%


TOC of the extracted CD

Track | Start | Length | Start sector | End sector
––––––––––––––––––––––––––––-
1 | 0:00.32 | 5:56.70 | 32 | 26801
2 | 5:57.27 | 4:24.28 | 26802 | 46629
3 | 10:21.55 | 4:54.37 | 46630 | 68716


Range status and errors

Selected range

Filename C:\Users\Олег\Desktop\You And Your Friend\Dire Straits - You And Your Friend.wav

Peak level 100.0 %
Extraction speed 1.5 X
Range quality 100.0 %
Test CRC 2956D92E
Copy CRC 2956D92E
Copy OK

No errors occurred


AccurateRip summary

Track 1 accurately ripped (confidence 5) [56EE1974] (AR v2)
Track 2 accurately ripped (confidence 5) [9AFF8DA2] (AR v2)
Track 3 accurately ripped (confidence 6) [313874D3] (AR v2)

All tracks accurately ripped

End of status report

–– CUETools DB Plugin V2.1.6

[CTDB TOCID: jQCMyCyNANHU87ieIhzxs7zDvTc-] found
Submit result: jQCMyCyNANHU87ieIhzxs7zDvTc- has been confirmed
Track | CTDB Status
1 | (4/4) Accurately ripped
2 | (4/4) Accurately ripped
3 | (4/4) Accurately ripped


==== Log checksum AC46DC0CDD73F92A7E09399DDA8E663149512BA7FBA9EDC18CF2C19818EBDD21 ====


Dire Straits: Promo, CDS & CDV Collection (1986 - 1998)

Tracklist CD13 - Encores 1993:
Vertigo, 862 209-2, Germany

[01] Your Latest Trick [05:43]
[02] The Bug [05:26]
[03] Solid Rock [05:21]
[04] Local Hero – Wild Theme [04:20]

Exact Audio Copy V1.2 from 12. August 2016

EAC extraction logfile from 12. July 2017, 14:57

Dire Straits / Encores (Maxi Single)

Used drive : ASUS SDRW-08D1S-U Adapter: 1 ID: 1

Read mode : Secure
Utilize accurate stream : Yes
Defeat audio cache : Yes
Make use of C2 pointers : No

Read offset correction : 667
Overread into Lead-In and Lead-Out : No
Fill up missing offset samples with silence : Yes
Delete leading and trailing silent blocks : No
Null samples used in CRC calculations : Yes
Used interface : Native Win32 interface for Win NT & 2000

Used output format : User Defined Encoder
Selected bitrate : 128 kBit/s
Quality : High
Add ID3 tag : No
Command line compressor : C:\Program Files (x86)\Exact Audio Copy\Flac\flac.exe
Additional command line options : -V -8 -T "Date=%year%" -T "Genre=%genre%" %source%


TOC of the extracted CD

Track | Start | Length | Start sector | End sector
––––––––––––––––––––––––––––-
1 | 0:00.33 | 5:43.15 | 33 | 25772
2 | 5:43.48 | 5:25.70 | 25773 | 50217
3 | 11:09.43 | 5:21.30 | 50218 | 74322
4 | 16:30.73 | 4:20.00 | 74323 | 93822


Range status and errors

Selected range

Filename C:\Users\Олег\Desktop\Encores\Dire Straits - Encores (Maxi Single).wav

Peak level 100.0 %
Extraction speed 2.4 X
Range quality 99.9 %
Test CRC 85FD6D11
Copy CRC 85FD6D11
Copy OK

No errors occurred


AccurateRip summary

Track 1 accurately ripped (confidence 102) [172AA32E] (AR v2)
Track 2 accurately ripped (confidence 103) [450569E2] (AR v2)
Track 3 accurately ripped (confidence 104) [39D7DC27] (AR v2)
Track 4 accurately ripped (confidence 104) [61C5A038] (AR v2)

All tracks accurately ripped

End of status report

–– CUETools DB Plugin V2.1.6

[CTDB TOCID: F2gKEJ6QJlt_v4qV0IoZMphy_QE-] found
Submit result: already submitted
Track | CTDB Status
1 | (148/150) Accurately ripped
2 | (150/150) Accurately ripped
3 | (148/150) Accurately ripped
4 | (150/150) Accurately ripped


==== Log checksum 4AA395CECD73C0F63FCF92822F6DD8C8DEA40206D4E65178A8810562D9BB184B ====


Dire Straits: Promo, CDS & CDV Collection (1986 - 1998)

Tracklist CD14 - Your Latest Trick 1993:
Vertigo, SAMPLER OTN 2, UK

[01] Your Latest Trick (Live) [04:36]

Exact Audio Copy V1.2 from 12. August 2016

EAC extraction logfile from 10. July 2017, 15:02

Dire Straits / Your Latest Trick (Live) Promo

Used drive : ASUS SDRW-08D1S-U Adapter: 1 ID: 1

Read mode : Secure
Utilize accurate stream : Yes
Defeat audio cache : Yes
Make use of C2 pointers : No

Read offset correction : 667
Overread into Lead-In and Lead-Out : No
Fill up missing offset samples with silence : Yes
Delete leading and trailing silent blocks : No
Null samples used in CRC calculations : Yes
Used interface : Native Win32 interface for Win NT & 2000

Used output format : User Defined Encoder
Selected bitrate : 128 kBit/s
Quality : High
Add ID3 tag : No
Command line compressor : C:\Program Files (x86)\Exact Audio Copy\Flac\flac.exe
Additional command line options : -V -8 -T "Date=%year%" -T "Genre=%genre%" %source%


TOC of the extracted CD

Track | Start | Length | Start sector | End sector
––––––––––––––––––––––––––––-
1 | 0:00.00 | 4:36.15 | 0 | 20714


Range status and errors

Selected range

Filename C:\Users\Олег\Desktop\Dire Straits - Your Latest Trick\Dire Straits - Your Latest Trick (Live) Promo.wav

Peak level 92.0 %
Extraction speed 2.4 X
Range quality 100.0 %
Test CRC A243A450
Copy CRC A243A450
Copy OK

No errors occurred


AccurateRip summary

Track 1 cannot be verified as accurate (confidence 1) [0D723560], AccurateRip returned [A4117D77] (AR v2)

No tracks could be verified as accurate
You may have a different pressing from the one(s) in the database

End of status report

–– CUETools DB Plugin V2.1.6

[CTDB TOCID: rjgoUJGSCLkWldEG.HoZVRpZPlY-] found
Submit result: already submitted
Track | CTDB Status
1 | ( 3/40) Accurately ripped


==== Log checksum 1DCDE11353C8B1342F41AB2A3313E324DAE6A2DF8992A8C2918DE4C950242E40 ====


Dire Straits: Promo, CDS & CDV Collection (1986 - 1998)

Tracklist CD15 - Ticket To Heaven 1994:
Vertigo, 858 875-2, Germany

[01] Ticket To Heaven [04:25]
[02] Walk Of Life [04:05]
[03] Joy [04:21]
[04] A Fistful Of Ice Cream [04:40]

Exact Audio Copy V1.2 from 12. August 2016

EAC extraction logfile from 11. July 2017, 16:11

Dire Straits / Ticket to heaven (CD Single)

Used drive : ASUS SDRW-08D1S-U Adapter: 1 ID: 1

Read mode : Secure
Utilize accurate stream : Yes
Defeat audio cache : Yes
Make use of C2 pointers : No

Read offset correction : 667
Overread into Lead-In and Lead-Out : No
Fill up missing offset samples with silence : Yes
Delete leading and trailing silent blocks : No
Null samples used in CRC calculations : Yes
Used interface : Native Win32 interface for Win NT & 2000

Used output format : User Defined Encoder
Selected bitrate : 128 kBit/s
Quality : High
Add ID3 tag : No
Command line compressor : C:\Program Files (x86)\Exact Audio Copy\Flac\flac.exe
Additional command line options : -V -8 -T "Date=%year%" -T "Genre=%genre%" %source%


TOC of the extracted CD

Track | Start | Length | Start sector | End sector
––––––––––––––––––––––––––––-
1 | 0:00.00 | 4:25.10 | 0 | 19884
2 | 4:25.10 | 4:05.35 | 19885 | 38294
3 | 8:30.45 | 4:21.30 | 38295 | 57899
4 | 12:52.00 | 4:39.65 | 57900 | 78889


Range status and errors

Selected range

Filename C:\Users\Олег\Desktop\Ticket To Heaven\Dire Straits - Ticket to heaven (CD Single).wav

Peak level 98.2 %
Extraction speed 1.1 X
Range quality 100.0 %
Test CRC 78B4F9B9
Copy CRC 78B4F9B9
Copy OK

No errors occurred


AccurateRip summary

Track 1 accurately ripped (confidence 5) [C0B082F4] (AR v2)
Track 2 accurately ripped (confidence 5) [4B6FF320] (AR v2)
Track 3 accurately ripped (confidence 6) [6EE4BF84] (AR v2)
Track 4 accurately ripped (confidence 6) [256562D9] (AR v2)

All tracks accurately ripped

End of status report

–– CUETools DB Plugin V2.1.6

[CTDB TOCID: InQ7EwpayvV.V4pOBFHCOqPV7GU-] found
Submit result: InQ7EwpayvV.V4pOBFHCOqPV7GU- has been confirmed
Track | CTDB Status
1 | (6/6) Accurately ripped
2 | (6/6) Accurately ripped
3 | (6/6) Accurately ripped
4 | (6/6) Accurately ripped


==== Log checksum D3EFADB5B03F4FA48E8B5B3D5A8C5A6B5A69DAD778BDBB6CAF859D91772B9FB4 ====


Dire Straits: Promo, CDS & CDV Collection (1986 - 1998)

Tracklist CD16 - Sultans Of Swing (Promo) 1998:
Vertigo, SULT 98, UK

[01] Sultans Of Swing [05:48]

Exact Audio Copy V1.1 from 23. June 2015

EAC extraction logfile from 12. January 2016, 16:00

Dire Straits / Sultans of swing

Used drive : ASUS SDRW-08D1S-U Adapter: 1 ID: 1

Read mode : Secure
Utilize accurate stream : Yes
Defeat audio cache : Yes
Make use of C2 pointers : No

Read offset correction : 667
Overread into Lead-In and Lead-Out : No
Fill up missing offset samples with silence : Yes
Delete leading and trailing silent blocks : No
Null samples used in CRC calculations : Yes
Used interface : Native Win32 interface for Win NT & 2000

Used output format : User Defined Encoder
Selected bitrate : 128 kBit/s
Quality : High
Add ID3 tag : No
Command line compressor : C:\Program Files (x86)\Exact Audio Copy\Flac\flac.exe
Additional command line options : -V -8 -T "Date=%year%" -T "Genre=%genre%" %source%


TOC of the extracted CD

Track | Start | Length | Start sector | End sector
––––––––––––––––––––––––––––-
1 | 0:00.32 | 5:47.43 | 32 | 26099


Range status and errors

Selected range

Filename C:\Users\Олег\Desktop\Sultans of swing\Dire Straits - Sultans of swing.wav

Peak level 96.6 %
Extraction speed 2.5 X
Range quality 100.0 %
Test CRC 0A9B7605
Copy CRC 0A9B7605
Copy OK

No errors occurred


AccurateRip summary

Track 1 accurately ripped (confidence 1) [2A74A282] (AR v2)

All tracks accurately ripped

End of status report

–– CUETools DB Plugin V2.1.6

[CTDB TOCID: It1275N0Kxd8E1uc5BxFLzB7I0w-] found
Submit result: already submitted
Track | CTDB Status
1 | (1/8) Accurately ripped


==== Log checksum E271F23F91FF37B9A5486DA6B3651D34CD166BD4F149AB966DECBE9B94B9BA47 ====


* * *

All thanks go to Alex Fal

Dire Straits in my Blog

Download Dire Straits: Promo, CDS & CDV Collection (1986 - 1998):