Subcategories

VA - Disco Discharge Series 3 (2011) (4 Volumes) [Lossless]

Posted By: mook45
VA - Disco Discharge Series 3 (2011) (4 Volumes) [Lossless]

VA - Disco Discharge Series 3 (2011) (4 Volumes) [Lossless]
EAC | FLAC IMG,CUE+LOG = 3.99GB | 400 dpi Scans
Disco | Label: Harmless | FSe/FSo/FF


Round three of every disco connoisseur's favourite series, this time with quite a few guilty pleasures selected along with the usual forgotten classics.

Series 1 is here

Series 2 is here

VA - Disco Discharge Series 3 (2011) (4 Volumes) [Lossless]


Disco Fever USA

Track listing
Disc 1

Fern Kinney - Baby Let Me Kiss You (Original Album Version)
Dennis Parker - Like An Eagle (Original 12" Mix)
Richard T Bear - Sunshine Hotel (Original 12" Mix)
THP Orchestra - Two Hot For Love (Original 12" Mix)
Claudja Barry - Why Must A Girl Like Me (Tom Moulton Album Version)
Cissy Houston - You're The Fire (Original Album Version)
Marlena Shaw - Love Dancing (Original 12" Mix)
Earth Wind & Fire - Boogie Wonderland (Original 12" Instrumental Mix)
John Davis & The Monster Orchestra - Holler (Original Album Version)
Slick - Space Bass (Original 12" Mix)
Chuck Cissel - Cisselin' Hot (Original 12" Mix)

Disc 2

Boys Town Gang - Yester-Me, Yester-You, Yesterday (Original Album Version)
Teddy Pendergrass - Life Is A Song Worth Singing (Original Album Version)
Double Discovery - Step On Out (Original Album Version)
Celi Bee & The Buzzy Bunch - One Love (Original 12" Version)
Johnny Mathis - Begin The Beguine (Special Disco Version)
Area Code (212) - Duke's Train (Original Album Version)
Ultimate - Ritmo De Brazil (Original Album Version)
Paradise Express - Dance (Original 12" Mix)
Gloria Gaynor - Love Is Just A Heartbeat Away (Nocturna'a Theme) (Original Disco Mix From The Soundtrack To Nocturna)
Linda Clifford - If My Friends Could See Me Now (Original 12" Mix)
Vicki Sue Robinson - Nighttime Fantasy (Original Disco Mix From The Soundtrack To Nocturna)

Exact Audio Copy V1.0 beta 1 from 15. November 2010

EAC extraction logfile from 12. May 2011, 20:09

Various / Disco Discharge - Disco Fever USA (Disc 1)

Used drive : HP DVD Writer 1040r Adapter: 1 ID: 0

Read mode : Secure
Utilize accurate stream : Yes
Defeat audio cache : Yes
Make use of C2 pointers : No

Read offset correction : 6
Overread into Lead-In and Lead-Out : No
Fill up missing offset samples with silence : Yes
Delete leading and trailing silent blocks : No
Null samples used in CRC calculations : No
Used interface : Native Win32 interface for Win NT & 2000

Used output format : User Defined Encoder
Selected bitrate : 1024 kBit/s
Quality : High
Add ID3 tag : No
Command line compressor : C:\Program Files\Exact Audio Copy\FLAC\FLAC.EXE
Additional command line options : -6 -V -T "ARTIST=%a" -T "TITLE=%t" -T "ALBUM=%g" -T "DATE=%y" -T "TRACKNUMBER=%n" -T "GENRE=%m" -T "COMMENT=%e" %j–picture="%i"%j %s -o %d


TOC of the extracted CD

Track | Start | Length | Start sector | End sector
––––––––––––––––––––––––––––-
1 | 0:00.00 | 8:18.46 | 0 | 37395
2 | 8:18.46 | 8:35.27 | 37396 | 76047
3 | 16:53.73 | 6:09.17 | 76048 | 103739
4 | 23:03.15 | 6:44.37 | 103740 | 134076
5 | 29:47.52 | 7:28.68 | 134077 | 167744
6 | 37:16.45 | 5:58.04 | 167745 | 194598
7 | 43:14.49 | 7:56.01 | 194599 | 230299
8 | 51:10.50 | 6:17.37 | 230300 | 258611
9 | 57:28.12 | 6:02.70 | 258612 | 285831
10 | 63:31.07 | 7:06.12 | 285832 | 317793
11 | 70:37.19 | 5:32.17 | 317794 | 342710


Range status and errors

Selected range

Filename C:\Users\Mike3\Desktop\Disco Dscharge - Disco Fever USA\Disc 1\Various - Disco Discharge - Disco Fever USA (Disc 1).wav

Peak level 99.4 %
Extraction speed 0.2 X
Range quality 100.0 %
Test CRC 431B7E58
Copy CRC 431B7E58
Copy OK

No errors occurred


AccurateRip summary

Track 1 accurately ripped (confidence 2) [63E02BE6]
Track 2 accurately ripped (confidence 2) [5F5EF080]
Track 3 not present in database
Track 4 not present in database
Track 5 not present in database
Track 6 not present in database
Track 7 not present in database
Track 8 not present in database
Track 9 not present in database
Track 10 not present in database
Track 11 not present in database

2 track(s) accurately ripped
9 track(s) not present in the AccurateRip database

Some tracks could not be verified as accurate

End of status report

==== Log checksum AB4EE356A51AA2BE754E4B29A76B2D6477D7C4164971D81C9E7287E805B56A77 ====


Exact Audio Copy V1.0 beta 1 from 15. November 2010

EAC extraction logfile from 12. May 2011, 20:57

Various / Disco Discharge - Disco Fever USA (CD 2)

Used drive : HP DVD Writer 1040r Adapter: 1 ID: 0

Read mode : Secure
Utilize accurate stream : Yes
Defeat audio cache : Yes
Make use of C2 pointers : No

Read offset correction : 6
Overread into Lead-In and Lead-Out : No
Fill up missing offset samples with silence : Yes
Delete leading and trailing silent blocks : No
Null samples used in CRC calculations : No
Used interface : Native Win32 interface for Win NT & 2000

Used output format : User Defined Encoder
Selected bitrate : 1024 kBit/s
Quality : High
Add ID3 tag : No
Command line compressor : C:\Program Files\Exact Audio Copy\FLAC\FLAC.EXE
Additional command line options : -6 -V -T "ARTIST=%a" -T "TITLE=%t" -T "ALBUM=%g" -T "DATE=%y" -T "TRACKNUMBER=%n" -T "GENRE=%m" -T "COMMENT=%e" %j–picture="%i"%j %s -o %d


TOC of the extracted CD

Track | Start | Length | Start sector | End sector
––––––––––––––––––––––––––––-
1 | 0:00.00 | 5:13.69 | 0 | 23543
2 | 5:13.69 | 4:11.70 | 23544 | 42438
3 | 9:25.64 | 4:03.15 | 42439 | 60678
4 | 13:29.04 | 8:02.28 | 60679 | 96856
5 | 21:31.32 | 8:28.62 | 96857 | 135018
6 | 30:00.19 | 6:53.17 | 135019 | 166010
7 | 36:53.36 | 4:49.30 | 166011 | 187715
8 | 41:42.66 | 8:16.70 | 187716 | 224985
9 | 49:59.61 | 7:27.12 | 224986 | 258522
10 | 57:26.73 | 7:56.23 | 258523 | 294245
11 | 65:23.21 | 9:25.36 | 294246 | 336656


Range status and errors

Selected range

Filename C:\Users\Mike3\Desktop\Disco Dscharge - Disco Fever USA\Disc 2\Various - Disco Discharge - Disco Fever USA (CD 2).wav

Peak level 99.4 %
Extraction speed 0.4 X
Range quality 100.0 %
Test CRC CF6DC9BD
Copy CRC CF6DC9BD
Copy OK

No errors occurred


AccurateRip summary

Track 1 not present in database
Track 2 not present in database
Track 3 not present in database
Track 4 not present in database
Track 5 not present in database
Track 6 not present in database
Track 7 not present in database
Track 8 not present in database
Track 9 not present in database
Track 10 not present in database
Track 11 not present in database

None of the tracks are present in the AccurateRip database

End of status report

==== Log checksum A9FC920075DC655BEDAE1C313E704325C7884A3FB74FB51DC2999B64E8817A83 ====


VA - Disco Discharge Series 3 (2011) (4 Volumes) [Lossless]


Mondo Disco

Track listing
Disc 1

Patrick Juvet - Got A Feeling (Original 12" Mix)
5000 Volts - Doctor Kiss Kiss (Original Single Version)
Gepy & Gepy - Body To Body (Original 12" Mix)
Who's Who - Hypnodance (Original Album Version)
Boney M - He Was A Steppenwolf (Original Album Version)
Supermax - African Blood (Original 12" Mix)
John Davis & The Monster Orchestra - Bourgie Bourgie (Original 12" Mix)
Grand Tour - Flight From Versailles (Original Album Version)
Space - Prison (Original Album Version)
Voyage - Lady America (Original Album Version)
Cerrone - Call Me Tonight (Original Album Version)
Claudja Barry - Trippin' On The Moon (Original 12" Club Mix)

Disc 2

Technique - (Looking For Someone To Love) Tonight (Original 12" Mix)
Passengers - The Last Romantic (Original Album Version)
Liquid Gold - My Baby's Baby (Original Album Version)
Adrian Baker - Don't Take The Night Away (Previously Unreleased Mix)
Eruption - I Can't Stand The Rain (Original Album Version)
Voyage - Souvenirs (Instrumental Album Version)
Azoto - San Salvador (Original 12" Mix)
The Gibson Brothers - Que Sera Mi Vida (Original 12" Mix)
Andy Williams - Love Story (Original 12" Mix)
Disco Circus - Over And Over (Original 12" Mix)
La Bionda - Deserts of Mars (Original Album Version)

Exact Audio Copy V1.0 beta 1 from 15. November 2010

EAC extraction logfile from 11. May 2011, 20:18

Various / Disco Discharge - Mondo Disco CD 1

Used drive : HP DVD Writer 1040r Adapter: 1 ID: 0

Read mode : Secure
Utilize accurate stream : Yes
Defeat audio cache : Yes
Make use of C2 pointers : No

Read offset correction : 6
Overread into Lead-In and Lead-Out : No
Fill up missing offset samples with silence : Yes
Delete leading and trailing silent blocks : No
Null samples used in CRC calculations : No
Used interface : Native Win32 interface for Win NT & 2000

Used output format : User Defined Encoder
Selected bitrate : 1024 kBit/s
Quality : High
Add ID3 tag : No
Command line compressor : C:\Program Files\Exact Audio Copy\FLAC\FLAC.EXE
Additional command line options : -6 -V -T "ARTIST=%a" -T "TITLE=%t" -T "ALBUM=%g" -T "DATE=%y" -T "TRACKNUMBER=%n" -T "GENRE=%m" -T "COMMENT=%e" %j–picture="%i"%j %s -o %d


TOC of the extracted CD

Track | Start | Length | Start sector | End sector
––––––––––––––––––––––––––––-
1 | 0:00.00 | 5:42.09 | 0 | 25658
2 | 5:42.09 | 3:07.22 | 25659 | 39705
3 | 8:49.31 | 7:39.36 | 39706 | 74166
4 | 16:28.67 | 4:47.17 | 74167 | 95708
5 | 21:16.09 | 6:51.46 | 95709 | 126579
6 | 28:07.55 | 8:33.68 | 126580 | 165122
7 | 36:41.48 | 6:09.72 | 165123 | 192869
8 | 42:51.45 | 5:02.16 | 192870 | 215535
9 | 47:53.61 | 6:17.34 | 215536 | 243844
10 | 54:11.20 | 6:52.00 | 243845 | 274744
11 | 61:03.20 | 7:35.61 | 274745 | 308930
12 | 68:39.06 | 7:54.01 | 308931 | 344481


Range status and errors

Selected range

Filename C:\Users\Mike3\Desktop\Disco Discharge - Mondo Disco\Disc 1\Various - Disco Discharge - Mondo Disco CD 1.wav

Peak level 99.4 %
Extraction speed 0.3 X
Range quality 99.9 %
Test CRC 009E8922
Copy CRC 009E8922
Copy OK

No errors occurred


AccurateRip summary

Track 1 not present in database
Track 2 not present in database
Track 3 not present in database
Track 4 not present in database
Track 5 not present in database
Track 6 not present in database
Track 7 not present in database
Track 8 not present in database
Track 9 not present in database
Track 10 not present in database
Track 11 not present in database
Track 12 accurately ripped (confidence 2) [8B2B84BB]

1 track(s) accurately ripped
11 track(s) not present in the AccurateRip database

Some tracks could not be verified as accurate

End of status report

==== Log checksum 780123B096C4ABDBF96080A40DE24206B61F833B59EF8551DBDD3B42C61C0273 ====


Exact Audio Copy V1.0 beta 1 from 15. November 2010

EAC extraction logfile from 11. May 2011, 21:07

Various / Disco Discharge - Mondo Disco CD 2

Used drive : HP DVD Writer 1040r Adapter: 1 ID: 0

Read mode : Secure
Utilize accurate stream : Yes
Defeat audio cache : Yes
Make use of C2 pointers : No

Read offset correction : 6
Overread into Lead-In and Lead-Out : No
Fill up missing offset samples with silence : Yes
Delete leading and trailing silent blocks : No
Null samples used in CRC calculations : No
Used interface : Native Win32 interface for Win NT & 2000

Used output format : User Defined Encoder
Selected bitrate : 1024 kBit/s
Quality : High
Add ID3 tag : No
Command line compressor : C:\Program Files\Exact Audio Copy\FLAC\FLAC.EXE
Additional command line options : -6 -V -T "ARTIST=%a" -T "TITLE=%t" -T "ALBUM=%g" -T "DATE=%y" -T "TRACKNUMBER=%n" -T "GENRE=%m" -T "COMMENT=%e" %j–picture="%i"%j %s -o %d


TOC of the extracted CD

Track | Start | Length | Start sector | End sector
––––––––––––––––––––––––––––-
1 | 0:00.00 | 4:28.14 | 0 | 20113
2 | 4:28.14 | 4:29.51 | 20114 | 40339
3 | 8:57.65 | 6:09.46 | 40340 | 68060
4 | 15:07.36 | 7:41.15 | 68061 | 102650
5 | 22:48.51 | 6:26.60 | 102651 | 131660
6 | 29:15.36 | 6:19.39 | 131661 | 160124
7 | 35:35.00 | 6:51.35 | 160125 | 190984
8 | 42:26.35 | 6:42.71 | 190985 | 221205
9 | 49:09.31 | 9:40.49 | 221206 | 264754
10 | 58:50.05 | 9:00.38 | 264755 | 305292
11 | 67:50.43 | 6:33.68 | 305293 | 334835


Range status and errors

Selected range

Filename C:\Users\Mike3\Desktop\Disco Discharge - Mondo Disco\Disc 2\Various - Disco Discharge - Mondo Disco CD 2.wav

Peak level 99.4 %
Extraction speed 0.3 X
Range quality 100.0 %
Test CRC 9B1DDBE2
Copy CRC 9B1DDBE2
Copy OK

No errors occurred


AccurateRip summary

Track 1 not present in database
Track 2 not present in database
Track 3 not present in database
Track 4 not present in database
Track 5 not present in database
Track 6 not present in database
Track 7 not present in database
Track 8 not present in database
Track 9 not present in database
Track 10 not present in database
Track 11 not present in database

None of the tracks are present in the AccurateRip database

End of status report

==== Log checksum 4221CD53C2F445447CB8E642BD047830D9E20975DA7C2979301F4EC016FD6332 ====


VA - Disco Discharge Series 3 (2011) (4 Volumes) [Lossless]


Euro Beats

Track listing
Disc 1

Ryan Paris - Dolce Vita (Original 12" Mix)
The Twins - Desert Place (Original 12" Mix)
Modern Talking - Atlantis Is Calling (S.O.S. For Love) (Original 12" Mix)
Meccano - Activate My Heart (Original 12" Mix)
Taffy - Walk Into The Daylight (Original 12" Mix)
Fun Fun - Baila Bolero (Original 12" Mix)
Cruisin' Gang - Chinatown (Original 12" Mix)
Sabrina - Boys (Original 12" Dub)
Deborah - Danger For Love (Original 12" Mix)
Green Olives - Jive Into The Night (Original 12" Mix)
Gipsy Queen - Gipsy & Queen (Re-edit)

Disc 2

Moon Ray (Raggio Di Luna) - Comanchero (Original 12" Mix)
Kano - Can't Hold Back (Original 12" Mix)
Stefano Pulga - Love Taker (Original 12" Mix)
Passengers - He's Speedy Like Gonzalez ( Original 7" Mix)
Raffaella Carra - 1,2,3,4 Dancing (Original Album Version)
Digital Emotion - Get Up Action (Original 12" Mix)
L-Vira - Talkin' About Rambo (Original 12" Mix)
The 'V' Project featuring Vanelle - First Hand Experience In Second Hand Love (Original 12" Mix)
Doctors Cat - Feel The Drive (Original 12" Instrumental Mix)
Cruisin' Gang - America Medley With Machinery (Original 12" Mix)
DJ Proffesor Feat Zappalla - We Gotta Do It (Original 12" Mix)

Exact Audio Copy V1.0 beta 1 from 15. November 2010

EAC extraction logfile from 11. May 2011, 23:01

Various Artists / Disco Discharge: Euro Beats (CD 1)

Used drive : HP DVD Writer 1040r Adapter: 1 ID: 0

Read mode : Secure
Utilize accurate stream : Yes
Defeat audio cache : Yes
Make use of C2 pointers : No

Read offset correction : 6
Overread into Lead-In and Lead-Out : No
Fill up missing offset samples with silence : Yes
Delete leading and trailing silent blocks : No
Null samples used in CRC calculations : No
Used interface : Native Win32 interface for Win NT & 2000

Used output format : User Defined Encoder
Selected bitrate : 1024 kBit/s
Quality : High
Add ID3 tag : No
Command line compressor : C:\Program Files\Exact Audio Copy\FLAC\FLAC.EXE
Additional command line options : -6 -V -T "ARTIST=%a" -T "TITLE=%t" -T "ALBUM=%g" -T "DATE=%y" -T "TRACKNUMBER=%n" -T "GENRE=%m" -T "COMMENT=%e" %j–picture="%i"%j %s -o %d


TOC of the extracted CD

Track | Start | Length | Start sector | End sector
––––––––––––––––––––––––––––-
1 | 0:00.00 | 7:31.65 | 0 | 33889
2 | 7:31.65 | 6:01.35 | 33890 | 60999
3 | 13:33.25 | 5:22.71 | 61000 | 85220
4 | 18:56.21 | 5:11.70 | 85221 | 108615
5 | 24:08.16 | 5:18.26 | 108616 | 132491
6 | 29:26.42 | 9:22.38 | 132492 | 174679
7 | 38:49.05 | 6:07.32 | 174680 | 202236
8 | 44:56.37 | 5:36.42 | 202237 | 227478
9 | 50:33.04 | 5:34.28 | 227479 | 252556
10 | 56:07.32 | 6:19.39 | 252557 | 281020
11 | 62:26.71 | 5:53.00 | 281021 | 307495


Range status and errors

Selected range

Filename C:\Users\Mike3\Desktop\Disco Discharge - Euro Beats\Disc 1\Various Artists - Disco Discharge- Euro Beats (CD 1).wav

Peak level 99.4 %
Extraction speed 0.2 X
Range quality 100.0 %
Test CRC 5D3D9470
Copy CRC 5D3D9470
Copy OK

No errors occurred


AccurateRip summary

Track 1 accurately ripped (confidence 1) [A270B0B9]
Track 2 accurately ripped (confidence 1) [9412F993]
Track 3 accurately ripped (confidence 1) [80EDFA19]
Track 4 accurately ripped (confidence 1) [668E46A0]
Track 5 accurately ripped (confidence 1) [15E2BEF5]
Track 6 accurately ripped (confidence 1) [28289046]
Track 7 accurately ripped (confidence 1) [C855BAAB]
Track 8 accurately ripped (confidence 1) [32ABDFCA]
Track 9 accurately ripped (confidence 1) [5A2E8BB7]
Track 10 accurately ripped (confidence 1) [7DBBF659]
Track 11 accurately ripped (confidence 1) [0BE18538]

All tracks accurately ripped

End of status report

==== Log checksum 3FC5EDC7F10A866DB65D1518CAC23C0B1FFF89422710D2E7D32FC3211F1E1E7B ====


Exact Audio Copy V1.0 beta 1 from 15. November 2010

EAC extraction logfile from 11. May 2011, 23:51

Various Artists / Disco Discharge: Euro Beats (CD 2)

Used drive : HP DVD Writer 1040r Adapter: 1 ID: 0

Read mode : Secure
Utilize accurate stream : Yes
Defeat audio cache : Yes
Make use of C2 pointers : No

Read offset correction : 6
Overread into Lead-In and Lead-Out : No
Fill up missing offset samples with silence : Yes
Delete leading and trailing silent blocks : No
Null samples used in CRC calculations : No
Used interface : Native Win32 interface for Win NT & 2000

Used output format : User Defined Encoder
Selected bitrate : 1024 kBit/s
Quality : High
Add ID3 tag : No
Command line compressor : C:\Program Files\Exact Audio Copy\FLAC\FLAC.EXE
Additional command line options : -6 -V -T "ARTIST=%a" -T "TITLE=%t" -T "ALBUM=%g" -T "DATE=%y" -T "TRACKNUMBER=%n" -T "GENRE=%m" -T "COMMENT=%e" %j–picture="%i"%j %s -o %d


TOC of the extracted CD

Track | Start | Length | Start sector | End sector
––––––––––––––––––––––––––––-
1 | 0:00.00 | 7:32.74 | 0 | 33973
2 | 7:32.74 | 7:06.63 | 33974 | 65986
3 | 14:39.62 | 6:20.53 | 65987 | 94539
4 | 21:00.40 | 3:59.66 | 94540 | 112530
5 | 25:00.31 | 3:06.62 | 112531 | 126542
6 | 28:07.18 | 5:47.68 | 126543 | 152635
7 | 33:55.11 | 6:50.38 | 152636 | 183423
8 | 40:45.49 | 5:59.66 | 183424 | 210414
9 | 46:45.40 | 5:52.53 | 210415 | 236867
10 | 52:38.18 | 7:28.18 | 236868 | 270485
11 | 60:06.36 | 8:50.59 | 270486 | 310294


Range status and errors

Selected range

Filename C:\Users\Mike3\Desktop\Disco Discharge - Euro Beats\Disc 2\Various Artists - Disco Discharge- Euro Beats (CD 2).wav

Peak level 99.4 %
Extraction speed 0.4 X
Range quality 100.0 %
Test CRC E87781FC
Copy CRC E87781FC
Copy OK

No errors occurred


AccurateRip summary

Track 1 accurately ripped (confidence 1) [F4324B22]
Track 2 accurately ripped (confidence 1) [AECA4507]
Track 3 accurately ripped (confidence 1) [312434C8]
Track 4 accurately ripped (confidence 1) [7CCF00C1]
Track 5 accurately ripped (confidence 1) [0D6AE2B2]
Track 6 accurately ripped (confidence 1) [367A3B13]
Track 7 accurately ripped (confidence 1) [0588243C]
Track 8 accurately ripped (confidence 1) [D6DFD130]
Track 9 accurately ripped (confidence 1) [A5EAB33C]
Track 10 accurately ripped (confidence 1) [8EAC7B08]
Track 11 accurately ripped (confidence 1) [65782CAF]

All tracks accurately ripped

End of status report

==== Log checksum 63796CE350186D9FAF35F7C82A434E439D0A58435900646077AB9408D970A6A1 ====


VA - Disco Discharge Series 3 (2011) (4 Volumes) [Lossless]


Cruising the Beats

Track listing

Disc 1

Boys Town Gang - Can't Take My Eyes Of You (Original 12" Mix)
Dan Hartman - Vertigo/Relight My Fire (Original 12" Mix)
Voyage - Golden Elderado (Original Album Version)
Who's Who - Palace Palace (Original 12" Mix)
Night Force - Dance (Original 12" Mix)
Noel - Dancing Is Dangerous (Original 12" Mix)
Lifeforce - What A Way To Go (Original 12" Mix)
Norma Lewis - Maybe This Time (Original 12" Mix)
Sleeping Lions - Sound Of My Heart (Slightly Baroque) (Original 12" Mix)
Claudja Barry & Ronnie Jones - The Two Of Us (DISCONET Extended Remix)

Disc 2

Janet D'Eon - Anything Like You (Original 12" Euro Mix)
Ellie Warren - Satellites (Original 12" Mix)
Jackie Rawe - I Believe In Dreams (Original 12" Mix)
Raquel Welch - This Girl's Back In Town (Original 12" Mix)
Waterfront Home - Take A Chance (On Me) (Original 12" Mix)
People Like Us - Midnight Lover (Original 12" Mix)
Bobby O - Suspicious Minds (Original 12" Mix)
Fantastique - Mama Told Me (Original 12" Mix)
Area Code (212) - Manhattan Shuffle (Original 12" Mix)
Technique - Can We Try Again (Original 12" Mix)
Patrick Juvet - The "Gay Paris" / French Pillow Talk (Original Album Medley)

Exact Audio Copy V1.0 beta 1 from 15. November 2010

EAC extraction logfile from 12. May 2011, 21:46

Various / Disco Discharge - Cruising The Beats (CD1)

Used drive : HP DVD Writer 1040r Adapter: 1 ID: 0

Read mode : Secure
Utilize accurate stream : Yes
Defeat audio cache : Yes
Make use of C2 pointers : No

Read offset correction : 6
Overread into Lead-In and Lead-Out : No
Fill up missing offset samples with silence : Yes
Delete leading and trailing silent blocks : No
Null samples used in CRC calculations : No
Used interface : Native Win32 interface for Win NT & 2000

Used output format : User Defined Encoder
Selected bitrate : 1024 kBit/s
Quality : High
Add ID3 tag : No
Command line compressor : C:\Program Files\Exact Audio Copy\FLAC\FLAC.EXE
Additional command line options : -6 -V -T "ARTIST=%a" -T "TITLE=%t" -T "ALBUM=%g" -T "DATE=%y" -T "TRACKNUMBER=%n" -T "GENRE=%m" -T "COMMENT=%e" %j–picture="%i"%j %s -o %d


TOC of the extracted CD

Track | Start | Length | Start sector | End sector
––––––––––––––––––––––––––––-
1 | 0:00.00 | 9:34.53 | 0 | 43102
2 | 9:34.53 | 9:38.20 | 43103 | 86472
3 | 19:12.73 | 4:55.67 | 86473 | 108664
4 | 24:08.65 | 5:40.30 | 108665 | 134194
5 | 29:49.20 | 6:42.23 | 134195 | 164367
6 | 36:31.43 | 9:14.26 | 164368 | 205943
7 | 45:45.69 | 4:50.62 | 205944 | 227755
8 | 50:36.56 | 6:48.33 | 227756 | 258388
9 | 57:25.14 | 6:30.31 | 258389 | 287669
10 | 63:55.45 | 8:30.06 | 287670 | 325925


Range status and errors

Selected range

Filename C:\Users\Mike3\Desktop\Disco Discharge - Cruising the Beats\Disc 1\Various - Disco Discharge - Cruising The Beats (CD1).wav

Peak level 99.4 %
Extraction speed 0.3 X
Range quality 100.0 %
Test CRC 16AD8E61
Copy CRC 16AD8E61
Copy OK

No errors occurred


AccurateRip summary

Track 1 not present in database
Track 2 not present in database
Track 3 not present in database
Track 4 not present in database
Track 5 not present in database
Track 6 not present in database
Track 7 not present in database
Track 8 not present in database
Track 9 not present in database
Track 10 not present in database

None of the tracks are present in the AccurateRip database

End of status report

==== Log checksum 2CF3D13AC6D272C94685BB1CA546196AD1D616F3ED2654876122133DDDD86582 ====


Exact Audio Copy V1.0 beta 1 from 15. November 2010

EAC extraction logfile from 12. May 2011, 22:34

Various / Disco Discharge - Crusing The Beats (CD2)

Used drive : HP DVD Writer 1040r Adapter: 1 ID: 0

Read mode : Secure
Utilize accurate stream : Yes
Defeat audio cache : Yes
Make use of C2 pointers : No

Read offset correction : 6
Overread into Lead-In and Lead-Out : No
Fill up missing offset samples with silence : Yes
Delete leading and trailing silent blocks : No
Null samples used in CRC calculations : No
Used interface : Native Win32 interface for Win NT & 2000

Used output format : User Defined Encoder
Selected bitrate : 1024 kBit/s
Quality : High
Add ID3 tag : No
Command line compressor : C:\Program Files\Exact Audio Copy\FLAC\FLAC.EXE
Additional command line options : -6 -V -T "ARTIST=%a" -T "TITLE=%t" -T "ALBUM=%g" -T "DATE=%y" -T "TRACKNUMBER=%n" -T "GENRE=%m" -T "COMMENT=%e" %j–picture="%i"%j %s -o %d


TOC of the extracted CD

Track | Start | Length | Start sector | End sector
––––––––––––––––––––––––––––-
1 | 0:00.00 | 5:52.52 | 0 | 26451
2 | 5:52.52 | 8:41.16 | 26452 | 65542
3 | 14:33.68 | 7:20.45 | 65543 | 98587
4 | 21:54.38 | 6:45.54 | 98588 | 129016
5 | 28:40.17 | 5:39.22 | 129017 | 154463
6 | 34:19.39 | 7:34.17 | 154464 | 188530
7 | 41:53.56 | 6:29.27 | 188531 | 217732
8 | 48:23.08 | 5:36.67 | 217733 | 242999
9 | 54:00.00 | 6:12.00 | 243000 | 270899
10 | 60:12.00 | 5:10.18 | 270900 | 294167
11 | 65:22.18 | 11:18.31 | 294168 | 345048


Range status and errors

Selected range

Filename C:\Users\Mike3\Desktop\Disco Discharge - Cruising the Beats\Disc 2\Various - Disco Discharge - Crusing The Beats (CD2).wav

Peak level 99.4 %
Extraction speed 0.5 X
Range quality 100.0 %
Test CRC 3D15ABE7
Copy CRC 3D15ABE7
Copy OK

No errors occurred


AccurateRip summary

Track 1 not present in database
Track 2 not present in database
Track 3 not present in database
Track 4 not present in database
Track 5 not present in database
Track 6 not present in database
Track 7 not present in database
Track 8 not present in database
Track 9 not present in database
Track 10 not present in database
Track 11 not present in database

None of the tracks are present in the AccurateRip database

End of status report

==== Log checksum 4D84F1EA09D6609B33AEF3DD219EFC01AED2ECF8280DA344409DD73DECC70401 ====


Download:

FSo

FSe

FileFactory

No mirrors