Subcategories

VA - Disco Discharge Series 2 (2010) (4 Volumes) [Lossless]

Posted By: mook45
VA - Disco Discharge Series 2 (2010) (4 Volumes) [Lossless]

VA - Disco Discharge Series 2 (2010) (4 Volumes) [Lossless]
EAC | FLAC IMG,CUE+LOG = 3.85GB | 400 dpi Scans
Disco | Label: Harmless | FSe/FSo/FF


Round two of every disco connoisseur's favourite series, once again digging out classic after classic of lesser-known disco gems.

Series 1 is here

VA - Disco Discharge Series 2 (2010) (4 Volumes) [Lossless]


Disco Boogie

Track listing
Disc 1

1. Average White Band - Let's Go Round Again (Original 12" Mix)
2. Feel - I'd Like To (Original 12" Mix)
3. Vin Zee - Funky Bee Bop (Original 12" Mix)
4. Sybil Thomas - Rescue Me (Original 12" Mix)
5. Cashmere - Inner Feelings (Original Album Version)
6. Al McCall - Hard Times (Original 12" Mix)
7. Sharon Redd - Love How You Feel (Original 12" Mix)
8. Carte Blanche - Do You Like It Like That (Original 12" Mix)
9. Benelux And Nancy Dee - Switch (Original 12" Instrumental Mix)
10. Donna McGhee - Do As I Do (Original 12" Mix)

Disc 2

1. Toto Featuring Cheryl Lynn - Georgy Porgy (Special Disco Mix)
2. Terri Wells - You Make It Heaven (Original 12" Mix)
3. Illusion Orchestra - Autumn Leaves (Original 12" Mix)
4. Deodato - Night Cruiser (Original 12" Mix)
5. Skyy - Call Me (Original 12" Mix)
6. Maxine Singleton - You Can't Run From Love (Original 12" Club Mix)
7. Conquest - Give It To Me (If You Don't Mind) (Original 12" Mix)
8. D Train - Keep On (Francois Kevorkian 12" Remix)
9. Nick Straker Band - Straight Ahead (Original 12" Mix)
10. Alisha - Baby Talk (Special 12" Remix By Shep Pettibone)

Exact Audio Copy V1.0 beta 1 from 15. November 2010

EAC extraction logfile from 11. February 2011, 16:00

Various Artists / Disco Discharge: Disco Boogie (CD 1)

Used drive : HP DVD Writer 1040r Adapter: 1 ID: 0

Read mode : Secure
Utilize accurate stream : Yes
Defeat audio cache : Yes
Make use of C2 pointers : No

Read offset correction : 6
Overread into Lead-In and Lead-Out : No
Fill up missing offset samples with silence : Yes
Delete leading and trailing silent blocks : No
Null samples used in CRC calculations : No
Used interface : Native Win32 interface for Win NT & 2000

Used output format : User Defined Encoder
Selected bitrate : 1024 kBit/s
Quality : High
Add ID3 tag : No
Command line compressor : C:\Program Files\Exact Audio Copy\FLAC\FLAC.EXE
Additional command line options : -6 -V -T "ARTIST=%a" -T "TITLE=%t" -T "ALBUM=%g" -T "DATE=%y" -T "TRACKNUMBER=%n" -T "GENRE=%m" -T "COMMENT=%e" %j–picture="%i"%j %s -o %d


TOC of the extracted CD

Track | Start | Length | Start sector | End sector
––––––––––––––––––––––––––––-
1 | 0:00.00 | 6:28.06 | 0 | 29105
2 | 6:28.06 | 6:36.56 | 29106 | 58861
3 | 13:04.62 | 6:53.16 | 58862 | 89852
4 | 19:58.03 | 6:37.39 | 89853 | 119666
5 | 26:35.42 | 5:57.67 | 119667 | 146508
6 | 32:33.34 | 5:00.12 | 146509 | 169020
7 | 37:33.46 | 7:00.70 | 169021 | 200590
8 | 44:34.41 | 5:44.61 | 200591 | 226451
9 | 50:19.27 | 6:25.24 | 226452 | 255350
10 | 56:44.51 | 10:21.38 | 255351 | 301963


Range status and errors

Selected range

Filename C:\Users\Mike3\Desktop\To Do\Disco Discharge - Disco Boogie\Disc 1\Various Artists - Disco Discharge- Disco Boogie (CD 1).wav

Peak level 99.4 %
Extraction speed 0.5 X
Range quality 100.0 %
Test CRC BBA68316
Copy CRC BBA68316
Copy OK

No errors occurred


AccurateRip summary

Track 1 accurately ripped (confidence 2) [E9227504]
Track 2 accurately ripped (confidence 2) [F04BCA24]
Track 3 accurately ripped (confidence 2) [47030BAC]
Track 4 accurately ripped (confidence 2) [3FE76D6B]
Track 5 accurately ripped (confidence 2) [AA3AA699]
Track 6 accurately ripped (confidence 2) [6CAFE01F]
Track 7 accurately ripped (confidence 2) [9269FB29]
Track 8 accurately ripped (confidence 2) [F0029B26]
Track 9 accurately ripped (confidence 2) [BE9E50A4]
Track 10 accurately ripped (confidence 2) [088ECB69]

All tracks accurately ripped

End of status report

==== Log checksum 6C28F65F058B1443F7900D7ED30E090714E453438FE59A1700EFF5122D59A464 ====


Exact Audio Copy V1.0 beta 1 from 15. November 2010

EAC extraction logfile from 11. February 2011, 18:33

Various Artists / Disco Discharge: Disco Boogie (CD 2)

Used drive : HP DVD Writer 1040r Adapter: 1 ID: 0

Read mode : Secure
Utilize accurate stream : Yes
Defeat audio cache : Yes
Make use of C2 pointers : No

Read offset correction : 6
Overread into Lead-In and Lead-Out : No
Fill up missing offset samples with silence : Yes
Delete leading and trailing silent blocks : No
Null samples used in CRC calculations : No
Used interface : Native Win32 interface for Win NT & 2000

Used output format : User Defined Encoder
Selected bitrate : 1024 kBit/s
Quality : High
Add ID3 tag : No
Command line compressor : C:\Program Files\Exact Audio Copy\FLAC\FLAC.EXE
Additional command line options : -6 -V -T "ARTIST=%a" -T "TITLE=%t" -T "ALBUM=%g" -T "DATE=%y" -T "TRACKNUMBER=%n" -T "GENRE=%m" -T "COMMENT=%e" %j–picture="%i"%j %s -o %d


TOC of the extracted CD

Track | Start | Length | Start sector | End sector
––––––––––––––––––––––––––––-
1 | 0:00.00 | 5:08.35 | 0 | 23134
2 | 5:08.35 | 5:26.33 | 23135 | 47617
3 | 10:34.68 | 4:27.09 | 47618 | 67651
4 | 15:02.02 | 6:16.11 | 67652 | 95862
5 | 21:18.13 | 6:21.24 | 95863 | 124461
6 | 27:39.37 | 6:42.28 | 124462 | 154639
7 | 34:21.65 | 6:53.52 | 154640 | 185666
8 | 41:15.42 | 9:28.08 | 185667 | 228274
9 | 50:43.50 | 6:42.68 | 228275 | 258492
10 | 57:26.43 | 6:46.45 | 258493 | 288987


Range status and errors

Selected range

Filename C:\Users\Mike3\Desktop\To Do\Disco Discharge - Disco Boogie\Disc 2\Various Artists - Disco Discharge- Disco Boogie (CD 2).wav

Peak level 99.4 %
Extraction speed 0.3 X
Range quality 100.0 %
Test CRC 25376AD8
Copy CRC 25376AD8
Copy OK

No errors occurred


AccurateRip summary

Track 1 accurately ripped (confidence 5) [34AD12DB]
Track 2 accurately ripped (confidence 5) [251A5DA4]
Track 3 accurately ripped (confidence 5) [7E464902]
Track 4 accurately ripped (confidence 5) [D901175D]
Track 5 accurately ripped (confidence 5) [357B1C21]
Track 6 accurately ripped (confidence 5) [26F249DB]
Track 7 accurately ripped (confidence 5) [4C9535CC]
Track 8 accurately ripped (confidence 5) [405299D2]
Track 9 accurately ripped (confidence 5) [3D4B466F]
Track 10 accurately ripped (confidence 5) [AB856BB4]

All tracks accurately ripped

End of status report

==== Log checksum C509CDCB242F79FAA3ED33CEF479BCF1AE962011FBF317C15BBEE2C6D7546115 ====


VA - Disco Discharge Series 2 (2010) (4 Volumes) [Lossless]


Diggin' Deeper

Track listing
Disc 1

1. Sticky Fingers - Party Song (Original Album Version)
2. The Trammps - Soul Searchin' Time (Original Album Version)
3. Mick Jackson - Weekend (Original 12" Instrumental Mix)
4. The Ritchie Family - Quiet Village (Original Album Version)
5. Poussez - Never Gonna Say Goodbye (Original 12" Mix)
6. Constellation Orchestra - Dancing Angel (Original Album Version)
7. USA European Connection - There's A Way Into My Heart (Original Album Version)
8. Wayne St. John - Something's Up (Love Me Like The First Time) (Original 12" Mix)
9. Carol Hahn - Do Your Best (Original 12" Mix)
10. Q - The Voice Of Q (Original 12" Mix)

Disc 2

1. Touch Of Class - I'm In Heaven (Original 12" Disco Mix)
2. Avenue B Boogie Band - Bumper To Bumper (Original 12" Mix)
3. 2wice - You Set Me On Fire (Larry Levan 12" Mix)
4. Frantique - Getting Serious (Original 12" Mix)
5. Freddie James - Get Up And Boogie (Original Album Version)
6. Dan Hartman - Countdown/This Is It (Original Full Length 12" Mix)
7. John Davis And The Monster Orchestra - Ain't That Enough For You (Original Album Version)
8. Charlie Calello Orchestra - Sing Sing Sing (Original 12" Mix)
9. Ferrara - Love Attack (Original 12" Mix)
10. The Ring - Savage Lover (Original 12" Long Version Vocal Mix)

Exact Audio Copy V1.0 beta 1 from 15. November 2010

EAC extraction logfile from 12. February 2011, 22:09

Various / Disco Discharge. Diggin' Deeper (Disc 1)

Used drive : HP DVD Writer 1040r Adapter: 1 ID: 0

Read mode : Secure
Utilize accurate stream : Yes
Defeat audio cache : Yes
Make use of C2 pointers : No

Read offset correction : 6
Overread into Lead-In and Lead-Out : No
Fill up missing offset samples with silence : Yes
Delete leading and trailing silent blocks : No
Null samples used in CRC calculations : No
Used interface : Native Win32 interface for Win NT & 2000

Used output format : User Defined Encoder
Selected bitrate : 1024 kBit/s
Quality : High
Add ID3 tag : No
Command line compressor : C:\Program Files\Exact Audio Copy\FLAC\FLAC.EXE
Additional command line options : -6 -V -T "ARTIST=%a" -T "TITLE=%t" -T "ALBUM=%g" -T "DATE=%y" -T "TRACKNUMBER=%n" -T "GENRE=%m" -T "COMMENT=%e" %j–picture="%i"%j %s -o %d


TOC of the extracted CD

Track | Start | Length | Start sector | End sector
––––––––––––––––––––––––––––-
1 | 0:00.00 | 10:24.64 | 0 | 46863
2 | 10:24.64 | 6:03.54 | 46864 | 74142
3 | 16:28.43 | 7:13.42 | 74143 | 106659
4 | 23:42.10 | 5:47.64 | 106660 | 132748
5 | 29:29.74 | 7:53.06 | 132749 | 168229
6 | 37:23.05 | 6:22.38 | 168230 | 196917
7 | 43:45.43 | 12:07.58 | 196918 | 251500
8 | 55:53.26 | 6:56.54 | 251501 | 282754
9 | 62:50.05 | 5:14.39 | 282755 | 306343
10 | 68:04.44 | 5:14.35 | 306344 | 329928


Range status and errors

Selected range

Filename C:\Users\Mike3\Desktop\To Do\Disco Discharge - Diggin' Deeper\Disc 1\Various - Disco Discharge. Diggin' Deeper (Disc 1).wav

Peak level 99.4 %
Extraction speed 0.2 X
Range quality 100.0 %
Test CRC A53F56CE
Copy CRC A53F56CE
Copy OK

No errors occurred


AccurateRip summary

Track 1 accurately ripped (confidence 2) [6DB7CCE0]
Track 2 accurately ripped (confidence 2) [FFA84F3A]
Track 3 accurately ripped (confidence 2) [03C298B8]
Track 4 accurately ripped (confidence 2) [76C7A897]
Track 5 accurately ripped (confidence 2) [B2EC657A]
Track 6 accurately ripped (confidence 2) [F0A3885E]
Track 7 accurately ripped (confidence 2) [0DA2213C]
Track 8 accurately ripped (confidence 2) [06987985]
Track 9 accurately ripped (confidence 2) [E86327F7]
Track 10 accurately ripped (confidence 2) [9D9D26CA]

All tracks accurately ripped

End of status report

==== Log checksum CDE8B93334ED3E3A4D197F31898C84A597A46AA6A6055E7A5FC92BB8031FB945 ====


Exact Audio Copy V1.0 beta 1 from 15. November 2010

EAC extraction logfile from 13. February 2011, 2:01

Various / Disco Discharge: Diggin' Deeper Disc 2

Used drive : HP DVD Writer 1040r Adapter: 1 ID: 0

Read mode : Secure
Utilize accurate stream : Yes
Defeat audio cache : Yes
Make use of C2 pointers : No

Read offset correction : 6
Overread into Lead-In and Lead-Out : No
Fill up missing offset samples with silence : Yes
Delete leading and trailing silent blocks : No
Null samples used in CRC calculations : No
Used interface : Native Win32 interface for Win NT & 2000

Used output format : User Defined Encoder
Selected bitrate : 1024 kBit/s
Quality : High
Add ID3 tag : No
Command line compressor : C:\Program Files\Exact Audio Copy\FLAC\FLAC.EXE
Additional command line options : -6 -V -T "ARTIST=%a" -T "TITLE=%t" -T "ALBUM=%g" -T "DATE=%y" -T "TRACKNUMBER=%n" -T "GENRE=%m" -T "COMMENT=%e" %j–picture="%i"%j %s -o %d


TOC of the extracted CD

Track | Start | Length | Start sector | End sector
––––––––––––––––––––––––––––-
1 | 0:00.00 | 6:26.23 | 0 | 28972
2 | 6:26.23 | 5:33.51 | 28973 | 53998
3 | 11:59.74 | 5:25.12 | 53999 | 78385
4 | 17:25.11 | 7:53.55 | 78386 | 113915
5 | 25:18.66 | 8:20.32 | 113916 | 151447
6 | 33:39.23 | 14:09.36 | 151448 | 215158
7 | 47:48.59 | 5:54.72 | 215159 | 241780
8 | 53:43.56 | 6:03.14 | 241781 | 269019
9 | 59:46.70 | 5:50.24 | 269020 | 295293
10 | 65:37.19 | 6:48.12 | 295294 | 325905


Range status and errors

Selected range

Filename C:\Users\Mike3\Desktop\To Do\Disco Discharge - Diggin' Deeper\Disc 2\Various - Disco Discharge- Diggin' Deeper Disc 2.wav

Peak level 99.4 %
Extraction speed 0.3 X
Range quality 100.0 %
Test CRC 70D568C0
Copy CRC 70D568C0
Copy OK

No errors occurred


AccurateRip summary

Track 1 accurately ripped (confidence 2) [11CF006E]
Track 2 accurately ripped (confidence 2) [572530CE]
Track 3 accurately ripped (confidence 2) [9BE6106A]
Track 4 accurately ripped (confidence 2) [CB7134FF]
Track 5 accurately ripped (confidence 2) [5E6262FC]
Track 6 accurately ripped (confidence 2) [200747B7]
Track 7 accurately ripped (confidence 2) [C60C83DE]
Track 8 accurately ripped (confidence 2) [37D1A565]
Track 9 accurately ripped (confidence 2) [0054761E]
Track 10 accurately ripped (confidence 2) [56565C85]

All tracks accurately ripped

End of status report

==== Log checksum B3C76878B4AE9906901B778D506EB7ED43D433F4BC1E44BC7F81864F119420C9 ====


VA - Disco Discharge Series 2 (2010) (4 Volumes) [Lossless]


European Connection

Track listing
Disc 1

1. Space - Carry On, Turn Me On (Original 12" Mix re-mastered)
2. Voyage - From East To West (Extended Album Version)
3. Caress - Love Spell (Original Album Version)
4. The Gibson Brothers - Ooh! What A Life (Original 12" Mix)
5. Don Ray - Midnight Madness (Original Album Version)
6. Giorgio Moroder - If You Weren't Afraid (Original Album Version)
7. Sylvia Love - Instant Dub (Original 12" B Side Dub Mix)
8. Les Models - Don't Ever (Original Album Version)
9. La Bionda - Sandstorm (Original Album Version)
10. Tantra - The Hills Of Katmandu (Original Album Version)

Disc 2

1. Gaz Nevada - Special Agent Man (Female Version)
2. Funny Twins - You And Me (Original 12" Vocal Mix)
3. Hot Cold - I Can Hear Your Voice (Original 12" Mix)
4. Taffy - I Love My Radio (Midnight Radio) (US 12" Remix)
5. Vivien Vee - Americano (Original 12" Vocal Mix)
6. Hypnosis - Droid (Original 12" Extended Mix)
7. Gino Soccio - Remember (Original 12" Mix)
8. Peter Richard - Walking In The Neon (Original 12" Club Mix)
9. Dilemma - In Spirit (12" Techno Mix)
10. Alba - Only Music Survives (12" Mix 1)
11. Isamar & Compania - Amour Suave (Hardcore 12" Remix)

Exact Audio Copy V1.0 beta 1 from 15. November 2010

EAC extraction logfile from 12. February 2011, 20:26

Various / Disco Discharge- European Connection - Disc 1

Used drive : HP DVD Writer 1040r Adapter: 1 ID: 0

Read mode : Secure
Utilize accurate stream : Yes
Defeat audio cache : Yes
Make use of C2 pointers : No

Read offset correction : 6
Overread into Lead-In and Lead-Out : No
Fill up missing offset samples with silence : Yes
Delete leading and trailing silent blocks : No
Null samples used in CRC calculations : No
Used interface : Native Win32 interface for Win NT & 2000

Used output format : User Defined Encoder
Selected bitrate : 1024 kBit/s
Quality : High
Add ID3 tag : No
Command line compressor : C:\Program Files\Exact Audio Copy\FLAC\FLAC.EXE
Additional command line options : -6 -V -T "ARTIST=%a" -T "TITLE=%t" -T "ALBUM=%g" -T "DATE=%y" -T "TRACKNUMBER=%n" -T "GENRE=%m" -T "COMMENT=%e" %j–picture="%i"%j %s -o %d


TOC of the extracted CD

Track | Start | Length | Start sector | End sector
––––––––––––––––––––––––––––-
1 | 0:00.00 | 7:14.28 | 0 | 32577
2 | 7:14.28 | 7:04.31 | 32578 | 64408
3 | 14:18.59 | 8:20.23 | 64409 | 101931
4 | 22:39.07 | 5:38.60 | 101932 | 127341
5 | 28:17.67 | 5:43.67 | 127342 | 153133
6 | 34:01.59 | 5:41.42 | 153134 | 178750
7 | 39:43.26 | 4:28.69 | 178751 | 198919
8 | 44:12.20 | 6:16.47 | 198920 | 227166
9 | 50:28.67 | 10:17.01 | 227167 | 273442
10 | 60:45.68 | 16:22.20 | 273443 | 347112


Range status and errors

Selected range

Filename C:\Users\Mike3\Desktop\To Do\Disco Discharge - European Connection\Disc 1\Various - Disco Discharge- European Connection - Disc 1.wav

Peak level 99.4 %
Extraction speed 0.7 X
Range quality 100.0 %
Test CRC 8618BD8F
Copy CRC 8618BD8F
Copy OK

No errors occurred


AccurateRip summary

Track 1 accurately ripped (confidence 2) [4E20F509]
Track 2 accurately ripped (confidence 2) [B4082973]
Track 3 accurately ripped (confidence 2) [1B462E48]
Track 4 accurately ripped (confidence 2) [906F4CE5]
Track 5 accurately ripped (confidence 2) [14DE6E93]
Track 6 accurately ripped (confidence 2) [1CFD4A1B]
Track 7 accurately ripped (confidence 2) [DDA8633D]
Track 8 accurately ripped (confidence 2) [CE547529]
Track 9 accurately ripped (confidence 2) [5671DF8E]
Track 10 accurately ripped (confidence 2) [4B9E0A1D]

All tracks accurately ripped

End of status report

==== Log checksum DB9C6F776C227F0164370E563CF15C12AA668B024FB81DBF188167323A835CB4 ====


Exact Audio Copy V1.0 beta 1 from 15. November 2010

EAC extraction logfile from 12. February 2011, 21:14

Various / Disco Discharge - European Connection - CD2

Used drive : HP DVD Writer 1040r Adapter: 1 ID: 0

Read mode : Secure
Utilize accurate stream : Yes
Defeat audio cache : Yes
Make use of C2 pointers : No

Read offset correction : 6
Overread into Lead-In and Lead-Out : No
Fill up missing offset samples with silence : Yes
Delete leading and trailing silent blocks : No
Null samples used in CRC calculations : No
Used interface : Native Win32 interface for Win NT & 2000

Used output format : User Defined Encoder
Selected bitrate : 1024 kBit/s
Quality : High
Add ID3 tag : No
Command line compressor : C:\Program Files\Exact Audio Copy\FLAC\FLAC.EXE
Additional command line options : -6 -V -T "ARTIST=%a" -T "TITLE=%t" -T "ALBUM=%g" -T "DATE=%y" -T "TRACKNUMBER=%n" -T "GENRE=%m" -T "COMMENT=%e" %j–picture="%i"%j %s -o %d


TOC of the extracted CD

Track | Start | Length | Start sector | End sector
––––––––––––––––––––––––––––-
1 | 0:00.00 | 7:19.33 | 0 | 32957
2 | 7:19.33 | 5:44.47 | 32958 | 58804
3 | 13:04.05 | 5:33.10 | 58805 | 83789
4 | 18:37.15 | 7:06.72 | 83790 | 115811
5 | 25:44.12 | 5:42.33 | 115812 | 141494
6 | 31:26.45 | 5:47.05 | 141495 | 167524
7 | 37:13.50 | 6:32.56 | 167525 | 196980
8 | 43:46.31 | 8:59.14 | 196981 | 237419
9 | 52:45.45 | 6:18.65 | 237420 | 265834
10 | 59:04.35 | 7:28.10 | 265835 | 299444
11 | 66:32.45 | 5:45.05 | 299445 | 325324


Range status and errors

Selected range

Filename C:\Users\Mike3\Desktop\To Do\Disco Discharge - European Connection\Disc 2\Various - Disco Discharge - European Connection - CD2.wav

Peak level 99.4 %
Extraction speed 0.2 X
Range quality 100.0 %
Test CRC C282CA88
Copy CRC C282CA88
Copy OK

No errors occurred


AccurateRip summary

Track 1 accurately ripped (confidence 2) [A5479A51]
Track 2 accurately ripped (confidence 2) [659A403A]
Track 3 accurately ripped (confidence 2) [F51A6EAB]
Track 4 accurately ripped (confidence 2) [91C525F5]
Track 5 accurately ripped (confidence 2) [33ECE776]
Track 6 accurately ripped (confidence 2) [0220F317]
Track 7 accurately ripped (confidence 2) [AC3E9AC1]
Track 8 accurately ripped (confidence 2) [BBD6BFA2]
Track 9 accurately ripped (confidence 2) [6AECACB8]
Track 10 accurately ripped (confidence 2) [75A4FFA7]
Track 11 accurately ripped (confidence 2) [973F6D32]

All tracks accurately ripped

End of status report

==== Log checksum 7CA98623B0FFDC23D118D7B0157DF867AC046C933158C8D4C65A5EAB45016D5F ====


VA - Disco Discharge Series 2 (2010) (4 Volumes) [Lossless]


Pink Ponders

Track listing
Disc 1

1. Patrick Cowley - Lift Off (Original Album Version)
2. Passengers - Hot Leather (Original 12" Mix)
3. Les Models - Yes With My Body (Original Album Version)
4. The Flirts - Danger (Original 12" Mix)
5. The Duncan Sisters - Boys Will Be Boys (Original 12" Mix)
6. Julius Brown - Party (Original 12" Vocal Mix)
7. Yvonne Kay - I've Got The Music In Me (Original 12" Energy Mix)
8. Fantasy - He's No I (Original Extended 12" Mix)
9. Caren Cole - I Need A Lover Tonight (Original 12" Dance Mix)
10. Jermaine Jackson & Pia Zadora - When The Rain Begins To Fall (Original 12" Mix)

Disc 2

1. Poussez - Leave That Boy Alone (Original 12" Mix)
2. The Immortals - The Ultimate Warlord (12" RMX)
3. Divine - Shake It Up (Original 12" Mix)
4. Tapps - My Forbidden Lover (Original 12" Mix)
5. Barbara Doust - If You Love Somebody (The Munich Mix)
6. Lime - I Don't Want To Lose You (Original Album Version)
7. Peggi Blu - Girls It Ain't Easy (Original 12" Mix)
8. Crystal In The Pink - Back To You (Original 12" Mix)
9. Tom Cat - Black Jack (Original 12" Mix)
10. Virgin - Only You (Original 12" Extended Mix)
11. Patsy Gallant - From New York To LA (Original Album Version)

Exact Audio Copy V1.0 beta 1 from 15. November 2010

EAC extraction logfile from 12. February 2011, 18:22

Various / Disco Discharge: Pink Pounders, Disc 1

Used drive : HP DVD Writer 1040r Adapter: 1 ID: 0

Read mode : Secure
Utilize accurate stream : Yes
Defeat audio cache : Yes
Make use of C2 pointers : No

Read offset correction : 6
Overread into Lead-In and Lead-Out : No
Fill up missing offset samples with silence : Yes
Delete leading and trailing silent blocks : No
Null samples used in CRC calculations : No
Used interface : Native Win32 interface for Win NT & 2000

Used output format : User Defined Encoder
Selected bitrate : 1024 kBit/s
Quality : High
Add ID3 tag : No
Command line compressor : C:\Program Files\Exact Audio Copy\FLAC\FLAC.EXE
Additional command line options : -6 -V -T "ARTIST=%a" -T "TITLE=%t" -T "ALBUM=%g" -T "DATE=%y" -T "TRACKNUMBER=%n" -T "GENRE=%m" -T "COMMENT=%e" %j–picture="%i"%j %s -o %d


TOC of the extracted CD

Track | Start | Length | Start sector | End sector
––––––––––––––––––––––––––––-
1 | 0:00.00 | 8:18.27 | 0 | 37376
2 | 8:18.27 | 10:34.06 | 37377 | 84932
3 | 18:52.33 | 6:18.59 | 84933 | 113341
4 | 25:11.17 | 6:12.44 | 113342 | 141285
5 | 31:23.61 | 7:13.09 | 141286 | 173769
6 | 38:36.70 | 6:14.43 | 173770 | 201862
7 | 44:51.38 | 7:31.55 | 201863 | 235742
8 | 52:23.18 | 6:41.68 | 235743 | 265885
9 | 59:05.11 | 5:07.53 | 265886 | 288963
10 | 64:12.64 | 6:08.16 | 288964 | 316579


Range status and errors

Selected range

Filename C:\Users\Mike3\Desktop\To Do\Disco Discharge - Pink Pounders\Disc 1\Various - Disco Discharge- Pink Pounders, Disc 1.wav

Peak level 99.4 %
Extraction speed 0.2 X
Range quality 100.0 %
Test CRC F14C2E86
Copy CRC F14C2E86
Copy OK

No errors occurred


AccurateRip summary

Track 1 accurately ripped (confidence 2) [5551C2AA]
Track 2 accurately ripped (confidence 2) [47CEC5FA]
Track 3 accurately ripped (confidence 2) [90452C2E]
Track 4 accurately ripped (confidence 2) [253D9B02]
Track 5 accurately ripped (confidence 2) [AD2FC09C]
Track 6 accurately ripped (confidence 2) [566B3AF9]
Track 7 accurately ripped (confidence 2) [B15044A8]
Track 8 accurately ripped (confidence 2) [832052FE]
Track 9 accurately ripped (confidence 2) [4FF7BFE4]
Track 10 accurately ripped (confidence 2) [B2411188]

All tracks accurately ripped

End of status report

==== Log checksum 268032B4E9F54673DF8AB3CBE29FA656B63961CC4997207F2A7CEC929A05566F ====


Exact Audio Copy V1.0 beta 1 from 15. November 2010

EAC extraction logfile from 12. February 2011, 19:09

Various / Disco Discharge: Pink Pounders, Disc 2

Used drive : HP DVD Writer 1040r Adapter: 1 ID: 0

Read mode : Secure
Utilize accurate stream : Yes
Defeat audio cache : Yes
Make use of C2 pointers : No

Read offset correction : 6
Overread into Lead-In and Lead-Out : No
Fill up missing offset samples with silence : Yes
Delete leading and trailing silent blocks : No
Null samples used in CRC calculations : No
Used interface : Native Win32 interface for Win NT & 2000

Used output format : User Defined Encoder
Selected bitrate : 1024 kBit/s
Quality : High
Add ID3 tag : No
Command line compressor : C:\Program Files\Exact Audio Copy\FLAC\FLAC.EXE
Additional command line options : -6 -V -T "ARTIST=%a" -T "TITLE=%t" -T "ALBUM=%g" -T "DATE=%y" -T "TRACKNUMBER=%n" -T "GENRE=%m" -T "COMMENT=%e" %j–picture="%i"%j %s -o %d


TOC of the extracted CD

Track | Start | Length | Start sector | End sector
––––––––––––––––––––––––––––-
1 | 0:00.00 | 5:33.00 | 0 | 24974
2 | 5:33.00 | 6:17.42 | 24975 | 53291
3 | 11:50.42 | 5:50.66 | 53292 | 79607
4 | 17:41.33 | 7:32.18 | 79608 | 113525
5 | 25:13.51 | 6:44.39 | 113526 | 143864
6 | 31:58.15 | 5:59.02 | 143865 | 170791
7 | 37:57.17 | 6:46.74 | 170792 | 201315
8 | 44:44.16 | 5:43.56 | 201316 | 227096
9 | 50:27.72 | 5:25.16 | 227097 | 251487
10 | 55:53.13 | 5:54.69 | 251488 | 278106
11 | 61:48.07 | 4:51.68 | 278107 | 299999


Range status and errors

Selected range

Filename C:\Users\Mike3\Desktop\To Do\Disco Discharge - Pink Pounders\Disc 2\Various - Disco Discharge- Pink Pounders, Disc 2.wav

Peak level 99.4 %
Extraction speed 0.2 X
Range quality 100.0 %
Test CRC C3D1631B
Copy CRC C3D1631B
Copy OK

No errors occurred


AccurateRip summary

Track 1 accurately ripped (confidence 2) [F617FB06]
Track 2 accurately ripped (confidence 2) [07031CA3]
Track 3 accurately ripped (confidence 2) [5A9B8A55]
Track 4 accurately ripped (confidence 2) [AA8660FF]
Track 5 accurately ripped (confidence 2) [9CD07306]
Track 6 accurately ripped (confidence 2) [90C2C8FB]
Track 7 accurately ripped (confidence 2) [A49ECAC9]
Track 8 accurately ripped (confidence 2) [96C6B348]
Track 9 accurately ripped (confidence 2) [7F9C6C33]
Track 10 accurately ripped (confidence 2) [A0FC8698]
Track 11 accurately ripped (confidence 2) [30BCF114]

All tracks accurately ripped

End of status report

==== Log checksum 724FE95A7BDBE09206863990A63D926D54D0A331A0C82FDC12ABF840D64FC174 ====


Download:

FSo

FSe

FileFactory

No mirrors