Subcategories

Dizzy Gillespie - Dizzy in South America: Official U.S. State Department Tour, 1956, Vol. 2 (1999)

Posted By: Designol
Dizzy Gillespie - Dizzy in South America: Official U.S. State Department Tour, 1956, Vol. 2 (1999)

Dizzy Gillespie - Dizzy in South America: Official U.S. State Department Tour, 1956, Vol. 2 (1999)
EAC | FLAC | Tracks (Cue&Log) ~ 367 Mb | Mp3 (CBR320) ~ 169 Mb| Scans included
Bop, Trumpet Jazz | Label: Consolidated Artists Productions | # CAP 933 | Time: 00:58:11

Jazz collectors can be an obsessive, detail-minded bunch, so when they acquire Vol. 2 of CAP's Dizzy in South America series, they're bound to be frustrated by the fact that the credits don't give any exact recording dates or let you know exactly where in South America each 1956 performance was recorded. As frustrating as that is, however, Vol. 2 is a CD that collectors and Dizzy Gillespie fans will be glad to get their hands on. No serious Gillespie aficionado could resist hearing previously unreleased live performances of "Tin Tin Deo," "The Champ," and "Groovin' High," especially when the sound quality is decent (by 1956 standards) and the band boasts such heavyweights as Phil Woods (alto sax), Benny Golson (tenor sax), Jimmy Powell (alto sax), Walter Davis, Jr. (piano), and the tour's musical director Quincy Jones (trumpet). Gillespie has many inspired moments on trumpet, and featured vocalist Austin Cromer provides some memorable crooning on "Because of You" and "Wonder Why." Those who complain that bop has no sense of humor should pay close attention to Gillespie's vocals on the goofy yet swinging "Hey Pete, Let's Eat More Meat" and the hilarious Louis Armstrong parody "I'm Confessin'." When Gillespie emulates Armstrong's style of singing, he isn't ridiculing the seminal trumpeter/vocalist, but rather, flattering him out of reverence and adulation – in fact, critic Ira Gitler states in the liner notes that Armstrong was reported to have been quite amused by Gillespie's parody. Also noteworthy are Melba Liston's lyrical trombone solo on "My Reverie" and baritone saxman Marty Flax's funky spot on Horace Silver's "Doodlin'." Vol. 2 is easily recommended to Gillespie fans, although it would be nice to know the specific venues and the exact recording dates.

Review by Alex Henderson, Allmusic.com

Dizzy Gillespie - Dizzy in South America: Official U.S. State Department Tour, 1956, Vol. 2 (1999)



Tracklist:

01. Groovin' High (05:53)
02. Begin the Beguine (04:45)
03. Hey Pete, Let's Eat More Meat (14:57)
04. Wonder Why (04:17)
05. Because Of You (04:38)
06. I'm Confessin' (04:20)
07. Doodlin' (04:25)
08. My Reverie (03:23)
09. Tin Tin Daeo (04:44)
10. The Champ (06:43)


Exact Audio Copy V1.0 beta 4 from 7. December 2014

EAC extraction logfile from 13. June 2016, 10:18

Dizzy Gillespie / Dizzy In South America, Vol. 2

Used drive : HL-DT-STDVD+-RW GH82N Adapter: 1 ID: 0

Read mode : Secure
Utilize accurate stream : Yes
Defeat audio cache : Yes
Make use of C2 pointers : No

Read offset correction : 667
Overread into Lead-In and Lead-Out : No
Fill up missing offset samples with silence : Yes
Delete leading and trailing silent blocks : No
Null samples used in CRC calculations : Yes
Used interface : Native Win32 interface for Win NT & 2000
Gap handling : Appended to previous track

Used output format : User Defined Encoder
Selected bitrate : 1024 kBit/s
Quality : High
Add ID3 tag : No
Command line compressor : C:\Program Files (x86)\Exact Audio Copy\FLAC\FLAC.EXE
Additional command line options : -6 -V -T "ARTIST=%artist%" -T "TITLE=%title%" -T "ALBUM=%albumtitle%" -T "DATE=%year%" -T "TRACKNUMBER=%tracknr%" -T "GENRE=%genre%" -T "COMMENT=%comment%" -T "BAND=%albuminterpret%" -T "ALBUMARTIST=%albuminterpret%" -T "COMPOSER=%composer%" %haslyrics%–tag-from-file=LYRICS="%lyricsfile%"%haslyrics% -T "DISCNUMBER=%cdnumber%" -T "TOTALDISCS=%totalcds%" -T "TOTALTRACKS=%numtracks%" %hascover%–picture="%coverfile%"%hascover% %source% -o %dest%


TOC of the extracted CD

Track | Start | Length | Start sector | End sector
––––––––––––––––––––––––––––-
1 | 0:00.00 | 5:53.09 | 0 | 26483
2 | 5:53.09 | 4:45.65 | 26484 | 47923
3 | 10:38.74 | 14:57.57 | 47924 | 115255
4 | 25:36.56 | 4:17.60 | 115256 | 134590
5 | 29:54.41 | 4:38.50 | 134591 | 155490
6 | 34:33.16 | 4:20.69 | 155491 | 175059
7 | 38:54.10 | 4:25.20 | 175060 | 194954
8 | 43:19.30 | 3:23.72 | 194955 | 210251
9 | 46:43.27 | 4:44.32 | 210252 | 231583
10 | 51:27.59 | 6:43.35 | 231584 | 261843


Track 1

Filename C:\Rips\Dizzy Gillespie - Dizzy In South America, Vol. 1-3\Dizzy Gillespie - Dizzy In South America, Vol. 2\01 - Groovin' High.wav

Pre-gap length 0:00:02.00

Peak level 96.6 %
Extraction speed 2.0 X
Track quality 100.0 %
Copy CRC B23EB2E8
Accurately ripped (confidence 1) [FA1FF595] (AR v2)
Copy OK

Track 2

Filename C:\Rips\Dizzy Gillespie - Dizzy In South America, Vol. 1-3\Dizzy Gillespie - Dizzy In South America, Vol. 2\02 - Begin the Beguine.wav

Peak level 96.6 %
Extraction speed 2.0 X
Track quality 99.9 %
Copy CRC DDBE7DC2
Accurately ripped (confidence 1) [10118A89] (AR v2)
Copy OK

Track 3

Filename C:\Rips\Dizzy Gillespie - Dizzy In South America, Vol. 1-3\Dizzy Gillespie - Dizzy In South America, Vol. 2\03 - Hey Pete, Let's Eat More Meat.wav

Peak level 96.6 %
Extraction speed 2.8 X
Track quality 100.0 %
Copy CRC 623CA514
Accurately ripped (confidence 1) [6D1FDF89] (AR v2)
Copy OK

Track 4

Filename C:\Rips\Dizzy Gillespie - Dizzy In South America, Vol. 1-3\Dizzy Gillespie - Dizzy In South America, Vol. 2\04 - Wonder Why.wav

Peak level 96.6 %
Extraction speed 2.9 X
Track quality 100.0 %
Copy CRC FA399A95
Accurately ripped (confidence 1) [C11AF109] (AR v2)
Copy OK

Track 5

Filename C:\Rips\Dizzy Gillespie - Dizzy In South America, Vol. 1-3\Dizzy Gillespie - Dizzy In South America, Vol. 2\05 - Because Of You.wav

Peak level 96.5 %
Extraction speed 3.1 X
Track quality 100.0 %
Copy CRC 4AE69709
Accurately ripped (confidence 1) [F9992835] (AR v2)
Copy OK

Track 6

Filename C:\Rips\Dizzy Gillespie - Dizzy In South America, Vol. 1-3\Dizzy Gillespie - Dizzy In South America, Vol. 2\06 - I'm Confessin'.wav

Peak level 96.5 %
Extraction speed 2.8 X
Track quality 99.9 %
Copy CRC 89C4D7DD
Accurately ripped (confidence 1) [44461528] (AR v2)
Copy OK

Track 7

Filename C:\Rips\Dizzy Gillespie - Dizzy In South America, Vol. 1-3\Dizzy Gillespie - Dizzy In South America, Vol. 2\07 - Doodlin'.wav

Peak level 96.6 %
Extraction speed 2.9 X
Track quality 99.9 %
Copy CRC 7C55A5B6
Accurately ripped (confidence 1) [FC9EB759] (AR v2)
Copy OK

Track 8

Filename C:\Rips\Dizzy Gillespie - Dizzy In South America, Vol. 1-3\Dizzy Gillespie - Dizzy In South America, Vol. 2\08 - My Reverie.wav

Peak level 96.5 %
Extraction speed 3.3 X
Track quality 100.0 %
Copy CRC 0C3B7F30
Accurately ripped (confidence 1) [6B2E6181] (AR v2)
Copy OK

Track 9

Filename C:\Rips\Dizzy Gillespie - Dizzy In South America, Vol. 1-3\Dizzy Gillespie - Dizzy In South America, Vol. 2\09 - Tin Tin Daeo.wav

Peak level 96.5 %
Extraction speed 3.5 X
Track quality 100.0 %
Copy CRC BF2B2961
Accurately ripped (confidence 1) [B92FC8A0] (AR v2)
Copy OK

Track 10

Filename C:\Rips\Dizzy Gillespie - Dizzy In South America, Vol. 1-3\Dizzy Gillespie - Dizzy In South America, Vol. 2\10 - The Champ.wav

Peak level 96.6 %
Extraction speed 3.9 X
Track quality 100.0 %
Copy CRC 41B2BF5A
Accurately ripped (confidence 1) [548C8687] (AR v2)
Copy OK


All tracks accurately ripped

No errors occurred

End of status report

–– CUETools DB Plugin V2.1.4

[CTDB TOCID: _bQJCJdLRRv7Aych6e9j_q_1O_k-] disk not present in database
Submit result: _bQJCJdLRRv7Aych6e9j_q_1O_k- has been uploaded


==== Log checksum 0EAA133A5081CF523DA9111492A7C673A6E56324901AC38BFF672527AAB0185A ====

foobar2000 1.2 / Dynamic Range Meter 1.1.1
log date: 2016-06-16 13:46:45

––––––––––––––––––––––––––––––––––––––––
Analyzed: Dizzy Gillespie / Dizzy In South America, Vol. 2
––––––––––––––––––––––––––––––––––––––––

DR Peak RMS Duration Track
––––––––––––––––––––––––––––––––––––––––
DR8 -0.30 dB -10.86 dB 5:53 01-Groovin' High
DR9 -0.30 dB -12.55 dB 4:46 02-Begin the Beguine
DR9 -0.30 dB -13.13 dB 14:58 03-Hey Pete, Let's Eat More Meat
DR10 -0.30 dB -14.44 dB 4:18 04-Wonder Why
DR9 -0.30 dB -12.70 dB 4:39 05-Because Of You
DR9 -0.30 dB -13.12 dB 4:21 06-I'm Confessin'
DR8 -0.30 dB -12.50 dB 4:25 07-Doodlin'
DR11 -0.30 dB -13.57 dB 3:24 08-My Reverie
DR10 -0.30 dB -13.38 dB 4:44 09-Tin Tin Daeo
DR11 -0.30 dB -13.85 dB 6:43 10-The Champ
––––––––––––––––––––––––––––––––––––––––

Number of tracks: 10
Official DR value: DR9

Samplerate: 44100 Hz
Channels: 2
Bits per sample: 16
Bitrate: 621 kbps
Codec: FLAC
================================================================================

Dizzy Gillespie - Dizzy in South America: Official U.S. State Department Tour, 1956, Vol. 2 (1999)