Subcategories

Djabe & Steve Hackett - Life Is A Journey (2017) {Esoteric Antenna}

Posted By: tiburon
Djabe & Steve Hackett - Life Is A Journey (2017) {Esoteric Antenna}

Djabe & Steve Hackett - Life Is A Journey (2017) {Esoteric Antenna}
EAC 1.3 | FLAC tracks level 8 | Cue+Log+M3U | Full Scans 600dpi | 564MB + 5% Recovery
MP3 CBR 320 Kbps | 231MB + 5% Recovery
Genre: Fusion

The album is the result of an improvised session that took place in a church on the island of Sardinia between the musicians from one of Hungary's most acclaimed Jazz groups, Djabe and acclaimed guitarist Steve Hackett. The collaborations between the band and the former Genesis guitarist and acclaimed solo artist began in 2007. Steve Hackett has appeared on the concert stage with Djabe performing both Genesis and Hackett solo material and Djabe compositions. This album is their first collaborative studio album. Djabe guitarist Attila Egerhazi explains: "When I came to my musician pals with the idea of this recording session I had no certain plans with the tapes. However, this was the exact way I always wanted to create my kind of a music, like we did with my band in the 80s. If I have to describe the atmosphere of these recordings, the first word that comes to my mind is tranquillity. All the notes and music were floating out from placidity". Steve Hackett adds: "It was great to play spontaneous music with such a talented group of musicians in the wild, rocky countryside of Sardinia, where we also felt the rich history surrounding us, echoing back to ancient times. Such a magical environment provided fertile ground for inspired ideas and a freedom of spirit". "Life is a Journey - The Sardinia Tapes" also includes a bonus DVD disc featuring a 5.1 Surround Sound mix of the album, along with bonus features "Sardo Moments", an informal video diary of the recording sessions shot by members of Djabe and five tracks recorded at Budapest Jazz Club in June 2017 including interpretations of the Genesis classic "Fly on a Windshield" and the Hackett tour de force "Please Don't Touch" among others. "Life is a Journey" is a splendid, serene musical experience, born out of the surroundings in which it was conceived.
Track List
01. Life Is A Journey (09:41)
02. Golden Sand (07:05)
03. Castelsardo At Night (08:22)
04. What's The News Antonio (06:30)
05. Around My Mind (11:30)
06. Beams Over The Nulvi Mountains (06:08)
07. Building A Nuraghe (04:41)
08. Buzzy Island (04:13)
09. I Will Always Remember (06:32)
10. Wake Up (02:15)
11. After Limoncello (05:49)

musicians
Bass, Guitar, Synth, Percussion, Vocals – Tamás Barabás
Guitar – Steve Hackett
Drums, Percussion – Gulli Briem
Guitar, Guitar Synthesizer, Percussion – Attila Égerházi*
Trumpet – Áron Koós-Hutás*


Exact Audio Copy V1.3 from 2. September 2016

EAC extraction logfile from 1. November 2017, 14:52

Djabe & Steve Hackett / Life Is A Journey - The Sardinia Tapes

Used drive : PLEXTOR DVDR PX-891SAF Adapter: 1 ID: 0

Read mode : Secure
Utilize accurate stream : Yes
Defeat audio cache : Yes
Make use of C2 pointers : No

Read offset correction : 6
Overread into Lead-In and Lead-Out : No
Fill up missing offset samples with silence : Yes
Delete leading and trailing silent blocks : No
Null samples used in CRC calculations : Yes
Used interface : Native Win32 interface for Win NT & 2000
Gap handling : Appended to previous track

Used output format : User Defined Encoder
Selected bitrate : 1024 kBit/s
Quality : High
Add ID3 tag : No
Command line compressor : C:\Program Files (x86)\Exact Audio Copy\Flac\flac.exe
Additional command line options : -0 -V -T "ARTIST=%artist%" -T "TITLE=%title%" -T "ALBUM=%albumtitle%" -T "DATE=%year%" -T "TRACKNUMBER=%tracknr%" -T "TOTALTRACKS=%numtracks%" -T "GENRE=%genre%" -T "COMMENT=Naftamusic Release!" %source%


TOC of the extracted CD

Track | Start | Length | Start sector | End sector
––––––––––––––––––––––––––––-
1 | 0:00.00 | 9:40.62 | 0 | 43561
2 | 9:40.62 | 7:04.72 | 43562 | 75433
3 | 16:45.59 | 8:22.06 | 75434 | 113089
4 | 25:07.65 | 6:30.00 | 113090 | 142339
5 | 31:37.65 | 11:30.09 | 142340 | 194098
6 | 43:07.74 | 6:07.55 | 194099 | 221678
7 | 49:15.54 | 4:41.28 | 221679 | 242781
8 | 53:57.07 | 4:13.01 | 242782 | 261757
9 | 58:10.08 | 6:32.03 | 261758 | 291160
10 | 64:42.11 | 2:15.22 | 291161 | 301307
11 | 66:57.33 | 5:49.13 | 301308 | 327495


Track 1

Filename E:\Nafta Releases\Djabe & Steve Hackett - Life Is A Journey - The Sardinia Tapes (CD + DVD 2017)[FLAC] - Naftamusic\01 - Life Is A Journey.wav

Pre-gap length 0:00:02.00

Peak level 100.0 %
Extraction speed 3.5 X
Track quality 100.0 %
Test CRC FE184B85
Copy CRC FE184B85
Track not present in AccurateRip database
Copy OK

Track 2

Filename E:\Nafta Releases\Djabe & Steve Hackett - Life Is A Journey - The Sardinia Tapes (CD + DVD 2017)[FLAC] - Naftamusic\02 - Golden Sand.wav

Peak level 100.0 %
Extraction speed 3.5 X
Track quality 99.9 %
Test CRC C591D1B5
Copy CRC C591D1B5
Track not present in AccurateRip database
Copy OK

Track 3

Filename E:\Nafta Releases\Djabe & Steve Hackett - Life Is A Journey - The Sardinia Tapes (CD + DVD 2017)[FLAC] - Naftamusic\03 - Castelsardo At Night.wav

Peak level 100.0 %
Extraction speed 4.5 X
Track quality 100.0 %
Test CRC D02E45AE
Copy CRC D02E45AE
Track not present in AccurateRip database
Copy OK

Track 4

Filename E:\Nafta Releases\Djabe & Steve Hackett - Life Is A Journey - The Sardinia Tapes (CD + DVD 2017)[FLAC] - Naftamusic\04 - What's The News Antonio.wav

Peak level 100.0 %
Extraction speed 4.8 X
Track quality 100.0 %
Test CRC 473CCFBC
Copy CRC 473CCFBC
Track not present in AccurateRip database
Copy OK

Track 5

Filename E:\Nafta Releases\Djabe & Steve Hackett - Life Is A Journey - The Sardinia Tapes (CD + DVD 2017)[FLAC] - Naftamusic\05 - Around My MInd.wav

Peak level 100.0 %
Extraction speed 5.5 X
Track quality 100.0 %
Test CRC 6057D2AD
Copy CRC 6057D2AD
Track not present in AccurateRip database
Copy OK

Track 6

Filename E:\Nafta Releases\Djabe & Steve Hackett - Life Is A Journey - The Sardinia Tapes (CD + DVD 2017)[FLAC] - Naftamusic\06 - Beams Over The Nulvi Mountains.wav

Peak level 97.6 %
Extraction speed 5.6 X
Track quality 100.0 %
Test CRC 37429E41
Copy CRC 37429E41
Track not present in AccurateRip database
Copy OK

Track 7

Filename E:\Nafta Releases\Djabe & Steve Hackett - Life Is A Journey - The Sardinia Tapes (CD + DVD 2017)[FLAC] - Naftamusic\07 - Building A Nuraghe.wav

Peak level 100.0 %
Extraction speed 5.7 X
Track quality 100.0 %
Test CRC 4223C4D9
Copy CRC 4223C4D9
Track not present in AccurateRip database
Copy OK

Track 8

Filename E:\Nafta Releases\Djabe & Steve Hackett - Life Is A Journey - The Sardinia Tapes (CD + DVD 2017)[FLAC] - Naftamusic\08 - Buzzy Island.wav

Peak level 99.8 %
Extraction speed 5.8 X
Track quality 100.0 %
Test CRC 7D7B2BF3
Copy CRC 7D7B2BF3
Track not present in AccurateRip database
Copy OK

Track 9

Filename E:\Nafta Releases\Djabe & Steve Hackett - Life Is A Journey - The Sardinia Tapes (CD + DVD 2017)[FLAC] - Naftamusic\09 - I Will Always Remember.wav

Peak level 99.9 %
Extraction speed 6.3 X
Track quality 100.0 %
Test CRC 0090C947
Copy CRC 0090C947
Track not present in AccurateRip database
Copy OK

Track 10

Filename E:\Nafta Releases\Djabe & Steve Hackett - Life Is A Journey - The Sardinia Tapes (CD + DVD 2017)[FLAC] - Naftamusic\10 - Wake Up.wav

Peak level 100.0 %
Extraction speed 5.5 X
Track quality 100.0 %
Test CRC C032E71E
Copy CRC C032E71E
Track not present in AccurateRip database
Copy OK

Track 11

Filename E:\Nafta Releases\Djabe & Steve Hackett - Life Is A Journey - The Sardinia Tapes (CD + DVD 2017)[FLAC] - Naftamusic\11 - After Limoncello.wav

Peak level 99.9 %
Extraction speed 6.5 X
Track quality 100.0 %
Test CRC A91BE286
Copy CRC A91BE286
Track not present in AccurateRip database
Copy OK


None of the tracks are present in the AccurateRip database

No errors occurred

End of status report

==== Log checksum EBE6D2D9E5DA8F11DFFB2FF0453E05F067DAB891A14FE6C33A4FAD28C6108D1E ====

Djabe & Steve Hackett - Life Is A Journey (2017) {Esoteric Antenna}
Djabe & Steve Hackett - Life Is A Journey (2017) {Esoteric Antenna}


Thanks to the original ripper