Subcategories

Dominic Miller - Third World (2005)

Posted By: tiburon
Dominic Miller - Third World (2005)

Dominic Miller - Third World (2005)
EAC 0.99pb4 | FLAC tracks | Cue+Log+M3U | Full Scans 600dpi | 196MB + 5% Recovery
Genre: Crossover Jazz

Better known as Sting's guitarist, Dominic Miller has put out a few solo efforts over the years, with this, his fourth, following suit. This one shows a sensitive side, with tender compositions for solo guitar throughout (with the exception of a vocal number midway through), sometimes backed up by various musician friends on drums or bass for a song or two. The sound is primarily soft rock and the like, but Miller effectively handles a dose of jazz in "Partido Alto" as well. Miller's playing is perhaps too light and cautious to really manage a solo effort. He plays as though he's still in the rhythm section rather than letting his abilities come through fully. At the same time, he has a very tender touch, welcome in its own right.
Track List
01. Always 2:09
02. Baden 3:35
03. Forgotten Dream 4:15
04. Partido Alto 3:00
05. Baby Steps 3:52
06. Denver Sun 3:41
07. Salvador 2:04
08. Seven Sisters 1:38
09. Letter Unsent 2:40
10. March Day 2:34
11. Devil's Punch Bowl 3:41
12. Altea 3:24

musicians
Dominic Miller - guitar
Pino Palladino - bass
Miles Bould - drums, percussion
Gus Isidore - steel string guitar
Kipper - keyboards
William Topley - vocals

Produced by Dominic Miller


Exact Audio Copy V0.99 prebeta 4 from 23. January 2008

EAC extraction logfile from 1. November 2008, 22:21

Dominic Miller / Third World

Used drive : _NEC DVD_RW ND-4570A Adapter: 1 ID: 0

Read mode : Secure
Utilize accurate stream : Yes
Defeat audio cache : Yes
Make use of C2 pointers : No

Read offset correction : 48
Overread into Lead-In and Lead-Out : No
Fill up missing offset samples with silence : Yes
Delete leading and trailing silent blocks : No
Null samples used in CRC calculations : Yes
Used interface : Installed external ASPI interface
Gap handling : Appended to previous track

Used output format : Internal WAV Routines
Sample format : 44.100 Hz; 16 Bit; Stereo


TOC of the extracted CD

Track | Start | Length | Start sector | End sector
––––––––––––––––––––––––––––-
1 | 0:00.00 | 2:08.65 | 0 | 9664
2 | 2:08.65 | 3:34.61 | 9665 | 25775
3 | 5:43.51 | 4:14.64 | 25776 | 44889
4 | 9:58.40 | 2:59.51 | 44890 | 58365
5 | 12:58.16 | 3:52.15 | 58366 | 75780
6 | 16:50.31 | 3:40.72 | 75781 | 92352
7 | 20:31.28 | 2:04.40 | 92353 | 101692
8 | 22:35.68 | 1:37.43 | 101693 | 109010
9 | 24:13.36 | 2:39.63 | 109011 | 120998
10 | 26:53.24 | 2:34.40 | 120999 | 132588
11 | 29:27.64 | 3:40.57 | 132589 | 149145
12 | 33:08.46 | 21:13.40 | 149146 | 244660


Track 1

Filename O:\0 Torrents\0 Jazz\Dominic Miller\Dominic Miller - 2004 Third World\01 - Always.wav

Pre-gap length 0:00:02.00

Peak level 99.3 %
Track quality 100.0 %
Test CRC BD4A67A7
Copy CRC BD4A67A7
Cannot be verified as accurate (confidence 1) [D4C6DFA2], AccurateRip returned [80C406C8]
Copy OK

Track 2

Filename O:\0 Torrents\0 Jazz\Dominic Miller\Dominic Miller - 2004 Third World\02 - Baden.wav

Peak level 99.5 %
Track quality 100.0 %
Test CRC BA0F6714
Copy CRC BA0F6714
Cannot be verified as accurate (confidence 1) [047C08E2], AccurateRip returned [5AF04574]
Copy OK

Track 3

Filename O:\0 Torrents\0 Jazz\Dominic Miller\Dominic Miller - 2004 Third World\03 - Forgotten Dream.wav

Peak level 99.3 %
Track quality 100.0 %
Test CRC EEBB51FB
Copy CRC EEBB51FB
Cannot be verified as accurate (confidence 1) [EE33BB2C], AccurateRip returned [2FC87E00]
Copy OK

Track 4

Filename O:\0 Torrents\0 Jazz\Dominic Miller\Dominic Miller - 2004 Third World\04 - Partido Alto.wav

Pre-gap length 0:00:00.16

Peak level 99.4 %
Track quality 100.0 %
Test CRC 99972C55
Copy CRC 99972C55
Cannot be verified as accurate (confidence 1) [B375BA09], AccurateRip returned [C69783E1]
Copy OK

Track 5

Filename O:\0 Torrents\0 Jazz\Dominic Miller\Dominic Miller - 2004 Third World\05 - Baby Steps.wav

Peak level 99.3 %
Track quality 100.0 %
Test CRC 30E6D589
Copy CRC 30E6D589
Cannot be verified as accurate (confidence 1) [34F939F5], AccurateRip returned [197E261B]
Copy OK

Track 6

Filename O:\0 Torrents\0 Jazz\Dominic Miller\Dominic Miller - 2004 Third World\06 - Denver Sun.wav

Peak level 99.6 %
Track quality 100.0 %
Test CRC E4256E06
Copy CRC E4256E06
Cannot be verified as accurate (confidence 1) [4E4BE568], AccurateRip returned [6F0E213F]
Copy OK

Track 7

Filename O:\0 Torrents\0 Jazz\Dominic Miller\Dominic Miller - 2004 Third World\07 - Salvador.wav

Peak level 99.3 %
Track quality 99.9 %
Test CRC 0B8DE90D
Copy CRC 0B8DE90D
Cannot be verified as accurate (confidence 1) [BF0EDB95], AccurateRip returned [1842D887]
Copy OK

Track 8

Filename O:\0 Torrents\0 Jazz\Dominic Miller\Dominic Miller - 2004 Third World\08 - Seven Sisters.wav

Peak level 99.3 %
Track quality 100.0 %
Test CRC 5B41FD73
Copy CRC 5B41FD73
Cannot be verified as accurate (confidence 1) [3B02D942], AccurateRip returned [24DFDC4F]
Copy OK

Track 9

Filename O:\0 Torrents\0 Jazz\Dominic Miller\Dominic Miller - 2004 Third World\09 - Letter Unsent.wav

Peak level 99.4 %
Track quality 100.0 %
Test CRC ADD8228A
Copy CRC ADD8228A
Cannot be verified as accurate (confidence 1) [BBDC0491], AccurateRip returned [06BEA84E]
Copy OK

Track 10

Filename O:\0 Torrents\0 Jazz\Dominic Miller\Dominic Miller - 2004 Third World\10 - March Day.wav

Peak level 99.3 %
Track quality 100.0 %
Test CRC 3E28A5C7
Copy CRC 3E28A5C7
Cannot be verified as accurate (confidence 1) [92324CA5], AccurateRip returned [C61973DB]
Copy OK

Track 11

Filename O:\0 Torrents\0 Jazz\Dominic Miller\Dominic Miller - 2004 Third World\11 - Devil's Punch Bowl.wav

Peak level 99.4 %
Track quality 100.0 %
Test CRC 66496287
Copy CRC 66496287
Cannot be verified as accurate (confidence 1) [83719D49], AccurateRip returned [F14CA1B6]
Copy OK

Track 12

Filename O:\0 Torrents\0 Jazz\Dominic Miller\Dominic Miller - 2004 Third World\12 - Altea.wav

Pre-gap length 0:00:00.58

Peak level 99.5 %
Track quality 100.0 %
Test CRC E0420C23
Copy CRC E0420C23
Cannot be verified as accurate (confidence 1) [6396C1ED], AccurateRip returned [88F69B6C]
Copy OK


No tracks could be verified as accurate
You may have a different pressing from the one(s) in the database

No errors occurred

End of status report


––––––––––––––––––––––––––––––––––––––––
Analyzed: Dominic Miller / Third World
––––––––––––––––––––––––––––––––––––––––

DR Peak RMS Duration Track
––––––––––––––––––––––––––––––––––––––––
DR12 -0.05 dB -15.74 dB 2:09 01-Always
DR11 -0.04 dB -13.64 dB 3:35 02-Baden
DR14 -0.05 dB -18.26 dB 4:15 03-Forgotten Dream
DR10 -0.05 dB -11.76 dB 3:00 04-Partido Alto
DR11 -0.05 dB -14.60 dB 3:52 05-Baby Steps
DR10 -0.03 dB -12.66 dB 3:41 06-Denver Sun
DR12 -0.05 dB -14.95 dB 2:05 07-Salvador
DR10 -0.06 dB -11.82 dB 1:38 08-Seven Sisters
DR10 -0.04 dB -13.28 dB 2:40 09-Letter Unsent
DR11 -0.06 dB -13.40 dB 2:35 10-March Day
DR10 -0.04 dB -12.60 dB 3:41 11-Devil's Punch Bowl
DR13 -0.04 dB -20.08 dB 21:14 12-Altea
––––––––––––––––––––––––––––––––––––––––

Number of tracks: 12
Official DR value: DR11

Samplerate: 44100 Hz
Channels: 2
Bits per sample: 16
Bitrate: 186 kbps
Codec: FLAC
================================================================================

Dominic Miller - Third World (2005)
Dominic Miller - Third World (2005)
Dominic Miller - Third World (2005)


Rip by Dub14