Tags
Language
Tags

Don Ellis And His Orchestra - Autumn (1968) [Reissue 2007]

Posted By: gribovar
Don Ellis And His Orchestra - Autumn (1968) [Reissue 2007]

Don Ellis And His Orchestra - Autumn (1968) [Reissue 2007]
EAC Rip | FLAC (tracks+.cue+log) - 397 MB | Covers - 29 MB
Genre: Jazz | RAR 3% Rec. | Label: Wounded Bird Records (WOU 9721)

Don Ellis' Orchestra is heard at the peak of its powers on this Columbia LP. "Pussy Wiggle Stomp," a variation on "My dad's better than your dad" but performed in 7/4 time, became the band's theme song, and it has its riotous moments. The 19-and-a-half minute, six-part "Variations for Trumpet" is a major showcase for Ellis, "Scratt and Fluggs" is a brief bit of silliness, and the relatively straightforward "K.C. Blues" features altoist Frank Strozier, John Klemmer on tenor, and keyboardist Pete Robinson. However it is the 17-and-a-half minute "Indian Lady" (a live remake) that really finds the band going crazy. Ellis, trombonist Glen Ferris, and keyboardist Robinson play humorous solos before tenors John Klemmer and Sam Falzone engage in a long and nutty tradeoff that is often quite hilarious. The many false endings at the end of this performance add to the general atmosphere. This is a classic release.
Tracklist:
01. Variations For Trumpet
02. Scratt And Fluggs
03. Pussy Wiggle Stomp
04. K. C. Blues
05. Child Of Ecstasy
06. Indian Lady

Total time: 57:52

Exact Audio Copy V0.99 prebeta 4 from 23. January 2008

EAC extraction logfile from 11. October 2009, 12:28

Don Ellis / Autumn

Used drive : HL-DT-STDVD-RAM GH22NP20 Adapter: 0 ID: 0

Read mode : Secure
Utilize accurate stream : Yes
Defeat audio cache : Yes
Make use of C2 pointers : No

Read offset correction : 102
Overread into Lead-In and Lead-Out : No
Fill up missing offset samples with silence : Yes
Delete leading and trailing silent blocks : No
Null samples used in CRC calculations : Yes
Used interface : Installed external ASPI interface
Gap handling : Appended to previous track

Used output format : User Defined Encoder
Selected bitrate : 320 kBit/s
Quality : High
Add ID3 tag : No
Command line compressor : C:\Program Files\Exact Audio Copy\Flac\flac.exe
Additional command line options : -V -8 -T "artist=%a" -T "title=%t" -T "album=%g" -T "date=%y" -T "tracknumber=%n" -T "genre=%m" %s


TOC of the extracted CD

Track | Start | Length | Start sector | End sector
––––––––––––––––––––––––––––-
1 | 0:00.00 | 19:25.50 | 0 | 87424
2 | 19:25.50 | 2:00.23 | 87425 | 96447
3 | 21:25.73 | 6:43.15 | 96448 | 126687
4 | 28:09.13 | 8:46.72 | 126688 | 166209
5 | 36:56.10 | 3:16.19 | 166210 | 180928
6 | 40:12.29 | 17:39.70 | 180929 | 260423


Track 1

Filename D:\music\Musicgate's rips\Don Ellis - Autumn (1969) {2007, Wounded Bird WOU 9721}\01 - Variations For Trumpet.wav

Pre-gap length 0:00:02.00

Peak level 96.4 %
Track quality 100.0 %
Test CRC 33CDA501
Copy CRC 33CDA501
Accurately ripped (confidence 2) [3F69545A]
Copy OK

Track 2

Filename D:\music\Musicgate's rips\Don Ellis - Autumn (1969) {2007, Wounded Bird WOU 9721}\02 - Scratt And Fluggs.wav

Pre-gap length 0:00:02.00

Peak level 96.4 %
Track quality 100.0 %
Test CRC EAB07643
Copy CRC EAB07643
Accurately ripped (confidence 2) [F8CED055]
Copy OK

Track 3

Filename D:\music\Musicgate's rips\Don Ellis - Autumn (1969) {2007, Wounded Bird WOU 9721}\03 - Pussy Wiggle Stomp.wav

Pre-gap length 0:00:02.00

Peak level 96.0 %
Track quality 100.0 %
Test CRC D9337DF1
Copy CRC D9337DF1
Accurately ripped (confidence 2) [092C6A4E]
Copy OK

Track 4

Filename D:\music\Musicgate's rips\Don Ellis - Autumn (1969) {2007, Wounded Bird WOU 9721}\04 - K. C. Blues.wav

Pre-gap length 0:00:02.00

Peak level 96.3 %
Track quality 99.9 %
Test CRC BA023AAD
Copy CRC BA023AAD
Accurately ripped (confidence 2) [A603DE92]
Copy OK

Track 5

Filename D:\music\Musicgate's rips\Don Ellis - Autumn (1969) {2007, Wounded Bird WOU 9721}\05 - Child Of Ecstasy.wav

Pre-gap length 0:00:02.00

Peak level 96.4 %
Track quality 99.9 %
Test CRC 9173A836
Copy CRC 9173A836
Accurately ripped (confidence 2) [BF80B1EB]
Copy OK

Track 6

Filename D:\music\Musicgate's rips\Don Ellis - Autumn (1969) {2007, Wounded Bird WOU 9721}\06 - Indian Lady.wav

Pre-gap length 0:00:02.00

Peak level 96.4 %
Track quality 100.0 %
Test CRC B92B0C13
Copy CRC B92B0C13
Accurately ripped (confidence 2) [BE4332E1]
Copy OK


All tracks accurately ripped

No errors occurred

End of status report

[CUETools log; Date: 05.04.2018 18:19:06; Version: 2.1.4]
[CTDB TOCID: HgGdSCOK8.S8ae3zlXKIORocTn4-] found.
Track | CTDB Status
1 | (11/11) Accurately ripped
2 | (11/11) Accurately ripped
3 | (11/11) Accurately ripped
4 | (11/11) Accurately ripped
5 | (11/11) Accurately ripped
6 | (11/11) Accurately ripped
[AccurateRip ID: 000e026c-0047e08b-4c0d9006] found.
Track [ CRC | V2 ] Status
01 [3f69545a|285596dd] (3+4/7) Accurately ripped
02 [f8ced055|b4002149] (3+4/7) Accurately ripped
03 [092c6a4e|c0d7b47e] (3+4/7) Accurately ripped
04 [a603de92|77233cb2] (3+4/7) Accurately ripped
05 [bf80b1eb|271ebad0] (3+4/7) Accurately ripped
06 [be4332e1|9998e769] (3+4/7) Accurately ripped

Track Peak [ CRC32 ] [W/O NULL] [ LOG ]
– 96,4 [49DAAC47] [27BDEFD1]
01 96,4 [33CDA501] [C2CF91EA] CRC32
02 96,4 [EAB07643] [8B9F6F15] CRC32
03 96,0 [D9337DF1] [59312DDD] CRC32
04 96,3 [BA023AAD] [F28C3AB1] CRC32
05 96,4 [9173A836] [C3B3D21D] CRC32
06 96,4 [B92B0C13] [2A54229F] CRC32

Thanks to Musicgate