Subcategories

Don Ellis Orchestra - 'Live' At Monterey! (1966) [Reissue 1998]

Posted By: gribovar
Don Ellis Orchestra - 'Live' At Monterey! (1966) [Reissue 1998]

Don Ellis Orchestra - 'Live' At Monterey! (1966) [Reissue 1998]
EAC Rip | FLAC (tracks+.cue+log) - 406 MB | MP3 CBR 320 kbps (LAME 3.93) - 152 MB | Covers - 56 MB
Genre: Jazz | RAR 3% Rec. | Label: Capitol Records (72434 4 94768 2 0)

One of the most exciting new jazz big bands of the period, Ellis' ensemble became notorious for its ability to play coherently in odd time signatures. One of the four originals heard on this acclaimed outing from the 1966 Monterey Jazz Festival is titled "33 222 1 222" to show how the band manages to perform in 19/4 time. The other selections are Hank Levy's "Passacaglia And Fugue," "Concerto For Trumpet" (in 5/4) and "New Nine." In addition to the time signatures, Ellis enjoyed utilizing unusual combinations of instruments; the instrumentation on this date consists of five trumpets, three trombones, five saxes, piano, three bassists, two drummers and a percussionist. Among the more notable sidemen are a young Tom Scott (who solos on alto) and tenor-saxophonist Ira Schulman.
Tracklist:
01. Introduction By Jimmy Lyons
02. 33 222 1 222
03. Passacaglia And Fugue
04. Crete Idea
05. Concerto For Trumpet
06. 27/16
07. Beat Me Daddy, 7 To The Bar
08. New Nine

Total time: 01:04:35

Exact Audio Copy V0.99 prebeta 4 from 23. January 2008

EAC extraction logfile from 9. October 2009, 21:47

Don Ellis Orchestra / 'Live' At Monterey!

Used drive : HL-DT-STDVD-RAM GH22NP20 Adapter: 0 ID: 0

Read mode : Secure
Utilize accurate stream : Yes
Defeat audio cache : Yes
Make use of C2 pointers : No

Read offset correction : 102
Overread into Lead-In and Lead-Out : No
Fill up missing offset samples with silence : Yes
Delete leading and trailing silent blocks : No
Null samples used in CRC calculations : Yes
Used interface : Installed external ASPI interface
Gap handling : Appended to previous track

Used output format : User Defined Encoder
Selected bitrate : 320 kBit/s
Quality : High
Add ID3 tag : No
Command line compressor : C:\Program Files\Exact Audio Copy\Flac\flac.exe
Additional command line options : -V -8 -T "artist=%a" -T "title=%t" -T "album=%g" -T "date=%y" -T "tracknumber=%n" -T "genre=%m" %s


TOC of the extracted CD

Track | Start | Length | Start sector | End sector
––––––––––––––––––––––––––––-
1 | 0:00.00 | 1:17.70 | 0 | 5844
2 | 1:17.70 | 9:29.27 | 5845 | 48546
3 | 10:47.22 | 6:39.20 | 48547 | 78491
4 | 17:26.42 | 6:26.18 | 78492 | 107459
5 | 23:52.60 | 12:50.52 | 107460 | 165261
6 | 36:43.37 | 6:35.28 | 165262 | 194914
7 | 43:18.65 | 9:07.32 | 194915 | 235971
8 | 52:26.22 | 12:08.43 | 235972 | 290614


Track 1

Filename D:\music\Musicgate's rips\Don Ellis Orchestra - 'Live' At Monterey! (1966) {1998, Capitol}\01 - Introduction By Jimmy Lyons.wav

Pre-gap length 0:00:02.00

Peak level 86.5 %
Track quality 100.0 %
Test CRC A9475AA5
Copy CRC A9475AA5
Accurately ripped (confidence 2) [D7A5F117]
Copy OK

Track 2

Filename D:\music\Musicgate's rips\Don Ellis Orchestra - 'Live' At Monterey! (1966) {1998, Capitol}\02 - 33 222 1 222.wav

Peak level 88.1 %
Track quality 100.0 %
Test CRC 9B5AAC67
Copy CRC 9B5AAC67
Accurately ripped (confidence 2) [A102E463]
Copy OK

Track 3

Filename D:\music\Musicgate's rips\Don Ellis Orchestra - 'Live' At Monterey! (1966) {1998, Capitol}\03 - Passacaglia and Fugue.wav

Pre-gap length 0:00:22.13

Peak level 98.8 %
Track quality 100.0 %
Test CRC 277207E7
Copy CRC 277207E7
Accurately ripped (confidence 2) [522B9824]
Copy OK

Track 4

Filename D:\music\Musicgate's rips\Don Ellis Orchestra - 'Live' At Monterey! (1966) {1998, Capitol}\04 - Crete Idea.wav

Peak level 98.8 %
Track quality 100.0 %
Test CRC 96457877
Copy CRC 96457877
Accurately ripped (confidence 2) [402AB682]
Copy OK

Track 5

Filename D:\music\Musicgate's rips\Don Ellis Orchestra - 'Live' At Monterey! (1966) {1998, Capitol}\05 - Concerto For Trumpet.wav

Peak level 98.8 %
Track quality 99.9 %
Test CRC 49508D7C
Copy CRC 49508D7C
Accurately ripped (confidence 2) [C9BDA5F1]
Copy OK

Track 6

Filename D:\music\Musicgate's rips\Don Ellis Orchestra - 'Live' At Monterey! (1966) {1998, Capitol}\06 - 27,16.wav

Peak level 97.9 %
Track quality 100.0 %
Test CRC D89C3D30
Copy CRC D89C3D30
Accurately ripped (confidence 2) [73E21287]
Copy OK

Track 7

Filename D:\music\Musicgate's rips\Don Ellis Orchestra - 'Live' At Monterey! (1966) {1998, Capitol}\07 - Beat Me Daddy, 7 to the Bar.wav

Peak level 98.8 %
Track quality 100.0 %
Test CRC E76A6DDC
Copy CRC E76A6DDC
Accurately ripped (confidence 2) [E2EFC0A9]
Copy OK

Track 8

Filename D:\music\Musicgate's rips\Don Ellis Orchestra - 'Live' At Monterey! (1966) {1998, Capitol}\08 - New Nine.wav

Peak level 98.8 %
Track quality 99.9 %
Test CRC 0D994D8D
Copy CRC 0D994D8D
Accurately ripped (confidence 2) [5ED755F1]
Copy OK


All tracks accurately ripped

No errors occurred

End of status report

[CUETools log; Date: 11.04.2018 0:57:26; Version: 2.1.4]
[CTDB TOCID: W68EHtzaRm7dUeW6tFY.6r7jP1o-] found.
Track | CTDB Status
1 | (18/18) Accurately ripped
2 | (18/18) Accurately ripped
3 | (18/18) Accurately ripped
4 | (18/18) Accurately ripped
5 | (18/18) Accurately ripped
6 | (18/18) Accurately ripped
7 | (18/18) Accurately ripped
8 | (18/18) Accurately ripped
[AccurateRip ID: 001132c4-00780df0-5f0f2208] found.
Track [ CRC | V2 ] Status
01 [d7a5f117|ea068709] (07+07/21) Accurately ripped
02 [a102e463|942c3829] (07+07/21) Accurately ripped
03 [522b9824|60790b45] (07+07/20) Accurately ripped
04 [402ab682|fda114ca] (07+07/21) Accurately ripped
05 [c9bda5f1|36cd42c9] (07+07/21) Accurately ripped
06 [73e21287|74346541] (07+07/21) Accurately ripped
07 [e2efc0a9|4c247eea] (07+07/21) Accurately ripped
08 [5ed755f1|50ef4da4] (07+07/21) Accurately ripped
Offsetted by 282:
01 [e107d85f] (00/21) No match (V2 was not tested)
02 [f0470587] (00/21) No match (V2 was not tested)
03 [290ca64f] (00/20) No match (V2 was not tested)
04 [a0cbb650] (00/21) No match (V2 was not tested)
05 [40968024] (00/21) No match (V2 was not tested)
06 [9fdb6cc8] (00/21) No match (V2 was not tested)
07 [19d3b7e6] (00/21) No match (V2 was not tested)
08 [08fccdc3] (00/21) No match (V2 was not tested)

Track Peak [ CRC32 ] [W/O NULL] [ LOG ]
– 98,8 [B5EE0B0B] [3E2C5B78]
01 86,5 [A9475AA5] [6533E85F] CRC32
02 88,1 [9B5AAC67] [5BF62C79] CRC32
03 98,8 [277207E7] [119197E5] CRC32
04 98,8 [96457877] [A78078D0] CRC32
05 98,8 [49508D7C] [9015F110] CRC32
06 97,9 [D89C3D30] [0C6A8493] CRC32
07 98,8 [E76A6DDC] [5D8CD28C] CRC32
08 98,8 [0D994D8D] [B8B9D0B1] CRC32

Thanks to Musicgate

See also:
Don Ellis And His Orchestra - Autumn (1968) [Reissue 2007]
Don Ellis - Shock Treatment (1968) [Reissue 2001]
Don Ellis - The New Don Ellis Band Goes Underground (1969) [Reissue 2006]