Subcategories

Don Felder - Airborne (1983) [Reissue 2002]

Posted By: Andi_Deris
Don Felder - Airborne (1983) [Reissue 2002]

Don Felder - Airborne (1983) [Reissue 2002]
EAC Rip | FLAC: Image+Cue+Log | 273 Mb | MP3 CBR 320 kbps | 101 Mb | Scans | Time: 37:22
Genre: Soft Rock, Classic Rock | Label: Wounded Bird Records | Cat.: WOU 6295

"Airborne" is the first solo album by former Eagles guitarist Don Felder recorded during the period that the band was broken up. It was his only solo album until 2012's Road to Forever. It featured Carlos Vega, Joe Vitale, Russ Kunkel, Tris Imboden, Timothy B. Schmit (who had also been in the Eagles), Jeff Lorber, Paulinho Da Costa, Joe Lala, Kenny Loggins, Dave Mason and Albhy Galuten.

Don Felder - Airborne (1983) [Reissue 2002]




Don Felder - Airborne (1983) [Reissue 2002]


Track Listing

01. Bad Girls (4:48)
02. Winners (4:39)
03. Haywire (5:09)
04. Who Tonight (4:57)
05. Never Surrender (4:17)
06. Asphalt Jungle (4:11)
07. Night Owl (4:33)
08. Still Alive (4:48)

Produced by Don Felder

Musicians

• Don Felder - Guitar, Keyboards, Synclavier, Synthesizer, Vocals
• Albhy Galuten, Anthony Marinelli - Synclavier, Synthesizer
• Paulinho Da Costa, Joe Lala - Percussion
• Nathan East, George Hawkins, George "Chocolate" Perry - Bass
• Tris Imboden, Russ Kunkel, Carlos Vega - Drums
• Kenny Loggins, Dave Mason, Timothy B. Schmit - Vocals, Vocals (Background)
• Jeff Lorber, Michael Murphey - Keyboards
• Lee Loughnane, James Pankow - Horn
• Joe Vitale - Drums, Flute, Keyboards, Percussion

Don Felder - Airborne (1983) [Reissue 2002]


Exact Audio Copy V1.0 beta 1 from 15. November 2010

EAC extraction logfile from 17. August 2011, 19:40

Don Felder / Airborne

Used drive : SONY DVD RW AD-7260S Adapter: 2 ID: 0

Read mode : Secure
Utilize accurate stream : Yes
Defeat audio cache : Yes
Make use of C2 pointers : No

Read offset correction : 48
Overread into Lead-In and Lead-Out : No
Fill up missing offset samples with silence : Yes
Delete leading and trailing silent blocks : No
Null samples used in CRC calculations : Yes
Used interface : Native Win32 interface for Win NT & 2000

Used output format : Internal WAV Routines
Sample format : 44.100 Hz; 16 Bit; Stereo

TOC of the extracted CD

Track | Start | Length | Start sector | End sector
––––––––––––––––––––––––––––-
1 | 0:00.00 | 4:48.03 | 0 | 21602
2 | 4:48.03 | 4:39.45 | 21603 | 42572
3 | 9:27.48 | 5:09.31 | 42573 | 65778
4 | 14:37.04 | 4:57.03 | 65779 | 88056
5 | 19:34.07 | 4:17.24 | 88057 | 107355
6 | 23:51.31 | 4:11.64 | 107356 | 126244
7 | 28:03.20 | 4:33.69 | 126245 | 146788
8 | 32:37.14 | 4:48.35 | 146789 | 168423

Range status and errors

Selected range

Filename S:\Don Felder (ex Eagles)\1983 - Airborne (Reissue 2002)\Don Felder - Airborne.wav

Peak level 85.8 %
Extraction speed 0.4 X
Range quality 100.0 %
Test CRC 834D2E47
Copy CRC 834D2E47
Copy OK

No errors occurred

AccurateRip summary

Track 1 accurately ripped (confidence 3) [7B603AD3]
Track 2 accurately ripped (confidence 3) [DBC90A5E]
Track 3 accurately ripped (confidence 3) [7740BB12]
Track 4 accurately ripped (confidence 3) [42A99FD6]
Track 5 accurately ripped (confidence 3) [B4E59F32]
Track 6 accurately ripped (confidence 3) [A86F92BC]
Track 7 accurately ripped (confidence 3) [0687BEBF]
Track 8 accurately ripped (confidence 3) [E9478B45]

All tracks accurately ripped

End of status report


Many thanks to the original uploader: aylaayla

––––––––––
Nitroflare