Subcategories

Don Grusin - Banana Fish (1994) {GRP}

Posted By: tiburon
Don Grusin - Banana Fish (1994) {GRP}

Don Grusin - Banana Fish (1994) {GRP}
EAC 0.99pb4 | FLAC Image level 8 | Cue+Log | Full Scans 300dpi | 315MB + 5% Recovery
MP3 CBR 320 Kbps | 108MB + 5% Recovery
Genre: Crossover Jazz
Don Grusin - Banana Fish (1994) {GRP}

American composer, arranger, producer, pianist, and educator Don Grusin is an accomplished Grammy Award-winning musician with a bent toward crossover styles of music from jazz to pop with a specific interest in the music of Brazil and Latin America.
Track List
01. Pacific Lights 4:33
02. Baby's Comin' Home Tonight 4:50
03. Banana Fish 4:22
04. Green Diamonds 4:00
05. Island Cowboy 5:01
06. Beach Dogs 3:49
07. Goodbye 5:36
08. Home on the Range 5:08
09. Deep Water 4:41
10. Betty's Jetty 5:04

musicians
Don Grusin - Synthesizer, Guitars, Piano, Back Vocals
Gary Herbig - Baritone, Soprano Saxophones
Tollak Ollestad - Harmonica, Vocals
Frank Quintero - Vocals
Brenda Russell - Vocals
Charlie Bisharat - Violin
Armand Sabal-Lecco - Bass
John Patitucci - Bass
Harvey Mason, Sr. - Drums
Carlos Vega - Drums
Shem Shroek, Michael Now - Back Vocals

Produced by Don Grusin


Exact Audio Copy V0.99 prebeta 4 from 23. January 2008

EAC extraction logfile from 11. February 2009, 14:04

Don Grusin / Banana Fish

Used drive : HL-DT-STDVDRAM GSA-4167B Adapter: 0 ID: 2

Read mode : Secure
Utilize accurate stream : Yes
Defeat audio cache : Yes
Make use of C2 pointers : No

Read offset correction : 667
Overread into Lead-In and Lead-Out : No
Fill up missing offset samples with silence : Yes
Delete leading and trailing silent blocks : No
Null samples used in CRC calculations : Yes
Used interface : Installed external ASPI interface

Used output format : User Defined Encoder
Selected bitrate : 128 kBit/s
Quality : High
Add ID3 tag : No
Command line compressor : G:\Program Files\Exact Audio Copy\wavpack.exe
Additional command line options : -hm -w "Title=%t" -w "Artist=%a" -w "Year=%y" -w "Genre=%m" %s %d


TOC of the extracted CD

Track | Start | Length | Start sector | End sector
––––––––––––––––––––––––––––-
1 | 0:00.32 | 4:36.45 | 32 | 20776
2 | 4:37.02 | 4:52.38 | 20777 | 42714
3 | 9:29.40 | 4:24.52 | 42715 | 62566
4 | 13:54.17 | 4:00.35 | 62567 | 80601
5 | 17:54.52 | 5:02.55 | 80602 | 103306
6 | 22:57.32 | 3:50.60 | 103307 | 120616
7 | 26:48.17 | 5:37.45 | 120617 | 145936
8 | 32:25.62 | 5:10.20 | 145937 | 169206
9 | 37:36.07 | 4:42.45 | 169207 | 190401
10 | 42:18.52 | 5:05.55 | 190402 | 213331


Range status and errors

Selected range

Filename F:\WAV\Don Grusin - Banana Fish.wav

Peak level 100.0 %
Range quality 100.0 %
Test CRC B112F901
Copy CRC B112F901
Copy OK

No errors occurred


AccurateRip summary

Track 1 accurately ripped (confidence 2) [EA4062E2]
Track 2 accurately ripped (confidence 2) [D45B520E]
Track 3 accurately ripped (confidence 2) [6E080984]
Track 4 accurately ripped (confidence 2) [F6B64B34]
Track 5 accurately ripped (confidence 2) [6AEBAAE8]
Track 6 accurately ripped (confidence 2) [253EDD71]
Track 7 accurately ripped (confidence 2) [92DEA6AD]
Track 8 accurately ripped (confidence 2) [7C52B37F]
Track 9 accurately ripped (confidence 2) [AE2BE2ED]
Track 10 accurately ripped (confidence 2) [53268DFF]

All tracks accurately ripped

End of status report


––––––––––––––––––––––––––––––––––––––––
Analyzed: Don Grusin / Banana Fish
––––––––––––––––––––––––––––––––––––––––

DR Peak RMS Duration Track
––––––––––––––––––––––––––––––––––––––––
DR11 0.00 dB -12.74 dB 4:37 01-Pacific Lights
DR9 -0.01 dB -12.84 dB 4:53 02-Baby's Comin' Home Tonight
DR15 -0.22 dB -16.86 dB 4:25 03-Banana Fish
DR10 0.00 dB -12.64 dB 4:00 04-Green Diamonds
DR12 -0.08 dB -15.24 dB 5:03 05-Island Cowboy
DR11 0.00 dB -13.71 dB 3:51 06-Beach Dogs
DR12 0.00 dB -14.02 dB 5:38 07-Goodbye
DR10 0.00 dB -12.59 dB 5:10 08-Home On The Range
DR15 -0.25 dB -18.97 dB 4:43 09-Deep Water
DR12 -0.01 dB -14.59 dB 5:06 10-Betty's Petty
––––––––––––––––––––––––––––––––––––––––

Number of tracks: 10
Official DR value: DR12

Samplerate: 44100 Hz
Channels: 2
Bits per sample: 16
Bitrate: 832 kbps
Codec: FLAC
================================================================================

Don Grusin - Banana Fish (1994) {GRP}
Don Grusin - Banana Fish (1994) {GRP}
Don Grusin - Banana Fish (1994) {GRP}


Thanks to the original ripper