Subcategories

Donald - 20 Exitos ( CD 1997 ) RE-UP

Posted By: jbglx
Donald - 20 Exitos ( CD 1997 ) RE-UP

Donald - 20 Exitos ( CD 1997 )
EAC Rip | FLAC-TRACKS+LOG+AAD Stereo | 1CD | Scans | 62 Min. | 336 MB
Label : RCA-BMG / Catalogue : 7432149270-2
Pop / CD compilation 1997

Donald McCluskey, born in Buenos Aires , Argentina, was characterized ever since its emergence as a singer for playing summer issues, expressing a message linked to joy and rhythm. His beginnings in music the group performs with "The In" by the hand of Francis Smith. He decides to make it as a soloist in little stakes in some TV shows and what at the time were called "nightclubs". Getting Music in the blood, with an inescapable influence the group consisting of his brothers "The Mac Ke Mac´s", recorded in 1967 for RCA Victor record company, Shivering, a song by Nono Pugliese, that original version was a rock Donald slower than with judgment and good sense of smell, change to another rhythm. The issue is when the producer Pugliese successfully included in one of its TV ads, cigarettes Shivering Chesterfied to topic. Then everything was a success. Soon the hit selling 600,000 copies and get a desired spread for any performer, his image becomes familiar in every household Argentines and the stunning success of his songs take you to star in film movies how "We were always mates" and "on a beach by the sea. "

Donald - 20 Exitos ( CD 1997 ) RE-UP


Donald - 20 Exitos ( CD 1997 ) RE-UP

All tracks recorded froom 1969 thru early eighties .

Track Listings :

1 Tiritando
2 Cambiemos El Color Del Cielo
3 Remolinos
4 En Una Playa Junto Al Mar (Playa Grande)
5 El Milagro De Tus Ojos
6 Que Tal Mi Amor ?
7 Siempre Fuimos Compañeros
8 Cosquillas
9 Me Di Cuenta
10 Verano Naranja
11 Scaba Badi Bidu
12 Tan, Tan Simpática
13 Celosa, Celosa, Celosa
14 Donde Vas Chiquita Bonita
15 Porque Si, Porque No, Porque Racatacata
16 No Hay Invierno Ni Verano
17 Mi Amigo Pucho
18 Mojadita De Lluvia
19 Todo Tiene Musica
20 Somos Una Cuestion de Piel


Exact Audio Copy V1.0 beta 3 from 29. August 2011

EAC extraction logfile from 14. January 2013, 9:00

Donald / 20 Exitos

Used drive : SONY DVD RW DRU-840A Adapter: 0 ID: 1

Read mode : Secure
Utilize accurate stream : Yes
Defeat audio cache : Yes
Make use of C2 pointers : No

Read offset correction : 6
Overread into Lead-In and Lead-Out : No
Fill up missing offset samples with silence : Yes
Delete leading and trailing silent blocks : No
Null samples used in CRC calculations : Yes
Used interface : Native Win32 interface for Win NT & 2000
Gap handling : Not detected, thus appended to previous track

Used output format : User Defined Encoder
Selected bitrate : 320 kBit/s
Quality : High
Add ID3 tag : No
Command line compressor : C:\Archivos de programa\Exact Audio Copy\FLAC\FLAC.EXE
Additional command line options : -6 -V -T "ARTIST=%artist%" -T "TITLE=%title%" -T "ALBUM=%albumtitle%" -T "DATE=%year%" -T "TRACKNUMBER=%tracknr%" -T "GENRE=%genre%" -T "COMMENT=%comment%" -T "BAND=%albuminterpret%" -T "ALBUMARTIST=%albuminterpret%" -T "COMPOSER=%composer%" %haslyrics%–tag-from-file=LYRICS="%lyricsfile%"%haslyrics% -T "DISCNUMBER=%cdnumber%" -T "TOTALDISCS=%totalcds%" -T "TOTALTRACKS=%numtracks%" %hascover%–picture="%coverfile%"%hascover% %source% -o %dest%


TOC of the extracted CD

Track | Start | Length | Start sector | End sector
––––––––––––––––––––––––––––-
1 | 0:00.00 | 2:36.57 | 0 | 11756
2 | 2:36.57 | 2:24.73 | 11757 | 22629
3 | 5:01.55 | 2:36.55 | 22630 | 34384
4 | 7:38.35 | 2:24.07 | 34385 | 45191
5 | 10:02.42 | 2:54.70 | 45192 | 58311
6 | 12:57.37 | 3:16.43 | 58312 | 73054
7 | 16:14.05 | 2:28.65 | 73055 | 84219
8 | 18:42.70 | 2:29.50 | 84220 | 95444
9 | 21:12.45 | 2:46.45 | 95445 | 107939
10 | 23:59.15 | 2:44.47 | 107940 | 120286
11 | 26:43.62 | 2:26.00 | 120287 | 131236
12 | 29:09.62 | 3:05.28 | 131237 | 145139
13 | 32:15.15 | 2:30.60 | 145140 | 156449
14 | 34:46.00 | 2:44.25 | 156450 | 168774
15 | 37:30.25 | 2:34.25 | 168775 | 180349
16 | 40:04.50 | 2:35.32 | 180350 | 192006
17 | 42:40.07 | 3:14.58 | 192007 | 206614
18 | 45:54.65 | 3:07.44 | 206615 | 220683
19 | 49:02.34 | 4:14.43 | 220684 | 239776
20 | 53:17.02 | 2:54.35 | 239777 | 252861


Track 1

Filename E:\MUSIC\My Music\Donald - 20 Exitos\CD\01 Tiritando.wav

Peak level 97.7 %
Extraction speed 1.6 X
Track quality 100.0 %
Test CRC 76DB6888
Copy CRC 76DB6888
Track not present in AccurateRip database
Copy OK

Track 2

Filename E:\MUSIC\My Music\Donald - 20 Exitos\CD\02 Cambiemos El Color Del Cielo.wav

Peak level 97.7 %
Extraction speed 1.7 X
Track quality 100.0 %
Test CRC 3BDFFA61
Copy CRC 3BDFFA61
Track not present in AccurateRip database
Copy OK

Track 3

Filename E:\MUSIC\My Music\Donald - 20 Exitos\CD\03 Remolinos.wav

Peak level 97.7 %
Extraction speed 1.9 X
Track quality 100.0 %
Test CRC F75459BF
Copy CRC F75459BF
Track not present in AccurateRip database
Copy OK

Track 4

Filename E:\MUSIC\My Music\Donald - 20 Exitos\CD\04 En Una Playa Frente Al Mar (Playa Grande).wav

Peak level 97.7 %
Extraction speed 1.5 X
Track quality 99.9 %
Test CRC 0AB9746B
Copy CRC 0AB9746B
Track not present in AccurateRip database
Copy OK

Track 5

Filename E:\MUSIC\My Music\Donald - 20 Exitos\CD\05 El Milagro de Tus Ojos.wav

Peak level 97.7 %
Extraction speed 1.7 X
Track quality 99.9 %
Test CRC 6BD41BD4
Copy CRC 6BD41BD4
Track not present in AccurateRip database
Copy OK

Track 6

Filename E:\MUSIC\My Music\Donald - 20 Exitos\CD\06 ¿Que tal Mi Amor.wav

Peak level 97.6 %
Extraction speed 2.3 X
Track quality 100.0 %
Test CRC DAD63BA6
Copy CRC DAD63BA6
Track not present in AccurateRip database
Copy OK

Track 7

Filename E:\MUSIC\My Music\Donald - 20 Exitos\CD\07 Siempre Fuimos Compañeros.wav

Peak level 97.7 %
Extraction speed 2.2 X
Track quality 100.0 %
Test CRC A64F7FCC
Copy CRC A64F7FCC
Track not present in AccurateRip database
Copy OK

Track 8

Filename E:\MUSIC\My Music\Donald - 20 Exitos\CD\08 Cosquillas.wav

Peak level 97.7 %
Extraction speed 2.3 X
Track quality 100.0 %
Test CRC 552AED02
Copy CRC 552AED02
Track not present in AccurateRip database
Copy OK

Track 9

Filename E:\MUSIC\My Music\Donald - 20 Exitos\CD\09 Me Di Cuenta.wav

Peak level 95.4 %
Extraction speed 2.4 X
Track quality 100.0 %
Test CRC A5841CFB
Copy CRC A5841CFB
Track not present in AccurateRip database
Copy OK

Track 10

Filename E:\MUSIC\My Music\Donald - 20 Exitos\CD\10 Verano Naranja.wav

Peak level 97.7 %
Extraction speed 2.4 X
Track quality 100.0 %
Test CRC D1AD7CF5
Copy CRC D1AD7CF5
Track not present in AccurateRip database
Copy OK

Track 11

Filename E:\MUSIC\My Music\Donald - 20 Exitos\CD\11 Scaba Badi Bidu (Regay).wav

Peak level 97.7 %
Extraction speed 2.6 X
Track quality 100.0 %
Test CRC C30D75B5
Copy CRC C30D75B5
Track not present in AccurateRip database
Copy OK

Track 12

Filename E:\MUSIC\My Music\Donald - 20 Exitos\CD\12 Tan, Tan Simpática.wav

Peak level 97.7 %
Extraction speed 2.8 X
Track quality 100.0 %
Test CRC 1B71DBF8
Copy CRC 1B71DBF8
Track not present in AccurateRip database
Copy OK

Track 13

Filename E:\MUSIC\My Music\Donald - 20 Exitos\CD\13 Celosa, Celosa , Celosa.wav

Peak level 97.4 %
Extraction speed 2.7 X
Track quality 100.0 %
Test CRC BF160B79
Copy CRC BF160B79
Track not present in AccurateRip database
Copy OK

Track 14

Filename E:\MUSIC\My Music\Donald - 20 Exitos\CD\14 Donde Vas, Chiquita Bonita.wav

Peak level 97.7 %
Extraction speed 2.1 X
Track quality 99.9 %
Test CRC 65526C11
Copy CRC 65526C11
Track not present in AccurateRip database
Copy OK

Track 15

Filename E:\MUSIC\My Music\Donald - 20 Exitos\CD\15 Porque Si, Porque No, Porque Racatacata.wav

Peak level 97.7 %
Extraction speed 2.0 X
Track quality 99.9 %
Test CRC 71F66E4E
Copy CRC 71F66E4E
Track not present in AccurateRip database
Copy OK

Track 16

Filename E:\MUSIC\My Music\Donald - 20 Exitos\CD\16 No Hay Invierno Ni Verano.wav

Peak level 94.6 %
Extraction speed 2.9 X
Track quality 100.0 %
Test CRC 4F518960
Copy CRC 4F518960
Track not present in AccurateRip database
Copy OK

Track 17

Filename E:\MUSIC\My Music\Donald - 20 Exitos\CD\17 Mi Amigo Pucho.wav

Peak level 97.7 %
Extraction speed 3.1 X
Track quality 100.0 %
Test CRC 305CF6A1
Copy CRC 305CF6A1
Track not present in AccurateRip database
Copy OK

Track 18

Filename E:\MUSIC\My Music\Donald - 20 Exitos\CD\18 Mojadita De Lluvia.wav

Peak level 97.7 %
Extraction speed 2.3 X
Track quality 99.9 %
Test CRC 8125CFE4
Copy CRC 8125CFE4
Track not present in AccurateRip database
Copy OK

Track 19

Filename E:\MUSIC\My Music\Donald - 20 Exitos\CD\19 Todo Tiene Música.wav

Peak level 97.7 %
Extraction speed 3.5 X
Track quality 100.0 %
Test CRC 8925F69B
Copy CRC 8925F69B
Track not present in AccurateRip database
Copy OK

Track 20

Filename E:\MUSIC\My Music\Donald - 20 Exitos\CD\20 Somos Una Cuestion de Piel.wav

Peak level 97.7 %
Extraction speed 3.4 X
Track quality 100.0 %
Test CRC BC5B81C8
Copy CRC BC5B81C8
Track not present in AccurateRip database
Copy OK


None of the tracks are present in the AccurateRip database

No errors occurred

End of status report

==== Log checksum 5C22ED9F25C7E3E7DDD0751142B5D993B7C1BD104E9C71814AF17FBB47360109 ====

––––––––––––––––––––––––––––––

Exact Audio Copy V1.0 beta 3 from 29. August 2011

EAC extraction logfile from 14. January 2013, 9:01

Donald / 20 Exitos

Used drive : SONY DVD RW DRU-840A Adapter: 0 ID: 1

Read mode : Secure
Utilize accurate stream : Yes
Defeat audio cache : Yes
Make use of C2 pointers : No

Read offset correction : 6
Overread into Lead-In and Lead-Out : No
Fill up missing offset samples with silence : Yes
Delete leading and trailing silent blocks : No
Null samples used in CRC calculations : Yes
Used interface : Native Win32 interface for Win NT & 2000
Gap handling : Not detected, thus appended to previous track

Used output format : User Defined Encoder
Selected bitrate : 320 kBit/s
Quality : High
Add ID3 tag : No
Command line compressor : C:\Archivos de programa\Exact Audio Copy\FLAC\FLAC.EXE
Additional command line options : -6 -V -T "ARTIST=%artist%" -T "TITLE=%title%" -T "ALBUM=%albumtitle%" -T "DATE=%year%" -T "TRACKNUMBER=%tracknr%" -T "GENRE=%genre%" -T "COMMENT=%comment%" -T "BAND=%albuminterpret%" -T "ALBUMARTIST=%albuminterpret%" -T "COMPOSER=%composer%" %haslyrics%–tag-from-file=LYRICS="%lyricsfile%"%haslyrics% -T "DISCNUMBER=%cdnumber%" -T "TOTALDISCS=%totalcds%" -T "TOTALTRACKS=%numtracks%" %hascover%–picture="%coverfile%"%hascover% %source% -o %dest%


TOC of the extracted CD

Track | Start | Length | Start sector | End sector
––––––––––––––––––––––––––––-
1 | 0:00.00 | 2:36.57 | 0 | 11756
2 | 2:36.57 | 2:24.73 | 11757 | 22629
3 | 5:01.55 | 2:36.55 | 22630 | 34384
4 | 7:38.35 | 2:24.07 | 34385 | 45191
5 | 10:02.42 | 2:54.70 | 45192 | 58311
6 | 12:57.37 | 3:16.43 | 58312 | 73054
7 | 16:14.05 | 2:28.65 | 73055 | 84219
8 | 18:42.70 | 2:29.50 | 84220 | 95444
9 | 21:12.45 | 2:46.45 | 95445 | 107939
10 | 23:59.15 | 2:44.47 | 107940 | 120286
11 | 26:43.62 | 2:26.00 | 120287 | 131236
12 | 29:09.62 | 3:05.28 | 131237 | 145139
13 | 32:15.15 | 2:30.60 | 145140 | 156449
14 | 34:46.00 | 2:44.25 | 156450 | 168774
15 | 37:30.25 | 2:34.25 | 168775 | 180349
16 | 40:04.50 | 2:35.32 | 180350 | 192006
17 | 42:40.07 | 3:14.58 | 192007 | 206614
18 | 45:54.65 | 3:07.44 | 206615 | 220683
19 | 49:02.34 | 4:14.43 | 220684 | 239776
20 | 53:17.02 | 2:54.35 | 239777 | 252861


Track 1

Filename E:\MUSIC\My Music\Donald - 20 Exitos\CD\01 Tiritando.wav

Peak level 97.7 %
Extraction speed 1.6 X
Track quality 100.0 %
Test CRC 76DB6888
Copy CRC 76DB6888
Track not present in AccurateRip database
Copy OK

Track 2

Filename E:\MUSIC\My Music\Donald - 20 Exitos\CD\02 Cambiemos El Color Del Cielo.wav

Peak level 97.7 %
Extraction speed 1.7 X
Track quality 100.0 %
Test CRC 3BDFFA61
Copy CRC 3BDFFA61
Track not present in AccurateRip database
Copy OK

Track 3

Filename E:\MUSIC\My Music\Donald - 20 Exitos\CD\03 Remolinos.wav

Peak level 97.7 %
Extraction speed 1.9 X
Track quality 100.0 %
Test CRC F75459BF
Copy CRC F75459BF
Track not present in AccurateRip database
Copy OK

Track 4

Filename E:\MUSIC\My Music\Donald - 20 Exitos\CD\04 En Una Playa Frente Al Mar (Playa Grande).wav

Peak level 97.7 %
Extraction speed 1.5 X
Track quality 99.9 %
Test CRC 0AB9746B
Copy CRC 0AB9746B
Track not present in AccurateRip database
Copy OK

Track 5

Filename E:\MUSIC\My Music\Donald - 20 Exitos\CD\05 El Milagro de Tus Ojos.wav

Peak level 97.7 %
Extraction speed 1.7 X
Track quality 99.9 %
Test CRC 6BD41BD4
Copy CRC 6BD41BD4
Track not present in AccurateRip database
Copy OK

Track 6

Filename E:\MUSIC\My Music\Donald - 20 Exitos\CD\06 ¿Que tal Mi Amor.wav

Peak level 97.6 %
Extraction speed 2.3 X
Track quality 100.0 %
Test CRC DAD63BA6
Copy CRC DAD63BA6
Track not present in AccurateRip database
Copy OK

Track 7

Filename E:\MUSIC\My Music\Donald - 20 Exitos\CD\07 Siempre Fuimos Compañeros.wav

Peak level 97.7 %
Extraction speed 2.2 X
Track quality 100.0 %
Test CRC A64F7FCC
Copy CRC A64F7FCC
Track not present in AccurateRip database
Copy OK

Track 8

Filename E:\MUSIC\My Music\Donald - 20 Exitos\CD\08 Cosquillas.wav

Peak level 97.7 %
Extraction speed 2.3 X
Track quality 100.0 %
Test CRC 552AED02
Copy CRC 552AED02
Track not present in AccurateRip database
Copy OK

Track 9

Filename E:\MUSIC\My Music\Donald - 20 Exitos\CD\09 Me Di Cuenta.wav

Peak level 95.4 %
Extraction speed 2.4 X
Track quality 100.0 %
Test CRC A5841CFB
Copy CRC A5841CFB
Track not present in AccurateRip database
Copy OK

Track 10

Filename E:\MUSIC\My Music\Donald - 20 Exitos\CD\10 Verano Naranja.wav

Peak level 97.7 %
Extraction speed 2.4 X
Track quality 100.0 %
Test CRC D1AD7CF5
Copy CRC D1AD7CF5
Track not present in AccurateRip database
Copy OK

Track 11

Filename E:\MUSIC\My Music\Donald - 20 Exitos\CD\11 Scaba Badi Bidu (Regay).wav

Peak level 97.7 %
Extraction speed 2.6 X
Track quality 100.0 %
Test CRC C30D75B5
Copy CRC C30D75B5
Track not present in AccurateRip database
Copy OK

Track 12

Filename E:\MUSIC\My Music\Donald - 20 Exitos\CD\12 Tan, Tan Simpática.wav

Peak level 97.7 %
Extraction speed 2.8 X
Track quality 100.0 %
Test CRC 1B71DBF8
Copy CRC 1B71DBF8
Track not present in AccurateRip database
Copy OK

Track 13

Filename E:\MUSIC\My Music\Donald - 20 Exitos\CD\13 Celosa, Celosa , Celosa.wav

Peak level 97.4 %
Extraction speed 2.7 X
Track quality 100.0 %
Test CRC BF160B79
Copy CRC BF160B79
Track not present in AccurateRip database
Copy OK

Track 14

Filename E:\MUSIC\My Music\Donald - 20 Exitos\CD\14 Donde Vas, Chiquita Bonita.wav

Peak level 97.7 %
Extraction speed 2.1 X
Track quality 99.9 %
Test CRC 65526C11
Copy CRC 65526C11
Track not present in AccurateRip database
Copy OK

Track 15

Filename E:\MUSIC\My Music\Donald - 20 Exitos\CD\15 Porque Si, Porque No, Porque Racatacata.wav

Peak level 97.7 %
Extraction speed 2.0 X
Track quality 99.9 %
Test CRC 71F66E4E
Copy CRC 71F66E4E
Track not present in AccurateRip database
Copy OK

Track 16

Filename E:\MUSIC\My Music\Donald - 20 Exitos\CD\16 No Hay Invierno Ni Verano.wav

Peak level 94.6 %
Extraction speed 2.9 X
Track quality 100.0 %
Test CRC 4F518960
Copy CRC 4F518960
Track not present in AccurateRip database
Copy OK

Track 17

Filename E:\MUSIC\My Music\Donald - 20 Exitos\CD\17 Mi Amigo Pucho.wav

Peak level 97.7 %
Extraction speed 3.1 X
Track quality 100.0 %
Test CRC 305CF6A1
Copy CRC 305CF6A1
Track not present in AccurateRip database
Copy OK

Track 18

Filename E:\MUSIC\My Music\Donald - 20 Exitos\CD\18 Mojadita De Lluvia.wav

Peak level 97.7 %
Extraction speed 2.3 X
Track quality 99.9 %
Test CRC 8125CFE4
Copy CRC 8125CFE4
Track not present in AccurateRip database
Copy OK

Track 19

Filename E:\MUSIC\My Music\Donald - 20 Exitos\CD\19 Todo Tiene Música.wav

Peak level 97.7 %
Extraction speed 3.5 X
Track quality 100.0 %
Test CRC 8925F69B
Copy CRC 8925F69B
Track not present in AccurateRip database
Copy OK

Track 20

Filename E:\MUSIC\My Music\Donald - 20 Exitos\CD\20 Somos Una Cuestion de Piel.wav

Peak level 97.7 %
Extraction speed 3.4 X
Track quality 100.0 %
Test CRC BC5B81C8
Copy CRC BC5B81C8
Track not present in AccurateRip database
Copy OK


None of the tracks are present in the AccurateRip database

No errors occurred

End of status report

==== Log checksum 890319574C78894AEB19EAC935A8D5A100165B90C81E73FA556CB7658123B995 ====