Subcategories

Donaueschinger Musiktage 2008 - Various Composers

Posted By: tapaz9
Donaueschinger Musiktage 2008 - Various Composers

Donaueschinger Musiktage 2008 - Various Composers
Classical | EAC: FLAC+Cue+Log | 3 Cd, Covers | 979 Mb
Label: NEOS - Date: 2009

“One hundred years of New Music – so what now”. This rhetorical question posed by the promoters of the event provoked various responses. Enno Poppe occupied one corner (a dusty one at that), and Isabel Mundry quite another – playing the role of the philosopher. As for Ben Johnston, he celebrated a late Donaueschingen debut with his Quintet for groups. Brice Pauset, Arnulf Herrmann and Bernhard Gander allowed their thoughts to roam a little, as a series of solos receding into the distance, if apparently chaotic when viewed up close, not unlike a disco just around the corner. Saed Haddad demanded luxury goods, and Eduardo Moguillansky held white-hot forms in his hands. Georges Aperghis achieved a remarkable balancing act. Brian Ferneyhough felt: “The plethora of phenomena that surround us is confusing, incommensurable”. Stay awake, opined Dror Feiler, watch and see how it all develops. Cheers…let’s make a joyful racket!
Tracks CD 1:

01. Isabel Mundry: Ich und du [0:14:48.71]
02. Enno Poppe: Altbau - I. — [0:07:16.33]
03. II. — [0:10:13.49]
04. Brice Pauset: Die Tanzerin, "Symphony No. 5" [0:14:59.70]
05. Ben Johnston: Quintet for Groups [0:18:13.71]

Tracks CD 2:

01. Arnulf Herrmann: Fiktive Tanze, Vol. 1 - No. 1. Gerader Tanz (Eroffnung) [0:01:46.61]
02. No. 2. Verlangsamter Tanz [0:03:09.32]
03. No. 3. Kurzer Rausch (Schiefe Perioden) [0:02:35.04]
04. No. 4. Auszeit [0:01:16.34]
05. No. 5. Schwieriger Tanz [0:02:47.35]
06. Saed Haddad: The Sublime [0:12:05.41]
07. Eduardo Moguillansky: Cire perdue [0:10:00.69]
08. Georges Aperghis: Teeter-Tooter [0:14:48.06]
09. Bernhard Gander: Beine und Strumpfe [0:11:54.12]

Tracks CD 3:

01. Brian Ferneyhough: Chronos-Aion [0:27:39.22]
02. Dror Feiler: 5 Schwierigkeiten beim Schreiben der Wahrheit: Mull [0:38:39.47]


Exact Audio Copy V1.0 beta 3 from 29. August 2011

EAC extraction logfile from 19. January 2013, 23:40

Various Composers / Donaueschinger Musiktage 2008

Used drive : TSSTcorpCDDVDW SH-S223C Adapter: 2 ID: 1

Read mode : Secure
Utilize accurate stream : Yes
Defeat audio cache : Yes
Make use of C2 pointers : No

Read offset correction : 697
Overread into Lead-In and Lead-Out : No
Fill up missing offset samples with silence : Yes
Delete leading and trailing silent blocks : No
Null samples used in CRC calculations : Yes
Used interface : Native Win32 interface for Win NT & 2000

Used output format : User Defined Encoder
Selected bitrate : 896 kBit/s
Quality : High
Add ID3 tag : No
Command line compressor : C:\Program Files (x86)\Exact Audio Copy\FLAC\FLAC.EXE
Additional command line options : -V -0 -T "COMMENT=Ripped by Tapaz9" -T "artist=%artist%" -T "title=%title%" -T "album=%albumtitle%" -T "date=%year%" -T "tracknumber=%tracknr%" -T "genre=%genre%" %source%


TOC of the extracted CD

Track | Start | Length | Start sector | End sector
––––––––––––––––––––––––––––-
1 | 0:00.00 | 14:48.71 | 0 | 66670
2 | 14:48.71 | 7:16.33 | 66671 | 99403
3 | 22:05.29 | 10:13.49 | 99404 | 145427
4 | 32:19.03 | 14:59.70 | 145428 | 212922
5 | 47:18.73 | 18:13.71 | 212923 | 294968


Range status and errors

Selected range

Filename F:\Musique\Donaueschinger Musiktage 2008\Donaueschinger_Musiktage_2008\CD 1\Various Composers - Donaueschinger Musiktage 2008.wav

Peak level 96.6 %
Extraction speed 14.6 X
Range quality 100.0 %
Copy CRC 55592939
Copy OK

No errors occurred

End of status report

==== Log checksum 829A0FDF5091A892680560AF1A82F4F31C20166C7FEF6F6CDE2744ECF8237838 ====



Exact Audio Copy V1.0 beta 3 from 29. August 2011

EAC extraction logfile from 19. January 2013, 23:48

Various Composers / Donaueschinger Musiktage 2008 CD 2

Used drive : TSSTcorpCDDVDW SH-S223C Adapter: 2 ID: 1

Read mode : Secure
Utilize accurate stream : Yes
Defeat audio cache : Yes
Make use of C2 pointers : No

Read offset correction : 697
Overread into Lead-In and Lead-Out : No
Fill up missing offset samples with silence : Yes
Delete leading and trailing silent blocks : No
Null samples used in CRC calculations : Yes
Used interface : Native Win32 interface for Win NT & 2000

Used output format : User Defined Encoder
Selected bitrate : 896 kBit/s
Quality : High
Add ID3 tag : No
Command line compressor : C:\Program Files (x86)\Exact Audio Copy\FLAC\FLAC.EXE
Additional command line options : -V -0 -T "COMMENT=Ripped by Tapaz9" -T "artist=%artist%" -T "title=%title%" -T "album=%albumtitle%" -T "date=%year%" -T "tracknumber=%tracknr%" -T "genre=%genre%" %source%


TOC of the extracted CD

Track | Start | Length | Start sector | End sector
––––––––––––––––––––––––––––-
1 | 0:00.00 | 1:46.61 | 0 | 8010
2 | 1:46.61 | 3:09.32 | 8011 | 22217
3 | 4:56.18 | 2:35.04 | 22218 | 33846
4 | 7:31.22 | 1:16.34 | 33847 | 39580
5 | 8:47.56 | 2:47.35 | 39581 | 52140
6 | 11:35.16 | 12:05.41 | 52141 | 106556
7 | 23:40.57 | 10:00.69 | 106557 | 151625
8 | 33:41.51 | 14:48.06 | 151626 | 218231
9 | 48:29.57 | 11:54.12 | 218232 | 271793


Range status and errors

Selected range

Filename F:\Musique\Donaueschinger Musiktage 2008\Donaueschinger_Musiktage_2008\CD 2\Various Composers - Donaueschinger Musiktage 2008 CD 2.wav

Peak level 96.7 %
Extraction speed 15.9 X
Range quality 100.0 %
Copy CRC C02790F2
Copy OK

No errors occurred

End of status report

==== Log checksum 3363DA3F6BB4BA7D62224C42535E0E837A71BB1DD562A6793C5EAA08B550B27E ====



Exact Audio Copy V1.0 beta 3 from 29. August 2011

EAC extraction logfile from 19. January 2013, 23:57

Various Composers / Donaueschinger Musiktage 2008 CD 3

Used drive : TSSTcorpCDDVDW SH-S223C Adapter: 2 ID: 1

Read mode : Secure
Utilize accurate stream : Yes
Defeat audio cache : Yes
Make use of C2 pointers : No

Read offset correction : 697
Overread into Lead-In and Lead-Out : No
Fill up missing offset samples with silence : Yes
Delete leading and trailing silent blocks : No
Null samples used in CRC calculations : Yes
Used interface : Native Win32 interface for Win NT & 2000

Used output format : User Defined Encoder
Selected bitrate : 896 kBit/s
Quality : High
Add ID3 tag : No
Command line compressor : C:\Program Files (x86)\Exact Audio Copy\FLAC\FLAC.EXE
Additional command line options : -V -0 -T "COMMENT=Ripped by Tapaz9" -T "artist=%artist%" -T "title=%title%" -T "album=%albumtitle%" -T "date=%year%" -T "tracknumber=%tracknr%" -T "genre=%genre%" %source%


TOC of the extracted CD

Track | Start | Length | Start sector | End sector
––––––––––––––––––––––––––––-
1 | 0:00.00 | 27:39.22 | 0 | 124446
2 | 27:39.22 | 38:39.47 | 124447 | 298418


Range status and errors

Selected range

Filename F:\Musique\Donaueschinger Musiktage 2008\Donaueschinger_Musiktage_2008\CD 3\Various Composers - Donaueschinger Musiktage 2008 CD 3.wav

Peak level 94.3 %
Extraction speed 15.1 X
Range quality 100.0 %
Copy CRC D73AD698
Copy OK

No errors occurred

End of status report

==== Log checksum 83DC4833BD0F21C9ED8239B4773D5EE918D62076E3D819831D33C3FC83E20D2B ====

No Mirrors and Torrent-uploads Please

See my classical digital download posts in the Vinyl & HR section or check out My Avax blog