Tags
Language
Tags

Donna Summer - The Donna Summer Anthology (1993)

Posted By: popsakov
Donna Summer - The Donna Summer Anthology (1993)

Donna Summer - The Donna Summer Anthology (1993)
2CD | EAC Rip | FLAC (Img) + Cue + Log ~ 1,00 Gb | MP3 CBR320 ~ 377 Mb
Full Scans ~ 120 Mb | 01:18:00 + 01:18:36 | RAR 5% Recovery
Disco, R&B, Dance, Pop | Casablanca Records / Chronicles #518 144-2

The Donna Summer Anthology is a double compilation album by the American singer Donna Summer, released by Polygram Records in 1993. The compilation featured the majority of Summer's best known songs right from the start of her success to the present day. Summer had originally made her name during the disco era in the 1970s and in the decade that followed had experimented with different styles. Most of the tracks on this compilation are the original album versions of the songs, which were sometimes edited down for their release as a single. Included for the first time are two remixed tracks from her then previously unreleased I'm a Rainbow album, which had been recorded in 1981 but had been shelved by her record company at the time. The album also featured the Giorgio Moroder-penned and produced song "Carry On"', marking the first time Summer and Moroder had worked together since 1981. Summer and Moroder, together with Pete Bellotte had written the vast majority of her 1970s disco hits. Four years later, "Carry On" would be remixed and become a big dance hit. It also won Summer a Grammy for Best Dance Recording, her first win since 1984 and her fifth win in total.
Donna Summer - The Donna Summer Anthology (1993)


***************

Donna Summer - The Donna Summer Anthology (1993)

Donna Summer - The Donna Summer Anthology (1993)

Track List CD1:

01. Love To Love You Baby [0:03:23.40]
02. Could It Be Magic [0:03:56.43]
03. Try Me, I Know We Can Make It [0:04:47.35]
04. Spring Affair [0:04:02.35]
05. Love's Unkind [0:04:26.27]
06. I Feel Love [0:05:54.38]
07. Once Upon A Time [0:04:00.07]
08. Rumour Has It [0:04:53.73]
09. I Love You [0:04:43.57]
10. Last Dance [0:04:58.15]
11. MacArthur Park [0:06:25.03]
12. Heaven Knows [0:03:54.57]
13. Hot Stuff [0:06:46.18]
14. Bad Girls [0:04:57.05]
15. Dim All The Lights [0:04:24.72]
16. Sunset People [0:06:24.53]

Exact Audio Copy V1.3 from 2. September 2016

EAC extraction logfile from 20. May 2017, 8:37

Donna Summer / The Donna Summer Anthology (CD1)

Used drive : PLEXTOR DVDR PX-716A Adapter: 1 ID: 0

Read mode : Secure
Utilize accurate stream : Yes
Defeat audio cache : Yes
Make use of C2 pointers : No

Read offset correction : 30
Overread into Lead-In and Lead-Out : No
Fill up missing offset samples with silence : Yes
Delete leading and trailing silent blocks : No
Null samples used in CRC calculations : Yes
Used interface : Native Win32 interface for Win NT & 2000

Used output format : User Defined Encoder
Selected bitrate : 1024 kBit/s
Quality : High
Add ID3 tag : No
Command line compressor : C:\Program Files (x86)\Exact Audio Copy\FLAC\FLAC.EXE
Additional command line options : -6 -V -T "ARTIST=%artist%" -T "TITLE=%title%" -T "ALBUM=%albumtitle%" -T "DATE=%year%" -T "TRACKNUMBER=%tracknr%" -T "GENRE=%genre%" -T "COMMENT=%comment%" -T "BAND=%albuminterpret%" -T "ALBUMARTIST=%albuminterpret%" -T "COMPOSER=%composer%" %haslyrics%–tag-from-file=LYRICS="%lyricsfile%"%haslyrics% -T "DISCNUMBER=%cdnumber%" -T "TOTALDISCS=%totalcds%" -T "TOTALTRACKS=%numtracks%" %hascover%–picture="%coverfile%"%hascover% %source% -o %dest%


TOC of the extracted CD

Track | Start | Length | Start sector | End sector
––––––––––––––––––––––––––––-
1 | 0:00.32 | 3:23.40 | 32 | 15296
2 | 3:23.72 | 3:56.43 | 15297 | 33039
3 | 7:20.40 | 4:47.35 | 33040 | 54599
4 | 12:08.00 | 4:02.35 | 54600 | 72784
5 | 16:10.35 | 4:26.27 | 72785 | 92761
6 | 20:36.62 | 5:54.38 | 92762 | 119349
7 | 26:31.25 | 4:00.07 | 119350 | 137356
8 | 30:31.32 | 4:53.73 | 137357 | 159404
9 | 35:25.30 | 4:43.57 | 159405 | 180686
10 | 40:09.12 | 4:58.15 | 180687 | 203051
11 | 45:07.27 | 6:25.03 | 203052 | 231929
12 | 51:32.30 | 3:54.57 | 231930 | 249536
13 | 55:27.12 | 6:46.18 | 249537 | 280004
14 | 62:13.30 | 4:57.05 | 280005 | 302284
15 | 67:10.35 | 4:24.72 | 302285 | 322156
16 | 71:35.32 | 6:24.53 | 322157 | 351009


Range status and errors

Selected range

Filename C:\mm\Donna Summer\1993 - The Anthology [518 144-2]\Donna Summer - The Donna Summer Anthology (CD1).wav

Peak level 100.0 %
Extraction speed 3.8 X
Range quality 100.0 %
Test CRC F2769D71
Copy CRC F2769D71
Copy OK

No errors occurred


AccurateRip summary

Track 1 accurately ripped (confidence 2) [ADF6C0D1] (AR v1)
Track 2 accurately ripped (confidence 2) [48BA2DEB] (AR v1)
Track 3 cannot be verified as accurate (confidence 19) [F2CEF868], AccurateRip returned [9EF370A6] (AR v2)
Track 4 cannot be verified as accurate (confidence 19) [5A8E86A8], AccurateRip returned [9AB6A8DD] (AR v2)
Track 5 accurately ripped (confidence 2) [6C5F9D01] (AR v1)
Track 6 accurately ripped (confidence 2) [6183F785] (AR v1)
Track 7 cannot be verified as accurate (confidence 18) [6E1F6FE1], AccurateRip returned [E4DB121E] (AR v2)
Track 8 cannot be verified as accurate (confidence 18) [2BCFA438], AccurateRip returned [B00ABA8E] (AR v2)
Track 9 cannot be verified as accurate (confidence 20) [70CD967D], AccurateRip returned [692F5ACF] (AR v2)
Track 10 accurately ripped (confidence 2) [BF770E01] (AR v1)
Track 11 accurately ripped (confidence 2) [3642F6D7] (AR v1)
Track 12 cannot be verified as accurate (confidence 19) [4AFEF50D], AccurateRip returned [01FFCCFE] (AR v2)
Track 13 cannot be verified as accurate (confidence 20) [D8B153C1], AccurateRip returned [094BCAA8] (AR v2)
Track 14 accurately ripped (confidence 2) [10387EDA] (AR v1)
Track 15 accurately ripped (confidence 2) [C3791453] (AR v1)
Track 16 accurately ripped (confidence 2) [2456A862] (AR v1)

9 трек(и) скопированы точно
7 трек(и) не удалось проверить на точность

Some tracks could not be verified as accurate

End of status report

–– CUETools DB Plugin V2.1.6

[CTDB TOCID: E.NJmJhcsV.HWHW1pKjThySTvgo-] found
Submit result: already submitted
Track | CTDB Status
1 | (15/16) Accurately ripped
2 | (15/16) Accurately ripped
3 | (16/16) Accurately ripped
4 | (16/16) Accurately ripped
5 | (16/16) Accurately ripped
6 | (16/16) Accurately ripped
7 | (16/16) Accurately ripped
8 | (16/16) Accurately ripped
9 | (16/16) Accurately ripped
10 | (16/16) Accurately ripped
11 | (16/16) Accurately ripped
12 | (16/16) Accurately ripped
13 | (16/16) Accurately ripped
14 | (16/16) Accurately ripped
15 | (16/16) Accurately ripped
16 | (15/16) Accurately ripped

[CUETools log; Date: 21.05.2017 17:50:07; Version: 2.1.5]
Pregap length 00:00:32.
[CTDB TOCID: E.NJmJhcsV.HWHW1pKjThySTvgo-] found.
Track | CTDB Status
1 | (15/16) Accurately ripped
2 | (15/16) Accurately ripped
3 | (16/16) Accurately ripped
4 | (16/16) Accurately ripped
5 | (16/16) Accurately ripped
6 | (16/16) Accurately ripped
7 | (16/16) Accurately ripped
8 | (16/16) Accurately ripped
9 | (16/16) Accurately ripped
10 | (16/16) Accurately ripped
11 | (16/16) Accurately ripped
12 | (16/16) Accurately ripped
13 | (16/16) Accurately ripped
14 | (16/16) Accurately ripped
15 | (16/16) Accurately ripped
16 | (15/16) Accurately ripped
[AccurateRip ID: 002ace2b-020b16f4-d6124810] found.
Track [ CRC | V2 ] Status
01 [adf6c0d1|a6dc271e] (02+00/50) Accurately ripped
02 [48ba2deb|22be3592] (02+00/49) Accurately ripped
03 [21bbe57b|f2cef868] (00+00/46) No match
04 [136aba5d|5a8e86a8] (00+00/44) No match
05 [6c5f9d01|543535d3] (02+00/47) Accurately ripped
06 [6183f785|20316546] (02+00/49) Accurately ripped
07 [9384ebd6|6e1f6fe1] (00+00/44) No match
08 [6a8a141c|2bcfa438] (00+00/44) No match
09 [5e3a16b7|70cd967d] (00+00/46) No match
10 [bf770e01|06e322d6] (02+00/47) Accurately ripped
11 [3642f6d7|b8c5a4e2] (02+00/48) Accurately ripped
12 [1cc06218|4afef50d] (00+00/45) No match
13 [a070f5d0|d8b153c1] (00+00/48) No match
14 [10387eda|e550d905] (02+00/47) Accurately ripped
15 [c3791453|46ef2f02] (02+00/46) Accurately ripped
16 [2456a862|11bb9ca2] (02+00/44) Accurately ripped
Offsetted by -657:
01 [effbef60] (03/50) Accurately ripped
02 [f06cc76b] (03/49) Accurately ripped
03 [ef01102e] (03/46) Accurately ripped
04 [c2452287] (02/44) Accurately ripped
05 [3643cba5] (02/47) Accurately ripped
06 [484ac1e5] (02/49) Accurately ripped
07 [46de186d] (02/44) Accurately ripped
08 [46662919] (02/44) Accurately ripped
09 [9d56da93] (02/46) Accurately ripped
10 [d159c8a6] (02/47) Accurately ripped
11 [9e0417a3] (02/48) Accurately ripped
12 [1042c4db] (03/45) Accurately ripped
13 [270689e2] (03/48) Accurately ripped
14 [611ffa26] (02/47) Accurately ripped
15 [c441b7ce] (02/46) Accurately ripped
16 [c4eb075f] (02/44) Accurately ripped
Offsetted by 681:
01 [ee4a36e3] (19/50) Accurately ripped
02 [01c5706b] (20/49) Accurately ripped
03 [9ef370a6] (19/46) Accurately ripped
04 [9ab6a8dd] (19/44) Accurately ripped
05 [3c6c14fd] (19/47) Accurately ripped
06 [36549d53] (20/49) Accurately ripped
07 [e4db121e] (18/44) Accurately ripped
08 [b00aba8e] (18/44) Accurately ripped
09 [692f5acf] (20/46) Accurately ripped
10 [66c9ff64] (20/47) Accurately ripped
11 [857ae092] (20/48) Accurately ripped
12 [01ffccfe] (19/45) Accurately ripped
13 [094bcaa8] (20/48) Accurately ripped
14 [a875f634] (19/47) Accurately ripped
15 [d7b3a1d0] (19/46) Accurately ripped
16 [ce010731] (18/44) Accurately ripped

Track Peak [ CRC32 ] [W/O NULL] [ LOG ]
– 100,0 [F2769D71] [9BCFF110] CRC32
01 94,3 [217BD519] [87FC5620]
02 95,8 [A37E45F3] [1F2B0225]
03 99,4 [35FF7BDA] [CBCEE211]
04 90,1 [DBC803BC] [A344EE8E]
05 70,7 [C6C3EF9C] [233231BF]
06 88,8 [C43F86BF] [F52C488A]
07 84,1 [D1032DAC] [9B71AD41]
08 75,7 [EB0B71CB] [840F7C00]
09 83,1 [09AA8BE0] [5147075E]
10 100,0 [88AB9D9C] [7FF57170]
11 95,9 [7BB144A7] [7FAAC780]
12 100,0 [3888F40B] [5577C209]
13 84,1 [5CCF2FCB] [EC0BD203]
14 78,4 [9CDEED2B] [BEBC4E2B]
15 95,1 [E35B691A] [CBD5C16F]
16 87,9 [FA72A6C0] [FFB9477A]

Donna Summer - The Donna Summer Anthology (1993)

Donna Summer - The Donna Summer Anthology (1993)

Track List CD2:

01. No More Tears (Enough Is Enough) - Duet With Barbara Streisand [0:04:41.32]
02. On The Radio [0:05:52.28]
03. The Wanderer [0:03:47.25]
04. Cold Love [0:03:40.60]
05. I'm A Rainbow [0:04:07.00]
06. Don't Cry For Me Argentina [0:04:22.35]
07. Love Is In Control (Finger On The Trigger) [0:04:21.27]
08. State Of Independence [0:05:51.53]
09. She Works Hard For The Money [0:05:19.42]
10. Unconditional Love [0:04:43.60]
11. There Goes My Baby [0:04:07.63]
12. Supernatural Love [0:03:36.17]
13. All Systems Go [0:04:12.70]
14. This Time I Know It's For Real [0:03:38.10]
15. I Don't Wanna Get Hurt [0:03:28.65]
16. When Love Cries [0:05:16.10]
17. Friends Unknown [0:03:47.30]
18. Carry On [0:03:41.00]

Exact Audio Copy V1.3 from 2. September 2016

EAC extraction logfile from 20. May 2017, 20:49

Donna Summer / The Donna Summer Anthology (CD2)

Used drive : PLEXTOR DVDR PX-716A Adapter: 1 ID: 0

Read mode : Secure
Utilize accurate stream : Yes
Defeat audio cache : Yes
Make use of C2 pointers : No

Read offset correction : 30
Overread into Lead-In and Lead-Out : No
Fill up missing offset samples with silence : Yes
Delete leading and trailing silent blocks : No
Null samples used in CRC calculations : Yes
Used interface : Native Win32 interface for Win NT & 2000

Used output format : User Defined Encoder
Selected bitrate : 1024 kBit/s
Quality : High
Add ID3 tag : No
Command line compressor : C:\Program Files (x86)\Exact Audio Copy\FLAC\FLAC.EXE
Additional command line options : -6 -V -T "ARTIST=%artist%" -T "TITLE=%title%" -T "ALBUM=%albumtitle%" -T "DATE=%year%" -T "TRACKNUMBER=%tracknr%" -T "GENRE=%genre%" -T "COMMENT=%comment%" -T "BAND=%albuminterpret%" -T "ALBUMARTIST=%albuminterpret%" -T "COMPOSER=%composer%" %haslyrics%–tag-from-file=LYRICS="%lyricsfile%"%haslyrics% -T "DISCNUMBER=%cdnumber%" -T "TOTALDISCS=%totalcds%" -T "TOTALTRACKS=%numtracks%" %hascover%–picture="%coverfile%"%hascover% %source% -o %dest%


TOC of the extracted CD

Track | Start | Length | Start sector | End sector
––––––––––––––––––––––––––––-
1 | 0:00.33 | 4:41.32 | 33 | 21139
2 | 4:41.65 | 5:52.28 | 21140 | 47567
3 | 10:34.18 | 3:47.25 | 47568 | 64617
4 | 14:21.43 | 3:40.60 | 64618 | 81177
5 | 18:02.28 | 4:07.00 | 81178 | 99702
6 | 22:09.28 | 4:22.35 | 99703 | 119387
7 | 26:31.63 | 4:21.27 | 119388 | 138989
8 | 30:53.15 | 5:51.53 | 138990 | 165367
9 | 36:44.68 | 5:19.42 | 165368 | 189334
10 | 42:04.35 | 4:43.60 | 189335 | 210619
11 | 46:48.20 | 4:07.63 | 210620 | 229207
12 | 50:56.08 | 3:36.17 | 229208 | 245424
13 | 54:32.25 | 4:12.70 | 245425 | 264394
14 | 58:45.20 | 3:38.10 | 264395 | 280754
15 | 62:23.30 | 3:28.65 | 280755 | 296419
16 | 65:52.20 | 5:16.10 | 296420 | 320129
17 | 71:08.30 | 3:47.30 | 320130 | 337184
18 | 74:55.60 | 3:41.00 | 337185 | 353759


Range status and errors

Selected range

Filename C:\mm\Donna Summer\1993 - The Anthology [518 144-2]\Donna Summer - The Donna Summer Anthology (CD2).wav

Peak level 100.0 %
Extraction speed 11.7 X
Range quality 100.0 %
Test CRC 684363CD
Copy CRC 684363CD
Copy OK

No errors occurred


AccurateRip summary

Track 1 accurately ripped (confidence 15) [5FC12DE5] (AR v2)
Track 2 accurately ripped (confidence 15) [8AF8CB78] (AR v2)
Track 3 accurately ripped (confidence 15) [358D1B40] (AR v2)
Track 4 accurately ripped (confidence 15) [280A2FBA] (AR v2)
Track 5 accurately ripped (confidence 14) [21042E06] (AR v2)
Track 6 accurately ripped (confidence 15) [5C0DFD84] (AR v2)
Track 7 accurately ripped (confidence 15) [AE9801A9] (AR v2)
Track 8 accurately ripped (confidence 14) [8F67444B] (AR v2)
Track 9 accurately ripped (confidence 14) [882A2A89] (AR v2)
Track 10 accurately ripped (confidence 14) [6A7C7B74] (AR v2)
Track 11 accurately ripped (confidence 14) [2B525F01] (AR v2)
Track 12 accurately ripped (confidence 15) [EC05D1E7] (AR v2)
Track 13 accurately ripped (confidence 15) [40D35837] (AR v2)
Track 14 accurately ripped (confidence 14) [D411AD5B] (AR v2)
Track 15 accurately ripped (confidence 15) [68718078] (AR v2)
Track 16 accurately ripped (confidence 13) [F913C9A9] (AR v2)
Track 17 accurately ripped (confidence 12) [EFD6B945] (AR v2)
Track 18 accurately ripped (confidence 14) [4864FF26] (AR v2)

All tracks accurately ripped

End of status report

–– CUETools DB Plugin V2.1.6

[CTDB TOCID: N_AkJg6ZYQY84UETDv6cwlMydgU-] found
Submit result: N_AkJg6ZYQY84UETDv6cwlMydgU- has been confirmed
Track | CTDB Status
1 | (12/12) Accurately ripped
2 | (12/12) Accurately ripped
3 | (12/12) Accurately ripped
4 | (12/12) Accurately ripped
5 | (12/12) Accurately ripped
6 | (12/12) Accurately ripped
7 | (12/12) Accurately ripped
8 | (12/12) Accurately ripped
9 | (12/12) Accurately ripped
10 | (12/12) Accurately ripped
11 | (12/12) Accurately ripped
12 | (12/12) Accurately ripped
13 | (12/12) Accurately ripped
14 | (12/12) Accurately ripped
15 | (12/12) Accurately ripped
16 | (12/12) Accurately ripped
17 | (12/12) Accurately ripped
18 | (12/12) Accurately ripped

[CUETools log; Date: 21.05.2017 17:58:21; Version: 2.1.5]
Pregap length 00:00:33.
[CTDB TOCID: N_AkJg6ZYQY84UETDv6cwlMydgU-] found.
Track | CTDB Status
1 | (13/13) Accurately ripped
2 | (13/13) Accurately ripped
3 | (13/13) Accurately ripped
4 | (13/13) Accurately ripped
5 | (13/13) Accurately ripped
6 | (13/13) Accurately ripped
7 | (13/13) Accurately ripped
8 | (13/13) Accurately ripped
9 | (13/13) Accurately ripped
10 | (13/13) Accurately ripped
11 | (13/13) Accurately ripped
12 | (13/13) Accurately ripped
13 | (13/13) Accurately ripped
14 | (13/13) Accurately ripped
15 | (13/13) Accurately ripped
16 | (13/13) Accurately ripped
17 | (13/13) Accurately ripped
18 | (13/13) Accurately ripped
[AccurateRip ID: 0034e003-02bcbbdb-0c126c12] found.
Track [ CRC | V2 ] Status
01 [f99c80ec|5fc12de5] (18+15/46) Accurately ripped
02 [1c2308fc|8af8cb78] (21+15/51) Accurately ripped
03 [76905f32|358d1b40] (18+15/47) Accurately ripped
04 [3225caa6|280a2fba] (16+15/45) Accurately ripped
05 [193aa9cb|21042e06] (17+14/45) Accurately ripped
06 [1853bacb|5c0dfd84] (18+15/47) Accurately ripped
07 [abe9e143|ae9801a9] (19+15/49) Accurately ripped
08 [0b0fa441|8f67444b] (18+14/47) Accurately ripped
09 [ba3eb520|882a2a89] (20+14/48) Accurately ripped
10 [1c3fd236|6a7c7b74] (18+14/46) Accurately ripped
11 [7d7a51ac|2b525f01] (17+14/44) Accurately ripped
12 [0967a2d8|ec05d1e7] (18+15/47) Accurately ripped
13 [102df09f|40d35837] (17+15/46) Accurately ripped
14 [295231e9|d411ad5b] (19+14/48) Accurately ripped
15 [4b2a3b19|68718078] (18+15/47) Accurately ripped
16 [7cbc1a0a|f913c9a9] (17+13/44) Accurately ripped
17 [cfd3ba48|efd6b945] (17+12/43) Accurately ripped
18 [914598dd|4864ff26] (15+14/46) Accurately ripped
Offsetted by -664:
01 [73815233] (02/46) Accurately ripped
02 [965c21ee] (02/51) Accurately ripped
03 [ea47488f] (02/47) Accurately ripped
04 [25005ec9] (02/45) Accurately ripped
05 [455150fb] (02/45) Accurately ripped
06 [ef1c5a53] (02/47) Accurately ripped
07 [d6abfcab] (02/49) Accurately ripped
08 [dc9b3631] (02/47) Accurately ripped
09 [e9d330d8] (02/48) Accurately ripped
10 [9ea9fbae] (02/46) Accurately ripped
11 [e0c56aac] (02/44) Accurately ripped
12 [2786a838] (02/47) Accurately ripped
13 [b83e2e9f] (02/46) Accurately ripped
14 [a0dbedc1] (02/48) Accurately ripped
15 [f4705e79] (02/47) Accurately ripped
16 [e644939a] (02/44) Accurately ripped
17 [b64ce599] (02/43) Accurately ripped
18 [b9480e07] (02/46) Accurately ripped
Offsetted by -657:
01 [364bd898] (02/46) Accurately ripped
02 [789c61d8] (02/51) Accurately ripped
03 [2d9a4461] (02/47) Accurately ripped
04 [388257ff] (02/45) Accurately ripped
05 [c2943142] (02/45) Accurately ripped
06 [e5856b26] (02/47) Accurately ripped
07 [697f87f2] (02/49) Accurately ripped
08 [d43a82eb] (02/47) Accurately ripped
09 [4ccb123d] (02/48) Accurately ripped
10 [a815963b] (02/46) Accurately ripped
11 [ecd5340c] (02/44) Accurately ripped
12 [8c9b263c] (02/47) Accurately ripped
13 [536305df] (02/46) Accurately ripped
14 [74085b32] (02/48) Accurately ripped
15 [a39e47bd] (02/47) Accurately ripped
16 [7fc1fb30] (02/44) Accurately ripped
17 [bf810942] (02/43) Accurately ripped
18 [d18e40ea] (02/46) Accurately ripped

Track Peak [ CRC32 ] [W/O NULL] [ LOG ]
– 100,0 [684363CD] [65F4DF1A] CRC32
01 92,6 [10733A98] [8248A687]
02 100,0 [2324E52A] [ACC2CBA4]
03 98,1 [F05147DB] [5C010192]
04 96,3 [D8139EB9] [F7B2AE96]
05 83,1 [24FFCE6E] [54776084]
06 91,1 [C712FA30] [C8FD262C]
07 93,5 [579D2BF1] [F2CFE605]
08 81,0 [6A360DCE] [A04BFE2F]
09 89,1 [B35AF64A] [F96D649C]
10 89,9 [5BE13639] [01EF2FF7]
11 100,0 [471D74B6] [52A4DF02]
12 95,1 [8BE44405] [04AFEE94]
13 73,4 [9576C505] [41EB4C15]
14 100,0 [755E0563] [37D4C777]
15 77,5 [7FCEC53E] [6E914648]
16 89,1 [32C68A8D] [125DE4F3]
17 99,1 [4B911A6D] [32CBD6CC]
18 89,1 [F5ACD72F] [84659C89]

Donna Summer - The Donna Summer Anthology (1993)


All thanks go to sergych

>>> Donna Summer in my Blog <<<

DOWNLOAD: