Tags
Language
Tags

Doom Side Of The Moon - Doom Side Of The Moon (2017)

Posted By: popsakov
Doom Side Of The Moon - Doom Side Of The Moon (2017)

Doom Side Of The Moon - Doom Side Of The Moon (2017)
EAC Rip | FLAC (Img) + Cue + Log ~ 253 Mb | Scans Included | RAR 5% Recovery
Doom Metal / Stoner Rock / Classic Rock / Psychedelic Rock
Music Theories Recordings #MTR75412 | RU | Unofficial Release

A doomy stoner metal Pink Floyd tribute project spearheaded by Austin, Texas-based Sword guitarist Kyle Shutt, the aptly named Doom Side of the Moon began in early 2017 as a salute to the 50th anniversary of the legendary English psych/classic rock outfit. Comprising Shutt, fellow Sword-mates bassist Bryan Richie and drummer Santiago Vela III, vocalist Alex Marrero (Brownout, Brown Sabbath), saxophonist Jason Frey (Black Joe Lewis, Hard Proof), and keyboardist Joe Cornetti (Croy & the Boys), the band released its eponymous debut, a complete reworking of Pink Floyd's seminal 1973 classic Dark Side of the Moon, in August 2017.
~ James Christopher Monger, All Music

***************

Doom Side Of The Moon - Doom Side Of The Moon (2017)

Track List:

01. Speak to Me [1:10]
02. Breathe (In the Air) [3:53]
03. On the Run [3:06]
04. Time [6:03]
05. Great Gig in the Sky [3:17]
06. Money [5:33]
07. Us and Them [7:24]
08. Any Colour You Like [1:58]
09. Brain Damage [4:06]
10. Eclipse [2:02]

Personnel:
Bass, Synth – Bryan Richie
Drums, Percussion – Santiago Vela III
Keyboards, Synth – Joe Cornetti
Producer, Guitar – Kyle Shutt
Saxophone – Jason Frey
Vocals – Alex Marrero

Exact Audio Copy V1.1 from 23. June 2015

EAC extraction logfile from 23. December 2017, 23:40

Doom Side of the Moon / Doom Side Of The Moon

Used drive : TSSTcorpDVDWBD SH-B123L Adapter: 0 ID: 4

Read mode : Secure
Utilize accurate stream : Yes
Defeat audio cache : Yes
Make use of C2 pointers : No

Read offset correction : 6
Overread into Lead-In and Lead-Out : No
Fill up missing offset samples with silence : Yes
Delete leading and trailing silent blocks : No
Null samples used in CRC calculations : Yes
Used interface : Installed external ASPI interface

Used output format : User Defined Encoder
Selected bitrate : 768 kBit/s
Quality : High
Add ID3 tag : No
Command line compressor : C:\Program Files (x86)\Exact Audio Copy\FLAC\FLAC.EXE
Additional command line options : -6 -V -T "ARTIST=%artist%" -T "TITLE=%title%" -T "ALBUM=%albumtitle%" -T "DATE=%year%" -T "TRACKNUMBER=%tracknr%" -T "GENRE=%genre%" -T "COMMENT=%comment%" -T "BAND=%albuminterpret%" -T "ALBUMARTIST=%albuminterpret%" -T "COMPOSER=%composer%" %haslyrics%–tag-from-file=LYRICS="%lyricsfile%"%haslyrics% -T "DISCNUMBER=%cdnumber%" -T "TOTALDISCS=%totalcds%" -T "TOTALTRACKS=%numtracks%" %hascover%–picture="%coverfile%"%hascover% %source% -o %dest%


TOC of the extracted CD

Track | Start | Length | Start sector | End sector
––––––––––––––––––––––––––––-
1 | 0:00.00 | 1:10.06 | 0 | 5255
2 | 1:10.06 | 3:52.51 | 5256 | 22706
3 | 5:02.57 | 3:05.57 | 22707 | 36638
4 | 8:08.39 | 6:03.14 | 36639 | 63877
5 | 14:11.53 | 3:17.18 | 63878 | 78670
6 | 17:28.71 | 5:32.47 | 78671 | 103617
7 | 23:01.43 | 7:23.41 | 103618 | 136883
8 | 30:25.09 | 1:57.64 | 136884 | 145722
9 | 32:22.73 | 4:06.02 | 145723 | 164174
10 | 36:29.00 | 2:02.02 | 164175 | 173326


Range status and errors

Selected range

Filename E:\MUSIC\Doom Side of the Moon - Doom Side Of The Moon.wav

Peak level 100.0 %
Extraction speed 3.3 X
Range quality 100.0 %
Test CRC 744FA5E4
Copy CRC 744FA5E4
Copy OK

No errors occurred


AccurateRip summary

Track 1 cannot be verified as accurate (confidence 1) [11CBD896], AccurateRip returned [76E16F9E] (AR v2)
Track 2 cannot be verified as accurate (confidence 1) [0202607E], AccurateRip returned [3D2FEFD0] (AR v2)
Track 3 cannot be verified as accurate (confidence 1) [458F3365], AccurateRip returned [A61F57BD] (AR v2)
Track 4 cannot be verified as accurate (confidence 1) [C9DD7B6E], AccurateRip returned [D7574D7D] (AR v2)
Track 5 cannot be verified as accurate (confidence 1) [2BD91B11], AccurateRip returned [DE411DD9] (AR v2)
Track 6 cannot be verified as accurate (confidence 1) [89E91B09], AccurateRip returned [8E9CD917] (AR v2)
Track 7 cannot be verified as accurate (confidence 1) [E4AF39BD], AccurateRip returned [A80B8444] (AR v2)
Track 8 cannot be verified as accurate (confidence 1) [36FAB353], AccurateRip returned [90C01DEE] (AR v2)
Track 9 cannot be verified as accurate (confidence 1) [5DF16316], AccurateRip returned [7BE8F3D2] (AR v2)
Track 10 cannot be verified as accurate (confidence 1) [D183614C], AccurateRip returned [C739670C] (AR v2)

No tracks could be verified as accurate
You may have a different pressing from the one(s) in the database

End of status report

==== Log checksum FD8C98EE5007CEB4DFE4425EACE03267F015D205C371C0D8C1761A3D56FB7BF4 ====

foobar2000 1.3.16 / Dynamic Range Meter 1.1.1
log date: 2018-01-02 07:25:36

––––––––––––––––––––––––––––––––––––––––
Analyzed: Doom Side of the Moon / Doom Side Of The Moon
––––––––––––––––––––––––––––––––––––––––

DR Peak RMS Duration Track
––––––––––––––––––––––––––––––––––––––––
DR11 -1.40 dB -16.39 dB 1:10 01-Speak to Me
DR7 -0.07 dB -11.43 dB 3:53 02-Breathe (In the Air)
DR7 0.00 dB -10.51 dB 3:06 03-On the Run
DR6 0.00 dB -7.64 dB 6:03 04-Time
DR6 0.00 dB -10.70 dB 3:17 05-Great Gig in the Sky
DR6 0.00 dB -7.12 dB 5:33 06-Money
DR6 -0.04 dB -10.65 dB 7:24 07-Us and Them
DR7 0.00 dB -8.69 dB 1:58 08-Any Colour You Like
DR7 -0.09 dB -8.47 dB 4:06 09-Brain Damage
DR6 0.00 dB -7.98 dB 2:02 10-Eclipse
––––––––––––––––––––––––––––––––––––––––

Number of tracks: 10
Official DR value: DR7

Samplerate: 44100 Hz
Channels: 2
Bits per sample: 16
Bitrate: 860 kbps
Codec: FLAC
================================================================================

[CUETools log; Date: 02.01.2018 7:14:39; Version: 2.1.5]
[CTDB TOCID: Z3RtQ8Lw9Mu_uDvhmBHhWMYB2rQ-] found.
Track | CTDB Status
1 | (6/6) Accurately ripped
2 | (6/6) Accurately ripped
3 | (6/6) Accurately ripped
4 | (6/6) Accurately ripped
5 | (6/6) Accurately ripped
6 | (6/6) Accurately ripped
7 | (6/6) Accurately ripped
8 | (6/6) Accurately ripped
9 | (6/6) Accurately ripped
10 | (6/6) Accurately ripped
[AccurateRip ID: 000e343e-007571da-7509070a] found.
Track [ CRC | V2 ] Status
01 [753677d9|11cbd896] (0+0/1) No match
02 [eacdf259|0202607e] (0+0/1) No match
03 [c6da9d50|458f3365] (0+0/1) No match
04 [a93871b2|c9dd7b6e] (0+0/1) No match
05 [0f53b0b0|2bd91b11] (0+0/1) No match
06 [5fea84d5|89e91b09] (0+0/1) No match
07 [4d443e9c|e4af39bd] (0+0/1) No match
08 [5ec8f63e|36fab353] (0+0/1) No match
09 [ad514864|5df16316] (0+0/1) No match
10 [6368c850|d183614c] (0+0/1) No match
Offsetted by 6:
01 [dad7d561] (0/1) No match (V2 was not tested)
02 [24486b5f] (0/1) No match (V2 was not tested)
03 [28cb1454] (0/1) No match (V2 was not tested)
04 [b983d435] (0/1) No match (V2 was not tested)
05 [c2c65b6d] (0/1) No match (V2 was not tested)
06 [6720ed5d] (0/1) No match (V2 was not tested)
07 [138b10fc] (0/1) No match (V2 was not tested)
08 [b7ccb413] (0/1) No match (V2 was not tested)
09 [c9e3ea58] (0/1) No match (V2 was not tested)
10 [591d6ef9] (0/1) No match (V2 was not tested)

Track Peak [ CRC32 ] [W/O NULL] [ LOG ]
– 100,0 [744FA5E4] [D92FE80C] CRC32
01 85,1 [FCE2844B] [6F9502D4]
02 99,2 [B64ED542] [5602A719]
03 100,0 [B77CF927] [5ECC4EA2]
04 100,0 [240E3036] [6F70F188]
05 99,9 [8F4EC6D6] [D0C40D47]
06 99,9 [0DCE3051] [0C55D848]
07 99,5 [F8B3E3C4] [4D2CCE4C]
08 100,0 [381CD102] [107EF675]
09 98,9 [8B15A306] [93400EB4]
10 100,0 [0DFABD6C] [7BBFEF83]

Doom Side Of The Moon - Doom Side Of The Moon (2017)

All thanks go to HaRD

>>> My Blog <<<

Download from icerbox.com: