Subcategories

Dorothee Oberlinger - Peripheries: Contemporary and Medieval Music for the Recorder (2004)

Posted By: tirexiss
Dorothee Oberlinger - Peripheries: Contemporary and Medieval Music for the Recorder (2004)

Dorothee Oberlinger - Peripheries: Contemporary and Medieval Music for the Recorder (2004)
EAC | FLAC (image+.cue, log) | Covers Included | 58:23 | 366 MB
Genre: Classical | Label: Raumklang | Catalog: 20011

Viele Komponisten der heutigen Zeit erweisen in ihren Kompositionen Werken der Alten Musik ihre Referenz. Auf der vorliegenden CD wird dies beispielhaft an Werken von Dorothée Hahne, Karin Rehnquist, Joep Straesser, Moritz Eggert, Louis Andriessen, Gabriel Ortiz, Seichi Inagaky und Maki Ishii. "Perìpheries Randbezirke so lautet der Titel meiner CD. Als Blockflötistin widme ich mich vor allem den Randbezirken der Musikgeschichte, also ganz neuer und ganz alter Musik. In den hier gewählten modernen Werken greifen Komponisten auf die archaische Flöte zurück. Es offenbart sich eine Sehnsucht nach dem Alten Klang und die Suche nach den individuellen Traditionen der Musik. Dieser Bezug ist in allen hier zusammengestellten Kompositionen zu finden. Dabei entsteht ein Zusammenhang ( und kein Gegensatz) zwischen Altem und Neuem, Weltlichem und Geistlichem, Europäischem und Aussereuropäischem". Dorothee Oberlinger

Dorothee Oberlinger - Peripheries: Contemporary and Medieval Music for the Recorder (2004)

Track List:

1. Hildegard von Bingen: O Ecclesia Free sequence to St. Ursula 6:15
Dorothée Hahne:
2. Commentari I (1999) 6:18
3. Commentari III (2000) 5:51
4. Traditional: Una Matica de Ruda Traditional sephardic 3:16
5. Karin Rehnqvist: Lod (1986) 7:20
6. Thibaut de Champagne: Commençerai à faire un lai 5:05
7. Maki Ishii: Black intention (1975) 10:00
8. Seiichi Inagaki: Mai (2000) 4:54
9. Moritz Eggert: Ausser Atem (1994) 7:00
10. Traditional: Een denso utumo Improvisation on an old Japanese folk song 2:24

Performers:
Dorothee Oberlinger (Blockflöten)
Maria Jonas (Drehleier)
Stephan Rath (Erzlaute)
Elisabeth Wand (Violoncello)
Tom Daun (Harfe)

Exact Audio Copy V1.3 from 2. September 2016

EAC extraction logfile from 9. October 2019, 11:32

Dorothee Oberlinger / Peripheries

Used drive : HL-DT-STBD-RE WH16NS40 Adapter: 1 ID: 0

Read mode : Secure
Utilize accurate stream : Yes
Defeat audio cache : Yes
Make use of C2 pointers : No

Read offset correction : 6
Overread into Lead-In and Lead-Out : No
Fill up missing offset samples with silence : Yes
Delete leading and trailing silent blocks : No
Null samples used in CRC calculations : Yes
Used interface : Native Win32 interface for Win NT & 2000

Used output format : User Defined Encoder
Selected bitrate : 1024 kBit/s
Quality : High
Add ID3 tag : No
Command line compressor : C:\Program Files (x86)\Exact Audio Copy\FLAC\FLAC.EXE
Additional command line options : -6 -V -T "ARTIST=%artist%" -T "TITLE=%title%" -T "ALBUM=%albumtitle%" -T "DATE=%year%" -T "TRACKNUMBER=%tracknr%" -T "GENRE=%genre%" -T "COMMENT=%comment%" -T "BAND=%albuminterpret%" -T "ALBUMARTIST=%albuminterpret%" -T "COMPOSER=%composer%" %haslyrics%–tag-from-file=LYRICS="%lyricsfile%"%haslyrics% -T "DISCNUMBER=%cdnumber%" -T "TOTALDISCS=%totalcds%" -T "TOTALTRACKS=%numtracks%" %hascover%–picture="%coverfile%"%hascover% %source% -o %dest%


TOC of the extracted CD

Track | Start | Length | Start sector | End sector
––––––––––––––––––––––––––––-
1 | 0:00.00 | 7:48.50 | 0 | 35149
2 | 7:48.50 | 6:17.10 | 35150 | 63434
3 | 14:05.60 | 5:57.60 | 63435 | 90269
4 | 20:03.45 | 3:23.40 | 90270 | 105534
5 | 23:27.10 | 7:25.22 | 105535 | 138931
6 | 30:52.32 | 5:11.20 | 138932 | 162276
7 | 36:03.52 | 10:02.10 | 162277 | 207436
8 | 46:05.62 | 4:55.60 | 207437 | 229621
9 | 51:01.47 | 7:07.15 | 229622 | 261661
10 | 58:08.62 | 2:25.23 | 261662 | 272559


Range status and errors

Selected range

Filename C:\Users\Grant\Desktop\Dorothee Oberlinger - Peripheries.wav

Peak level 99.9 %
Extraction speed 7.5 X
Range quality 100.0 %
Test CRC BAAC02E1
Copy CRC BAAC02E1
Copy OK

No errors occurred


AccurateRip summary

Track 1 accurately ripped (confidence 2) [7DDD483C] (AR v2)
Track 2 accurately ripped (confidence 2) [8B966740] (AR v2)
Track 3 accurately ripped (confidence 2) [A720FE99] (AR v2)
Track 4 accurately ripped (confidence 2) [A6FF7490] (AR v2)
Track 5 accurately ripped (confidence 2) [28558B63] (AR v2)
Track 6 accurately ripped (confidence 2) [EBC6D42B] (AR v2)
Track 7 accurately ripped (confidence 2) [939BA95C] (AR v1)
Track 8 accurately ripped (confidence 2) [DBC2D7C0] (AR v1)
Track 9 accurately ripped (confidence 2) [A7D5A9B4] (AR v1)
Track 10 accurately ripped (confidence 2) [F18D2431] (AR v1)

All tracks accurately ripped

End of status report

–– CUETools DB Plugin V2.1.6

[CTDB TOCID: ulZ6FYs6P6RCuMTfNKncn.tueTs-] found
Submit result: ulZ6FYs6P6RCuMTfNKncn.tueTs- has been confirmed
Track | CTDB Status
1 | (6/7) Accurately ripped
2 | (7/7) Accurately ripped
3 | (7/7) Accurately ripped
4 | (7/7) Accurately ripped
5 | (7/7) Accurately ripped
6 | (7/7) Accurately ripped
7 | (7/7) Accurately ripped
8 | (7/7) Accurately ripped
9 | (7/7) Accurately ripped
10 | (7/7) Accurately ripped


==== Log checksum 056E73CFD7D99FE5941B2549DF80784412B57399B7DE06B25BB3073D635801F2 ====

Thanks to the Original ripper (unknown)!

Welcome to my blog!

Download: