Subcategories
Tags
Language
Tags

Dr. John - Dr. John's Gumbo (1972) [Reissue 1990]

Posted By: gribovar
Dr. John - Dr. John's Gumbo (1972) [Reissue 1990]

Dr. John - Dr. John's Gumbo (1972) [Reissue 1990]
EAC Rip | FLAC (image+.cue+log) - 248 MB | MP3 CBR 320 kbps (LAME 3.93) - 101 MB | Covers (7 MB) included
Genre: Blues, R&B, Funk, Rock & Roll | RAR 3% Rec. | Label: Atco Records (7006-2)

Dr. John's Gumbo bridged the gap between post-hippie rock and early rock & roll, blues, and R&B, offering a selection of classic New Orleans R&B, including "Tipitina" and "Junko Partner," updated with a gritty, funky beat. There aren't as many psychedelic flourishes as there were on his first two albums, but the ones that are present enhance his sweeping vision of American roots music. And that sly fusion of styles makes Dr. John's Gumbo one of Dr. John's finest albums.
Tracklist:
01. Iko Iko
02. Blow Wind Blow
03. Big Chief
04. Somebody Changed the Lock
05. Mess Around
06. Let the Good Times Roll
07. Junko Partner
08. Stack-A-Lee
09. Tipitina
10. Those Lonely Lonely Nights
11. Huey Smith Medley:
a. High Blood Pressure
b. Don't You Just Know It
c. Well I'll Be John Brown
12. Little Liza Jane

Total time: 39:50

Exact Audio Copy V1.5 from 20. February 2020

EAC extraction logfile from 10. November 2020, 21:39

Dr. John / Dr. John’s Gumbo

Used drive : SlimtypeDVD A DS8A5SH Adapter: 1 ID: 0

Read mode : Secure
Utilize accurate stream : Yes
Defeat audio cache : Yes
Make use of C2 pointers : No

Read offset correction : 6
Overread into Lead-In and Lead-Out : No
Fill up missing offset samples with silence : Yes
Delete leading and trailing silent blocks : No
Null samples used in CRC calculations : Yes
Used interface : Native Win32 interface for Win NT & 2000

Used output format : Internal WAV Routines
Sample format : 44.100 Hz; 16 Bit; Stereo


TOC of the extracted CD

Track | Start | Length | Start sector | End sector
––––––––––––––––––––––––––––-
1 | 0:00.32 | 4:15.00 | 32 | 19156
2 | 4:15.32 | 3:14.38 | 19157 | 33744
3 | 7:29.70 | 3:26.12 | 33745 | 49206
4 | 10:56.07 | 2:43.25 | 49207 | 61456
5 | 13:39.32 | 3:13.00 | 61457 | 75931
6 | 16:52.32 | 3:57.38 | 75932 | 93744
7 | 20:49.70 | 4:30.02 | 93745 | 113996
8 | 25:19.72 | 3:29.05 | 113997 | 129676
9 | 28:49.02 | 2:09.30 | 129677 | 139381
10 | 30:58.32 | 2:32.33 | 139382 | 150814
11 | 33:30.65 | 3:18.65 | 150815 | 165729
12 | 36:49.55 | 3:00.17 | 165730 | 179246


Range status and errors

Selected range

Filename D:\Music\WAV\Dr. John - Dr. John’s Gumbo.wav

Peak level 97.7 %
Extraction speed 1.6 X
Range quality 100.0 %
Test CRC CBE71380
Copy CRC CBE71380
Copy OK

No errors occurred


AccurateRip summary

Track 1 accurately ripped (confidence 43) [66B13178] (AR v2)
Track 2 accurately ripped (confidence 43) [E7DC23AB] (AR v2)
Track 3 accurately ripped (confidence 43) [06E21228] (AR v2)
Track 4 accurately ripped (confidence 43) [F2DFBDC6] (AR v2)
Track 5 accurately ripped (confidence 43) [16865277] (AR v2)
Track 6 accurately ripped (confidence 42) [28F8D725] (AR v2)
Track 7 accurately ripped (confidence 44) [9CFE3655] (AR v2)
Track 8 accurately ripped (confidence 43) [E9D70858] (AR v2)
Track 9 accurately ripped (confidence 42) [016E35FE] (AR v2)
Track 10 accurately ripped (confidence 42) [9DE63B74] (AR v2)
Track 11 accurately ripped (confidence 42) [B951D6AF] (AR v2)
Track 12 accurately ripped (confidence 41) [6DD4DE27] (AR v2)

All tracks accurately ripped

End of status report

==== Log checksum A75E16F8034D46A95252899B9E388A6F9FC09ADDF422EECFD9E3203EDCA13B14 ====

[CUETools log; Date: 01.12.2020 3:14:31; Version: 2.1.4]
Pregap length 00:00:32.
[CTDB TOCID: vsQO4QIqAf6Ed.Im6uPOQ2bsfyI-] found.
Track | CTDB Status
1 | (117/121) Accurately ripped
2 | (117/121) Accurately ripped, or (1/121) differs in 48 samples @00:00:30-00:00:31
3 | (118/121) Accurately ripped
4 | (117/121) Accurately ripped
5 | (120/121) Accurately ripped
6 | (118/121) Accurately ripped
7 | (118/121) Accurately ripped
8 | (118/121) Accurately ripped
9 | (117/121) Accurately ripped
10 | (116/121) Accurately ripped, or (1/121) differs in 6 samples @00:22:10
11 | (119/121) Accurately ripped, or (1/121) differs in 6 samples @01:38:64
12 | (114/121) Accurately ripped
[AccurateRip ID: 00127edb-00aafeb6-7609550c] found.
Track [ CRC | V2 ] Status
01 [23da6870|66b13178] (017+043/113) Accurately ripped
02 [06bdb535|e7dc23ab] (017+043/113) Accurately ripped
03 [15e68e92|06e21228] (018+043/115) Accurately ripped
04 [98365a2a|f2dfbdc6] (017+043/115) Accurately ripped
05 [214f60b9|16865277] (017+043/115) Accurately ripped
06 [4a211d95|28f8d725] (018+042/114) Accurately ripped
07 [737ec135|9cfe3655] (019+044/118) Accurately ripped
08 [4d361b2f|e9d70858] (019+043/117) Accurately ripped
09 [3caa9c39|016e35fe] (017+042/113) Accurately ripped
10 [bb38af23|9de63b74] (018+042/114) Accurately ripped
11 [8788b421|b951d6af] (018+042/113) Accurately ripped
12 [5b24ebc6|6dd4de27] (018+041/113) Accurately ripped
Offsetted by -633:
01 [2a88266c] (002/113) Accurately ripped
02 [80beb59d] (002/113) Accurately ripped
03 [f956393e] (002/115) Accurately ripped
04 [264597cd] (002/115) Accurately ripped
05 [837b9977] (002/115) Accurately ripped
06 [0ad0b267] (002/114) Accurately ripped
07 [58448b60] (002/118) Accurately ripped
08 [5cf6711f] (002/117) Accurately ripped
09 [37ba42fe] (002/113) Accurately ripped
10 [ffd7f67b] (002/114) Accurately ripped
11 [1c14c3bc] (002/113) Accurately ripped
12 [ab90faf7] (002/113) Accurately ripped
Offsetted by -541:
01 [9657fe44] (012/113) Accurately ripped
02 [9f09c2a9] (012/113) Accurately ripped
03 [d3d528ee] (014/115) Accurately ripped
04 [f5b84199] (014/115) Accurately ripped
05 [e5a4e4ef] (014/115) Accurately ripped
06 [1ae4792f] (014/114) Accurately ripped
07 [8579e54c] (014/118) Accurately ripped
08 [05570cdf] (014/117) Accurately ripped
09 [b76f30d2] (013/113) Accurately ripped
10 [39011ddb] (013/114) Accurately ripped
11 [e4ec9768] (012/113) Accurately ripped
12 [74175052] (013/113) Accurately ripped
Offsetted by 1145:
01 [e45ee8ab] (005/113) Accurately ripped
02 [2bc2a28e] (005/113) Accurately ripped
03 [d10ccbe6] (005/115) Accurately ripped
04 [fbf32687] (005/115) Accurately ripped
05 [9ea4cbfb] (005/115) Accurately ripped
06 [ab43c4c3] (005/114) Accurately ripped
07 [3c67710a] (005/118) Accurately ripped
08 [db62e53f] (005/117) Accurately ripped
09 [13739b74] (005/113) Accurately ripped
10 [0dc137cb] (005/114) Accurately ripped
11 [93813e86] (005/113) Accurately ripped
12 [f9c32656] (005/113) Accurately ripped

Track Peak [ CRC32 ] [W/O NULL] [ LOG ]
– 97,7 [CBE71380] [2943DE25] CRC32
01 87,1 [2D75651F] [38C7AAC7]
02 80,8 [BF2BC983] [AE818E75]
03 79,6 [CB509AE6] [C2DE0FE8]
04 84,1 [5F017AC6] [ED65737C]
05 97,7 [386AE5B0] [7E80CEDD]
06 97,7 [387D13E9] [7B79CDD7]
07 97,7 [CDA03B5C] [80EF1E4A]
08 97,7 [A7E2B184] [EACDF6F7]
09 91,0 [B7C9CA2C] [4A1984EC]
10 97,7 [EF2E6B27] [98A6A366]
11 97,7 [7B20EF6B] [B0505229]
12 97,7 [7E25D173] [A3262CA1]

Thanks to Leshi067

See also:
Dr. John - Anutha Zone (1998)
Dr. John - Creole Moon (2001)
Dr. John - Locked Down (2012)