Subcategories
Tags
Language
Tags

Dr. John - Goin' Back to New Orleans (1992)

Posted By: gribovar
Dr. John - Goin' Back to New Orleans (1992)

Dr. John - Goin' Back to New Orleans (1992)
EAC Rip | FLAC (image+.cue+log) - 423 MB | MP3 CBR 320 kbps (LAME 3.93) - 165 MB | Covers (9 MB) included
Genre: Blues, R&B, Funk, Soul, Jazz | RAR 3% Rec. | Label: Warner Bros. Records (7599-26940-2)

Having cut an album of standards on his first Warner Brothers album, In a Sentimental Mood (1989), Dr. John turned for its follow-up to a collection of New Orleans standards. On an album he described in the liner notes as "a little history of New Orleans music," Dr. John returned to his hometown and set up shop at local Ultrasonic Studios, inviting in such local musicians as Pete Fountain, Al Hirt, and the Neville Brothers and addressing the music and styles of such local legends as Jelly Roll Morton, Huey "Piano" Smith, Fats Domino, James Booker, and Professor Longhair. The geography may have been circumscribed, but the stylistic range was extensive, from jazz and blues to folk and rock. And it was all played with festive conviction - Dr. John is the perfect archivist for the music, being one of its primary proponents, yet he had never addressed it quite as directly as he did here.
Tracklist:
01. Litanie des Saints
02. Careless Love
03. My Indian Red
04. Milneburg Joys
05. I Thought I Heard Buddy Bolden Say
06. Basin Street Blues
07. Didn't He Ramble
08. Do You Call That a Buddy?
09. How Come My Dog Don't Bark (When You Come Around)
10. Good Night, Irene
11. Fess Up
12. Since I Fell for You
13. I'll Be Glad When You're Dead, You Rascal You
14. Cabbage Head
15. Goin' Home Tomorrow
16. Blue Monday
17. Scald Dog
18. Goin' Back to New Orleans

Total time: 01:06:23

Exact Audio Copy V1.5 from 20. February 2020

EAC extraction logfile from 9. November 2020, 21:53

Dr. John / Goin' Back to New Orleans

Used drive : SlimtypeDVD A DS8A5SH Adapter: 1 ID: 0

Read mode : Secure
Utilize accurate stream : Yes
Defeat audio cache : Yes
Make use of C2 pointers : No

Read offset correction : 6
Overread into Lead-In and Lead-Out : No
Fill up missing offset samples with silence : Yes
Delete leading and trailing silent blocks : No
Null samples used in CRC calculations : Yes
Used interface : Native Win32 interface for Win NT & 2000

Used output format : Internal WAV Routines
Sample format : 44.100 Hz; 16 Bit; Stereo


TOC of the extracted CD

Track | Start | Length | Start sector | End sector
––––––––––––––––––––––––––––-
1 | 0:00.00 | 4:45.32 | 0 | 21406
2 | 4:45.32 | 4:10.30 | 21407 | 40186
3 | 8:55.62 | 4:47.50 | 40187 | 61761
4 | 13:43.37 | 2:39.33 | 61762 | 73719
5 | 16:22.70 | 2:29.40 | 73720 | 84934
6 | 18:52.35 | 4:27.22 | 84935 | 104981
7 | 23:19.57 | 3:28.23 | 104982 | 120604
8 | 26:48.05 | 3:54.50 | 120605 | 138204
9 | 30:42.55 | 4:09.47 | 138205 | 156926
10 | 34:52.27 | 4:10.53 | 156927 | 175729
11 | 39:03.05 | 3:12.45 | 175730 | 190174
12 | 42:15.50 | 3:31.72 | 190175 | 206071
13 | 45:47.47 | 3:25.53 | 206072 | 221499
14 | 49:13.25 | 3:59.22 | 221500 | 239446
15 | 53:12.47 | 3:01.38 | 239447 | 253059
16 | 56:14.10 | 3:01.25 | 253060 | 266659
17 | 59:15.35 | 2:58.20 | 266660 | 280029
18 | 62:13.55 | 4:09.52 | 280030 | 298756


Range status and errors

Selected range

Filename D:\Music\WAV\Dr. John - Goin' Back to New Orleans.wav

Peak level 100.0 %
Extraction speed 3.3 X
Range quality 100.0 %
Test CRC 9E153C0E
Copy CRC 9E153C0E
Copy OK

No errors occurred


AccurateRip summary

Track 1 accurately ripped (confidence 130) [17A3B6A1] (AR v2)
Track 2 accurately ripped (confidence 132) [8F4BDD29] (AR v2)
Track 3 accurately ripped (confidence 132) [6D97CCC7] (AR v2)
Track 4 accurately ripped (confidence 132) [CC68D8BA] (AR v2)
Track 5 accurately ripped (confidence 132) [E2D0DCAC] (AR v2)
Track 6 accurately ripped (confidence 131) [68E08EE3] (AR v2)
Track 7 accurately ripped (confidence 131) [F4E8BEA9] (AR v2)
Track 8 accurately ripped (confidence 131) [9A4E48BD] (AR v2)
Track 9 accurately ripped (confidence 132) [C8DB3DFC] (AR v2)
Track 10 accurately ripped (confidence 131) [7DCCCB1B] (AR v2)
Track 11 accurately ripped (confidence 131) [1772DBE0] (AR v2)
Track 12 accurately ripped (confidence 131) [DFE1BD1B] (AR v2)
Track 13 accurately ripped (confidence 131) [91B223F6] (AR v2)
Track 14 accurately ripped (confidence 133) [C7915FE8] (AR v2)
Track 15 accurately ripped (confidence 132) [EB13F184] (AR v2)
Track 16 accurately ripped (confidence 131) [FB192F31] (AR v2)
Track 17 accurately ripped (confidence 130) [2D0A92AF] (AR v2)
Track 18 accurately ripped (confidence 126) [574E29C7] (AR v2)

All tracks accurately ripped

End of status report

==== Log checksum 279E731E303C9687313EF57F185FA7F75AA3716D39ECCFB4132B5A8112D2DD66 ====

[CUETools log; Date: 01.12.2020 4:25:58; Version: 2.1.4]
[CTDB TOCID: fqzw9p7H8f0u9QZM9pOp1cTX_Fk-] found.
Track | CTDB Status
1 | (231/236) Accurately ripped
2 | (233/236) Accurately ripped
3 | (231/236) Accurately ripped
4 | (232/236) Accurately ripped
5 | (232/236) Accurately ripped
6 | (231/236) Accurately ripped
7 | (229/236) Accurately ripped
8 | (232/236) Accurately ripped
9 | (231/236) Accurately ripped
10 | (231/236) Accurately ripped
11 | (231/236) Accurately ripped
12 | (232/236) Accurately ripped
13 | (231/236) Accurately ripped
14 | (232/236) Accurately ripped
15 | (231/236) Accurately ripped
16 | (231/236) Accurately ripped
17 | (231/236) Accurately ripped
18 | (228/236) Accurately ripped
[AccurateRip ID: 002cc591-024e5269-120f8f12] found.
Track [ CRC | V2 ] Status
01 [1863270d|17a3b6a1] (068+130/212) Accurately ripped
02 [d6f7a02c|8f4bdd29] (068+132/214) Accurately ripped
03 [5e5de389|6d97ccc7] (068+132/214) Accurately ripped
04 [a0d5fece|cc68d8ba] (069+132/215) Accurately ripped
05 [627f7370|e2d0dcac] (068+132/215) Accurately ripped
06 [d3c7acab|68e08ee3] (069+131/215) Accurately ripped
07 [d3fbfd61|f4e8bea9] (066+131/211) Accurately ripped
08 [79a9711d|9a4e48bd] (067+131/213) Accurately ripped
09 [0aeea44a|c8db3dfc] (068+132/215) Accurately ripped
10 [4a94de67|7dcccb1b] (066+131/212) Accurately ripped
11 [84e95591|1772dbe0] (067+131/212) Accurately ripped
12 [f6f9e7ac|dfe1bd1b] (067+131/212) Accurately ripped
13 [549c4d4c|91b223f6] (066+131/212) Accurately ripped
14 [eb1e0c22|c7915fe8] (067+133/215) Accurately ripped
15 [2f27a309|eb13f184] (068+132/215) Accurately ripped
16 [00c17148|fb192f31] (066+131/212) Accurately ripped
17 [0bb8526f|2d0a92af] (065+130/210) Accurately ripped
18 [a1387316|574e29c7] (064+126/205) Accurately ripped
Offsetted by -664:
01 [262b4a6d] (000/212) No match (V2 was not tested)
02 [555602f7] (000/214) No match (V2 was not tested)
03 [22b25512] (000/214) No match (V2 was not tested)
04 [18d4f90d] (000/215) No match (V2 was not tested)
05 [555621cf] (000/215) No match (V2 was not tested)
06 [110d3094] (000/215) No match (V2 was not tested)
07 [f1d82db8] (000/211) No match (V2 was not tested)
08 [96d8ec9e] (000/213) No match (V2 was not tested)
09 [30fc006b] (000/215) No match (V2 was not tested)
10 [bab130e9] (000/212) No match (V2 was not tested)
11 [aeb10519] (000/212) No match (V2 was not tested)
12 [b56bc098] (000/212) No match (V2 was not tested)
13 [774209c4] (000/212) No match (V2 was not tested)
14 [01cae01b] (000/215) No match (V2 was not tested)
15 [9036974a] (000/215) No match (V2 was not tested)
16 [0a89f38c] (000/212) No match (V2 was not tested)
17 [e47b0552] (000/210) No match (V2 was not tested)
18 [79bc6c1b] (000/205) No match (V2 was not tested)
Offsetted by -132:
01 [c053bec1] (000/212) No match (V2 was not tested)
02 [6a27f76e] (000/214) No match (V2 was not tested)
03 [64322983] (000/214) No match (V2 was not tested)
04 [76c203fb] (000/215) No match (V2 was not tested)
05 [2deacf43] (000/215) No match (V2 was not tested)
06 [e2c1a4ba] (000/215) No match (V2 was not tested)
07 [7e5dc849] (000/211) No match (V2 was not tested)
08 [36d7773f] (000/213) No match (V2 was not tested)
09 [2383c1e2] (000/215) No match (V2 was not tested)
10 [e4a1b6e2] (000/212) No match (V2 was not tested)
11 [dbd1b196] (000/212) No match (V2 was not tested)
12 [390c7d9b] (000/212) No match (V2 was not tested)
13 [f3b5c44c] (000/212) No match (V2 was not tested)
14 [7dcd603c] (000/215) No match (V2 was not tested)
15 [8347ca5d] (000/215) No match (V2 was not tested)
16 [75e4ad17] (000/212) No match (V2 was not tested)
17 [a79a2e78] (000/210) No match (V2 was not tested)
18 [59ac2d74] (000/205) No match (V2 was not tested)

Track Peak [ CRC32 ] [W/O NULL] [ LOG ]
– 100,0 [9E153C0E] [61130219] CRC32
01 92,3 [53CCD280] [5D92F0CC]
02 92,0 [02B0F0BF] [6A31F248]
03 93,5 [B9413D98] [EB272E10]
04 93,7 [13CBFCCC] [12F0D229]
05 89,1 [04E6DC4D] [B6CD7C3B]
06 93,4 [4798F824] [09584DF2]
07 100,0 [0A4CA2DE] [57AAB3DE]
08 96,8 [D49FACE2] [E7D21992]
09 96,4 [FAFDC1D9] [7BF218E5]
10 97,1 [A29E7A56] [23644459]
11 72,9 [D54AEE1F] [0AC75999]
12 97,2 [E1B9D54B] [B3CA08DF]
13 97,3 [18523FE8] [D38DA019]
14 96,3 [8255B44B] [80B49E63]
15 94,3 [C917085C] [B2CB66F6]
16 96,0 [4A0A38CF] [B1946FFA]
17 94,9 [77930E55] [760F6CF1]
18 97,3 [3A0F0BB8] [533CC71B]

Thanks to Leshi067

See also:
Dr. John - Dr. John's Gumbo (1972) [Reissue 1990]
Dr. John - Anutha Zone (1998)
Dr. John - Creole Moon (2001)
Dr. John - Locked Down (2012)