Subcategories

Dream Theater - Discography on AH. Part 3: Promos (1996 - 2009) Re-up

Posted By: v3122
Dream Theater  - Discography on AH. Part 3: Promos (1996 - 2009) Re-up

Dream Theater - Discography on AH. Part 3: Promos (1996 - 2009)
Progressive Metal | EAC Rip | Flac(Image) + Cue + Log & MP3 CBR 320Kbps
Scans Included | Label: Various | ~ 6555 or 2512 Mb

The technically proficient guitar playing of John Petrucci elevated Dream Theater to the upper echelons of contemporary heavy metal. While its lineup has continuously evolved, the Long Island-based quintet has consistently delivered sharp-edged music. Dream Theater is known for its high-energy concert performances. While they've released several live albums – Live at the Marquee, recorded at the London club; Live in Japan, recorded during the Music in Progress tour in 1993; and a triple CD and DVD, Live Scenes from New York – they remain one of heavy metal's most bootlegged bands.

Originally named Majesty by Berklee College of Music students Petrucci, bassist John Myung, and drummer Mike Portnoy, the band soon expanded with the addition of keyboard player Kevin Moore and vocalist Chris Collins. Releasing an eight-tune demo, Majesty Demo, as Majesty, the group sold 1,000 copies within six months. The departure of Collins in late 1986 left Majesty without a vocalist, and after a long period of auditioning possible replacements, the group settled on Charlie Dominici in November 1987. Changing its name, the group agreed on "Dream Theater," inspired by a now-demolished California movie theater. Signing with Mechanic Records, the group began working on its first full-length album. Delays caused by label mismanagement limited the group to performing at small clubs and bars. Frustrated by its experiences with the label, Dream Theater finally severed its ties with Mechanic.

This was only one drastic change in the band's course of action. Firing Dominici, the group spent the next couple years searching for a vocalist. The search ended in late 1991 when a demo tape from Canadian vocalist James LaBrie, formerly of Winter Rose, arrived. After flying to New York to audition, LaBrie was invited to join the band. Signing with Atco Atlantic (which came to be known as East West), Dream Theater released its second album, Images & Words, in 1992. One of three videos based on songs from the album, "Pull Me Under," became an MTV hit. Although Theater showed considerable growth with their third studio album, Awake, recorded between May and July 1994, the group continued to be hampered by personnel changes. Before the album was mixed, keyboardist Moore left the group to focus on his solo career. Hired as a temporary replacement for the band's Waking Up the World tour, Derek Sherinian later became a permanent member. His first recording with Dream Theater was a 23-minute epic, "A Change of Seasons," written in 1989 and released in September 1995 on the album of the same name.

Following a mini tour, Fix for '96, the members of Dream Theater separated for several months and became involved with a variety of outside projects. Petrucci was the busiest. In addition to joining Portnoy and keyboard player Jordan Rudess in the Liquid Tension Experiment – a group that included influential bassist/stick player Tony Levin – Petrucci played guitar with Trent Gardner's Explorers Club and made a guest appearance on Shadow Gallery's Tyranny album. Myung and Sherinian collaborated with King's X vocalist Ty Tabor in the band Platypus. LaBrie worked with Mull Muzzler, a group formed with Matt Guillory and Mike Mangini.

Dream Theater experienced yet another change when Rudess was tapped to replace Sherinian, who had been fired in 1999. The band released the progressive rock-heavy Scenes from a Memory that year, a conceptual piece that followed the story of a 1928 murder of a young woman and how a modern man is haunted by the crime. It was followed by Live Scenes from New York in 2001, which suffered from an unintentional bout with controversy when its original cover featuring the city of New York in flames was pulled due to the events of September 11. The group continued in the progressive metal vein in 2002 with Six Degrees of Inner Turbulence, followed by the leaner Train of Thought in 2003 and Octavarium in 2005. The live album Score: XOX was released in 2006 and featured the band backed by a 29-piece orchestra. It was followed a year later by the new studio album Systematic Chaos, and in 2009 by Black Clouds & Silver Linings.

Sherinian went on to record as a soloist and to play with a prog and jazz fusion band, Planet X. Petrucci released an eponymously titled solo album in 2003, featuring accompaniment by Dave LaRue of the Dixie Dregs and Boston-based drummer Dave DeCenso. In late 2010, Mike Mangini joined the group replacing drummer Mike Portnoy, who left the band in September of that year.

~ Craig Harris, Rovi

Dream Theater  - Discography on AH. Part 3: Promos (1996 - 2009) Re-up

Наверное сегодня, нет ни одной группы, работающей в стиле прогрессив-металл, которую можно было бы сравнивнить с группой Dream Theater, только один этот факт уже говорит о том какое влияние и значение, эта пятерка оказала на весь прог-металл.

История Dream Theater, начинается в 1985 году, когда два друга - гитарист Джон Петруччи и басист Джон Маянг, во время их учёбы в музыкальном колледже Беркли в Бостоне -"Berklee School of Music"- познакомились с барабанщиком по имени Майк Портной, который на тот момент проводил свои репетиции в одном из помещений колледжа.

Через некоторое время они решили создать собственную группы, для игры на клавишных позвали давнего приятель Джона Петруччи, Кевина Мура с которым они играли еще в школьной группе Centurion, на место вокалиста позвали Криса Коллинса ,Майк Портной придумал имя Majesty (как описание финальной части песни «Bastile Day» группы Rush).

Что бы как следует заниматься своей новой группой, они забросили учебу в колледже Беркли. Первый проект который заслуживает внимания назывался Majesty Demos, в который вошли идеи и демо-записи. Запись была выпущена в 1986 году, и весь тираж из 1000 копий, они распродали в течение следующих шести месяцев. Так родилась группа Majesty, участники которой с самого начала твердо поняли, какую музыку будут играть - уже на первой демке можно услышать приемы которые и сегодня используются Dream Theater в своей музыке. Хотя тогда стиль новой прогрессив-группы все время сравнивали с ранними работами RUSH.

Majesty

Majesty были первыми, кто подписал контракт с новой фирмой "Mechanic Records", но этому предшествовало несколько событий.

Группе пришлось сменить имя, потому что существовал еще один коллектив под названием Majesty, который пригрозил новоиспеченным музыкантам судебным разбирательством. Пришлось перебрать кучу имен, пока отец Портного не предложил назвать группу " Dream Theater " — по имени сегодня не существующего кинотеатра в Монтерее, штат Калифорния.

В ноябре 1986 года, после нескольких месяцев выступления на концертах, из группы уходит Крис Коллинз, из-за несовместимости своих музыкальных взглядов со взглядами группы. На самом деле Коллинз просто не дотягивал по уровню игры до остальных членов команды.

Целый год группа безуспешно пыталась найти замену Коллинзу, пока не появился Чарли Доминичи, он был старше и опытнее, чем любой из группы, но на тот момент очень удачно влился в состав.

Приход нового вокалиста видимо принес в группу больше стабильности, так как Majesty стали больше выступать на концертах, как в Нью-Йорке, так и по его окрестностям, но своего альбома у них еще не было.

Чарли Доминичи

Весной 1989 года выходит дебютный альбом Dream Theater "When Dream & Day Unite", у которого был достаточно скромный бюджет, в том числе и на рекламу, но несмотря на это критики приняли его на «ура», и даже в некоторых изданиях получил- титул альбома месяца! Например в немецком"Metal Hammer".

К слову сказать, большинство обязательств, связанных с "раскруткой" коллектива, Mechanic Records не выполнила, а тур для поддержки альбома включал всего пять концертов, которые прошли в Нью-Йорке и Род-Айленде.

В начале 90-го Чарли Доминичи получает отставку, все равно рано или поздно это произошло бы, но никто не думал что нового вокалиста они будут искать целых два года!

Тем не менее, когда Dream Theater пригласили на разогрев Marillion в Нью-Йорке, они позвали Доминичи, которому выпал шанс последний раз выступить с группой.

После ухода Доминичи из группы, Dream Theater с радостью разорвали контракт с Mechanic Records, Все два года группа естественно не сидела без дела, они писали новые песни при этом регулярно выступая в клубах –вчетвером. Многие песни со второго альбома Dream Theater "Images & Words", изначально исполнялись на этих концертах как инструментальные композиции, которые они разбавляли инструменталками классических хитов Led Zeppelin, Yes, Queen, The BeatlesS, Van Halen, и многими другими. Не удивительно, что с каждой новой композицией, их музыка становилась все более и более сложной, что только повышало требования к будущему вокалисту.

Кевин Джеймс Ля Бри

В процессе поиска вокалиста было прослушано более 200 человек, среди наиболее вероятных кандидатов на вакантное место были Джон Арч из Fates Warning, Джефф Тейт из Queensryche, и некто Крис Синтрон, которому даже удалось сыграть с Dream Theater на нескольких концертах, но его «подсидел» вокалист канадской группы Winter Rose, Кевин Джеймс Ля Бри (Kevin James LaBrie).

После разрыва с Mechanic Records, Dream Theater подписывают новый контракт с более крупной звукозаписывающей компанией "East West Records", и в конце 1991 года, записывают свой второй альбом "Images & Words".

По иронии судьбы, дебютный концерт Ля Бри в составе Dream Theater, проходит в том же самом зале, где группа отыграла последний концерт с Доминичи, ну а фанам было легче оценить нового фронтмена Dream Theater, который явно был на порядок выше Доминичи.

После выхода альбома, группа отправиляется в мировое турне, практически везде залы были переполнены, а концерт в знаменитом лондонском клубе "Marquee" впоследствии был увековечен на миньоне с соответствующим названием, а концерт в Токио, лег в основу концертного видео группы.

За третий альбом "Awake", Dream Theater берутся в марте 1994-го, после небольшого отпуска, материал впервые сочиняли от начала и до конца вместе с вокалистом группы. Неприятности же поджидали группу другой стороны: в августе 94-го в самом разгаре работы о своем уходе неожиданно заявил Кевин Мур (правда, свои партии клавишник все же записал полностью), что оказалось очень серьезным ударом для остальных музыкантов, особенно для друзей детства Петручи и Маянга.

Как заявил сам Мур, он больше не видел никаких перспектив в жанре прогрессив-металл и решил попробовать себя в новом амплуа. Вместе с гитаристом Джейсоном Андерсоном и музыкантами Fates Warning - ударником Марком Зондером и басистом Джоем Вера, Мур собрал группу Chroma Key, стиль которой сам описывает как мрачный авангард, хотя проще эту музыку можно охарактеризовать как смесь Pink Floyd, Rush, Peter Gabriel и David Bowie. В любом случае, ничего общего ни с Dream Theater, ни с Fatesarning, Chroma Key не имеет.

Джордан Рудесс

Во время презентации альбоме! на "Foundations Forum" в сентябре 94-го, за клавишными стоял Джордан Рудесс , а в новое мировое турне Dream Theater отправились с клавишником Дереком Шеринианом (ex-Alice Cooper, Kiss), который под конец тура был объявлен официальным членом группы. Что же касается "Awake", то альбом превзошел все ожидания. Название пластинки оказалось пророческим: альбом попал в Тор-30 американской "доски почета" - еженедельника "Billboard", и Dream Theater моментально превратились в настоящих звезд мирового уровня, получив титул живой легенды своего жанра! Несмотря на свою "неформатность" песни группы зазвучали на радио, а видеоклипы прочно обосновались на телеканале "MTV".

В апреле 1995 года Dream Theater записали 23-минутную композицию "A Change Of Seasons", написанную еще шесть лет назад для "Images & Words", и выпустили сей эпик в сентябре того же года в виде одноименного CD. На альбома, кроме того, вошли несколько кавер-версий, записанных на концерте в лондонском "Ronnie Scott's Jazz Club" - песни Элтона Джона, Led Zeppelin, Deep Purple, Pink Floyd, Genesis, Queen, Journey, Kansas и Dixie Dregs.

А ровно два года спустя увидел свет и очередной полнометражный альбом "Falling Into Infinity", пять песен из которого ранее группа исполняла во время европейского мини-тура "The Fix For '96". Альбом получился наименее удачным из всей дискографии Dream Theater, что в некоторой степени компенсировал двойной концертник "Once In A Life Time".

1999 год начался с увольнения Дерека Шериниана, что мотивировалось персональными и музыкальными разногласиями между клавишником и остальными членами группы, самое забавное заключается в том, что на замену пришел ни кто иной, как Джордан Радесс, отыгравший с Dream Theater единственный концерт перед приходом Шериниана!

Группа тут же приступила к работе над новым альбомом, который должен был реабилитировать их после откровенно слабого "Falling Into Infinity". Что, собственно, и произошло: новый, концептуальный CD Dream Theater "Metropolis pt. II: Scenes From A Memory" не только превзошел своего предшественника, но и был признан пластинкой уровня "Awake"! А название нового диска следует понимать буквально: в музыкальном отношении альбом представляет собой одну большую вариацию на тему "Metropolis pt I: The Miracle & The Sleeper" с "Images & Words".

Остается добавить, что помимо своей основной деятельности, все пятеро членов Dream Theater время от времени записывают альбомы со своими сторонними проектами:

Liquid Tension Experiment -Петручи/Портной/Радесс
Mullmuzzler -Ля Бри
Platypus -Шериниан/ Маянг
Planet X -Шериниан
принимают участие в записи трибьютов:
"Working Man - Rush Tribute" -Ля Бри/Петручи/Портной
"Dragon Attack -A Tribute To Queen" -Ля Бри/Петручи
"Encores, Legends & Paradox - E.L.P. Tribute" -Ля Бри/Портной
и "гостят" в разных других проектах:
Shadow Gallery -Ля Бри
Explorers Club -Ля Бри/Петруччи
Gordian Knot - Маянг, и др.

2007-по сей день

На сайте Майка Портного размещено объявление, что 26 января 2007 года группа окончила запись нового альбома под названием «Systematic Chaos». Группа начала запись 1 сентября 2006 года со звуковым инженером Полом Нортфилдом. 8 февраля Dream Theater анонсировала подписание контракта с Roadrunner Records. Через шесть дней после этого альбом был полностью сведён. Альбом вышел в свет 6 июня 2007 года. Часть тиража альбома была укомплектована DVD-диском, содержащем весь альбом «Systematic Chaos» в многоканальном формате 5.1, а так же полуторачасовой документальный фильм «Chaos In Progress: The Making of Systematic Chaos», повествующем о записи альбома.

Тур группы «Chaos in Motion» начался в Италии. Также Dream Theater сыграли на концерте Gods of Metal 3 июня 2007 года. Также группа выступила на фестивале Fields of Rock в Нидерландах 17 июня 2007 года и Hellfest Summer Open Air с такими группами как Megadeth, Korn, Mastodon и Slayer.

30 сентября 2008 года вышел DVD «Chaos In Motion 2007-2008», представляющий собой видеообзор прошедшего мирового турне группы. Впервые со времён «5 Years in a LIVEtime», этот DVD не является записью одного концерта, а состоит из разных концертных выступлений Dream Theater в различных точках мира и дополнен видеоклипами группы и различным закулисным материалом.

Начиная с Train of Thought группа вставляет небольшие скрытые элементы в свою музыку, как пищу для размышлений для наиболее преданных своих фанатов. Наиболее известный скрытый элемент, который также называется «nugget», находится в песне «In the Name of God». В этой песне (а именно, с 5:50 по 6:07) скрыта знаменитая фраза Майка Портного «Eat my ass and balls», выполненная в коде Морзе. С тех пор фанаты Dream Theater упорно ищут эти маленькие особенности, которые обычно не пользуются особым интересом у людей, не очень сильно интересующихся творчеством группы.
Dream Theater - Discography on AH. Part 3: Promos (1996 - 2009):

Dream Theater  - Discography on AH. Part 3: Promos (1996 - 2009) Re-up

Dream Theater - Christmas CD (1996)
Progressive Metal | EAC Rip | Flac(Image) + Cue + Log & MP3 CBR 320Kbps
Scans Included | DTIFC 001 | ~ 163 or 66 Mb

Dream Theater  - Discography on AH. Part 3: Promos (1996 - 2009) Re-up

Tracklist:

01. Opening Message (04:19)
02. Red Hill Mining Town (05:47)
03. Tears (03:55)
04. Damage, Inc. (04:57)
05. Oh Holy Night (04:22)
06. Closing Message (04:01)

Exact Audio Copy V1.0 beta 1 from 15. November 2010

EAC extraction logfile from 23. December 2010, 22:27

Dream Theater / International Fan Club Christmas CD 1996

Used drive : LITE-ON DVDRW LH-20A1L Adapter: 4 ID: 0

Read mode : Secure
Utilize accurate stream : Yes
Defeat audio cache : Yes
Make use of C2 pointers : No

Read offset correction : 6
Overread into Lead-In and Lead-Out : No
Fill up missing offset samples with silence : Yes
Delete leading and trailing silent blocks : No
Null samples used in CRC calculations : Yes
Used interface : Installed external ASPI interface

Used output format : Internal WAV Routines
Sample format : 44.100 Hz; 16 Bit; Stereo


TOC of the extracted CD

Track | Start | Length | Start sector | End sector
––––––––––––––––––––––––––––-
1 | 0:00.00 | 4:21.72 | 0 | 19646
2 | 4:21.72 | 5:50.60 | 19647 | 45956
3 | 10:12.57 | 3:52.38 | 45957 | 63394
4 | 14:05.20 | 5:04.15 | 63395 | 86209
5 | 19:09.35 | 4:17.62 | 86210 | 105546
6 | 23:27.22 | 3:54.53 | 105547 | 123149


Range status and errors

Selected range

Filename Z:\data\mp3\Seeding\Dream Theater\Promos\1996-Christmas CD\xmas.wav

Peak level 97.7 %
Extraction speed 0.7 X
Range quality 100.0 %
Test CRC A8BF399E
Copy CRC A8BF399E
Copy OK

No errors occurred


AccurateRip summary

Track 1 accurately ripped (confidence 4) [DA12BA4E]
Track 2 accurately ripped (confidence 4) [DDE074E1]
Track 3 accurately ripped (confidence 4) [9D28FE64]
Track 4 accurately ripped (confidence 4) [1A2ADD15]
Track 5 accurately ripped (confidence 4) [9624250A]
Track 6 accurately ripped (confidence 4) [88F5FF3C]

All tracks accurately ripped

End of status report

AUDIOCHECKER v2.0 beta (build 457) - by Dester - opdester@freemail.hu
~~~~~~~~~~~~~~~~~~~~~~~~~~~~~~~~~~
-=== DO NOT EDIT THIS FILE! ===-

Path: …\1996 - International Fan Club Christmas CD 1996

01 -=- xmas.flac -=- CDDA (100%)

57913412

[Verification date: 08.09.2011 16:37:10]
[Disc ID: 0006c602-0023f788-41066a06]
Track [ CRC ] Status
01 [da12ba4e] (03/03) Accurately ripped as in pressing(s) #1
02 [dde074e1] (03/03) Accurately ripped as in pressing(s) #1
03 [9d28fe64] (03/03) Accurately ripped as in pressing(s) #1
04 [1a2add15] (03/03) Accurately ripped as in pressing(s) #1
05 [9624250a] (03/03) Accurately ripped as in pressing(s) #1
06 [88f5ff3c] (03/03) Accurately ripped as in pressing(s) #1

Track [ CRC32 ] [W/O NULL] [ LOG ]
– [A8BF399E] [971DFA74] CRC32
01 [74C24ACA] [A50474E5]
02 [7DF4F6C2] [6C27F85A]
03 [4A370877] [D9CB0A9B]
04 [3AAA1A2B] [89390FBA]
05 [93622596] [3252D374]
06 [5C4C0FDE] [DFA91BAB]

=================================

Dream Theater  - Discography on AH. Part 3: Promos (1996 - 2009) Re-up

Dream Theater - The Making Of Falling Into Infinity (1997)
Progressive Metal | EAC Rip | Flac(Image) + Cue + Log & MP3 CBR 320Kbps
Scans Included | DITFC 002 | ~ 374 or 185 Mb

Dream Theater  - Discography on AH. Part 3: Promos (1996 - 2009) Re-up

Tracklist:

01. New Millennium: Basic Tracks (01:47)
02. New Millennium: Piano, Acoustic Guitar, Stick and 7-string guitar overdubs (03:17)
03. You Not Me: Basic Tracks (02:04)
04. You Not Me: Strings, Piano, Vocals and Key overdubs (03:36)
05. Peruvian Skies: Basic Tracks (01:39)
06. Peruvian Skies: Rhodes, Mellotron, Acoustic Guitar and Vocals overdubs (05:18)
07. Hollow Years: Basic Tracks (03:58)
08. Hollow Years: Acoustic, Edge and Classical Guitar and Vocal overdubs (04:28)
09. Burning My Soul: Basic Tracks (01:14)
10. Burning My Soul: Guitar, Key, Vocals, Talk box and Whisper overdubs (03:47)
11. Hell's Kitchen: Writing The Finale (06:08)
12. Lines In The Sand: Intro, Key, Piano, and String overdubs (03:50)
13. Lines In The Sand: Bass, Guitar, Synth, and Vocal overdubs (03:27)
14. Lines In The Sand: Doug Pinnick vocals (03:02)
15. Take Away My Pain: Alternate take (06:12)
16. Take Away My Pain: Basic Tracks (02:08)
17. Take Away My Pain: Space guitar, Hawaiin Keys, Heavy Keys, and Vocal overdubs (02:16)
18. Just Let Me Breathe: Basic Tracks (01:03)
19. Just Let Me Breathe: Feedback and Rhythm guitars, Lead Guitar and Keys, Vocal… (02:28)
20. Anna Lee: Derek Noodling At The Piano (02:14)
21. Anna Lee: Basic Tracks (03:46)
22. Anna Lee: Mellotron, Acoustic and Leslie Guitars, Slide Guitar overdubs (02:55)
23. Trial of Tears: Basic Tracks (02:11)
24. Trial of Tears: Lead Guitar, Bass, Acoustic Guitar and Piano overdubs (02:52)
25. Trial Of Tears: The End (?) (00:23)

Exact Audio Copy V1.0 beta 1 from 15. November 2010

EAC extraction logfile from 23. December 2010, 22:16

Dream Theater / Official Bootleg: The Making of Falling Into Infinity

Used drive : PLEXTOR CD-R PX-240A Adapter: 1 ID: 1

Read mode : Secure
Utilize accurate stream : Yes
Defeat audio cache : Yes
Make use of C2 pointers : No

Read offset correction : 6
Overread into Lead-In and Lead-Out : No
Fill up missing offset samples with silence : Yes
Delete leading and trailing silent blocks : No
Null samples used in CRC calculations : Yes
Used interface : Installed external ASPI interface

Used output format : Internal WAV Routines
Sample format : 44.100 Hz; 16 Bit; Stereo


TOC of the extracted CD

Track | Start | Length | Start sector | End sector
––––––––––––––––––––––––––––-
1 | 0:00.00 | 1:47.10 | 0 | 8034
2 | 1:47.10 | 3:17.17 | 8035 | 22826
3 | 5:04.27 | 2:04.28 | 22827 | 32154
4 | 7:08.55 | 3:35.50 | 32155 | 48329
5 | 10:44.30 | 1:38.60 | 48330 | 55739
6 | 12:23.15 | 5:18.07 | 55740 | 79596
7 | 17:41.22 | 3:58.05 | 79597 | 97451
8 | 21:39.27 | 4:28.33 | 97452 | 117584
9 | 26:07.60 | 1:14.17 | 117585 | 123151
10 | 27:22.02 | 3:47.05 | 123152 | 140181
11 | 31:09.07 | 6:07.68 | 140182 | 167774
12 | 37:17.00 | 3:49.42 | 167775 | 184991
13 | 41:06.42 | 3:27.20 | 184992 | 200536
14 | 44:33.62 | 3:01.63 | 200537 | 214174
15 | 47:35.50 | 6:12.22 | 214175 | 242096
16 | 53:47.72 | 2:07.65 | 242097 | 251686
17 | 55:55.62 | 2:16.25 | 251687 | 261911
18 | 58:12.12 | 1:02.55 | 261912 | 266616
19 | 59:14.67 | 2:28.00 | 266617 | 277716
20 | 61:42.67 | 2:14.20 | 277717 | 287786
21 | 63:57.12 | 3:46.03 | 287787 | 304739
22 | 67:43.15 | 2:55.35 | 304740 | 317899
23 | 70:38.50 | 2:11.30 | 317900 | 327754
24 | 72:50.05 | 2:51.70 | 327755 | 340649
25 | 75:42.00 | 0:23.07 | 340650 | 342381


Range status and errors

Selected range

Filename Z:\data\mp3\Seeding\Dream Theater\Promos\1997-The Making Of Falling Into Infinity\makingfalling.wav

Peak level 100.0 %
Extraction speed 0.0 X
Range quality 99.9 %
Test CRC C5914DA3
Copy CRC C5914DA3
Copy OK

No errors occurred


AccurateRip summary

Track 1 accurately ripped (confidence 4) [8D8DCD9D]
Track 2 accurately ripped (confidence 4) [37CB89EB]
Track 3 accurately ripped (confidence 4) [D38A49CE]
Track 4 accurately ripped (confidence 4) [0479F653]
Track 5 accurately ripped (confidence 4) [AED04246]
Track 6 accurately ripped (confidence 4) [FA86D167]
Track 7 accurately ripped (confidence 4) [EA38E910]
Track 8 accurately ripped (confidence 4) [54A29E30]
Track 9 accurately ripped (confidence 4) [8E257313]
Track 10 accurately ripped (confidence 4) [6B68D7AF]
Track 11 accurately ripped (confidence 4) [3B86AD74]
Track 12 accurately ripped (confidence 4) [CBD95FE6]
Track 13 accurately ripped (confidence 4) [4A45FD09]
Track 14 accurately ripped (confidence 4) [C2725842]
Track 15 accurately ripped (confidence 4) [A3C4BED6]
Track 16 accurately ripped (confidence 4) [FF35B436]
Track 17 accurately ripped (confidence 4) [90F1119F]
Track 18 accurately ripped (confidence 4) [AAC4930C]
Track 19 accurately ripped (confidence 4) [E74F42AD]
Track 20 accurately ripped (confidence 4) [9859DDDD]
Track 21 accurately ripped (confidence 4) [EA9D00E9]
Track 22 accurately ripped (confidence 4) [896DC069]
Track 23 accurately ripped (confidence 4) [DD2681A1]
Track 24 accurately ripped (confidence 4) [0803B48D]
Track 25 accurately ripped (confidence 4) [D6199D41]

All tracks accurately ripped

End of status report

AUDIOCHECKER v2.0 beta (build 457) - by Dester - opdester@freemail.hu
~~~~~~~~~~~~~~~~~~~~~~~~~~~~~~~~~~
-=== DO NOT EDIT THIS FILE! ===-

Path: …\1997 - The Making of Falling Into Infinity

01 -=- makingfalling.flac -=- CDDA (100%)

194091012

[Verification date: 08.09.2011 16:37:55]
[Disc ID: 0047ed32-051474ce-7711d519]
Track [ CRC ] Status
01 [8d8dcd9d] (03/03) Accurately ripped as in pressing(s) #1
02 [37cb89eb] (03/03) Accurately ripped as in pressing(s) #1
03 [d38a49ce] (03/03) Accurately ripped as in pressing(s) #1
04 [0479f653] (03/03) Accurately ripped as in pressing(s) #1
05 [aed04246] (03/03) Accurately ripped as in pressing(s) #1
06 [fa86d167] (03/03) Accurately ripped as in pressing(s) #1
07 [ea38e910] (03/03) Accurately ripped as in pressing(s) #1
08 [54a29e30] (03/03) Accurately ripped as in pressing(s) #1
09 [8e257313] (03/03) Accurately ripped as in pressing(s) #1
10 [6b68d7af] (03/03) Accurately ripped as in pressing(s) #1
11 [3b86ad74] (03/03) Accurately ripped as in pressing(s) #1
12 [cbd95fe6] (03/03) Accurately ripped as in pressing(s) #1
13 [4a45fd09] (03/03) Accurately ripped as in pressing(s) #1
14 [c2725842] (03/03) Accurately ripped as in pressing(s) #1
15 [a3c4bed6] (03/03) Accurately ripped as in pressing(s) #1
16 [ff35b436] (03/03) Accurately ripped as in pressing(s) #1
17 [90f1119f] (03/03) Accurately ripped as in pressing(s) #1
18 [aac4930c] (03/03) Accurately ripped as in pressing(s) #1
19 [e74f42ad] (03/03) Accurately ripped as in pressing(s) #1
20 [9859dddd] (03/03) Accurately ripped as in pressing(s) #1
21 [ea9d00e9] (03/03) Accurately ripped as in pressing(s) #1
22 [896dc069] (03/03) Accurately ripped as in pressing(s) #1
23 [dd2681a1] (03/03) Accurately ripped as in pressing(s) #1
24 [0803b48d] (03/03) Accurately ripped as in pressing(s) #1
25 [d6199d41] (03/03) Accurately ripped as in pressing(s) #1

Track [ CRC32 ] [W/O NULL] [ LOG ]
– [C5914DA3] [B7D81909] CRC32
01 [63CF6F48] [B081D795]
02 [7767214D] [0B6E8CCD]
03 [55490D97] [84F338B5]
04 [97C4BC6A] [6668A02C]
05 [7A2D995D] [D7600E6F]
06 [0B237EFE] [0EFFC8FE]
07 [3B7D512B] [057DB340]
08 [4ADC0D04] [45E2C5E6]
09 [2B958049] [2E0F8D68]
10 [D377DE4E] [8354CB81]
11 [36959511] [C117EBB4]
12 [2AC8808D] [8F650D8C]
13 [74C8EF29] [E37537BC]
14 [886187A3] [D158831C]
15 [5AD12DF1] [C6AA82BB]
16 [B213D97B] [35544738]
17 [D48920F4] [59FE2ED2]
18 [68281CF3] [7865541D]
19 [23760B97] [C73EEF6D]
20 [D51DB4E9] [65545CC8]
21 [2678D156] [F47D679D]
22 [72B262F5] [599C60A7]
23 [95E05129] [A8688FA6]
24 [C968A5C4] [A8A9C402]
25 [AC57CAA6] [44552D70]

=================================

Dream Theater  - Discography on AH. Part 3: Promos (1996 - 2009) Re-up

Dream Theater - Once In A Livetime Outtakes (1998)
Progressive Metal | EAC Rip | Flac(Image) + Cue + Log & MP3 CBR 320Kbps
Scans Included | DTIFC 003 | ~ 382 or 145 Mb

Dream Theater  - Discography on AH. Part 3: Promos (1996 - 2009) Re-up

Tracklist:

01. Eve (04:35)
02. Speak To Me (06:13)
03. Lifting Shadows Off A Dream (07:11)
04. Hey You (04:31)
05. The Silent Man (05:07)
06. Cover My Eyes (04:33)
07. Mean Street (01:29)
08. Goodbye Yellow Brick Road (03:10)
09. Anna Lee (06:33)
10. To Live Forever (07:33)
11. Thank You's (03:23)
12. Bad (06:07)

Exact Audio Copy V1.0 beta 1 from 15. November 2010

EAC extraction logfile from 23. December 2010, 22:34

Dream Theater / International Fan Club CD 1998

Used drive : PLEXTOR CD-R PX-240A Adapter: 1 ID: 1

Read mode : Secure
Utilize accurate stream : Yes
Defeat audio cache : Yes
Make use of C2 pointers : No

Read offset correction : 6
Overread into Lead-In and Lead-Out : No
Fill up missing offset samples with silence : Yes
Delete leading and trailing silent blocks : No
Null samples used in CRC calculations : Yes
Used interface : Installed external ASPI interface

Used output format : Internal WAV Routines
Sample format : 44.100 Hz; 16 Bit; Stereo


TOC of the extracted CD

Track | Start | Length | Start sector | End sector
––––––––––––––––––––––––––––-
1 | 0:00.00 | 4:35.22 | 0 | 20646
2 | 4:35.22 | 6:12.53 | 20647 | 48599
3 | 10:48.00 | 7:10.45 | 48600 | 80894
4 | 17:58.45 | 4:31.37 | 80895 | 101256
5 | 22:30.07 | 5:06.38 | 101257 | 124244
6 | 27:36.45 | 4:33.37 | 124245 | 144756
7 | 32:10.07 | 1:28.40 | 144757 | 151396
8 | 33:38.47 | 3:09.65 | 151397 | 165636
9 | 36:48.37 | 6:32.68 | 165637 | 195104
10 | 43:21.30 | 7:32.55 | 195105 | 229059
11 | 50:54.10 | 3:23.15 | 229060 | 244299
12 | 54:17.25 | 6:06.52 | 244300 | 271801


Range status and errors

Selected range

Filename Z:\data\mp3\Seeding\Dream Theater\Promos\1998-Once In A Livetime Outtakes\outtakes.wav

Peak level 100.0 %
Extraction speed 0.8 X
Range quality 100.0 %
Test CRC 5A2232BD
Copy CRC 5A2232BD
Copy OK

No errors occurred


AccurateRip summary

Track 1 accurately ripped (confidence 7) [9E926FD1]
Track 2 accurately ripped (confidence 7) [66281131]
Track 3 accurately ripped (confidence 7) [C6FC5458]
Track 4 accurately ripped (confidence 7) [6E4303A9]
Track 5 accurately ripped (confidence 7) [245C16EC]
Track 6 accurately ripped (confidence 7) [44364AAD]
Track 7 accurately ripped (confidence 7) [E8D1F594]
Track 8 accurately ripped (confidence 7) [F5472A60]
Track 9 accurately ripped (confidence 7) [E500B918]
Track 10 accurately ripped (confidence 7) [AF8B0DBD]
Track 11 accurately ripped (confidence 7) [FA37F7D2]
Track 12 accurately ripped (confidence 7) [401C8417]

All tracks accurately ripped

End of status report

AUDIOCHECKER v2.0 beta (build 457) - by Dester - opdester@freemail.hu
~~~~~~~~~~~~~~~~~~~~~~~~~~~~~~~~~~
-=== DO NOT EDIT THIS FILE! ===-

Path: …\1998 - Once In A Livetime Outtakes

01 -=- outtakes.flac -=- CDDA (100%)

177701076

[Verification date: 08.09.2011 16:38:45]
[Disc ID: 001b2026-00fa72be-890e280c]
Track [ CRC ] Status
01 [9e926fd1] (06/06) Accurately ripped as in pressing(s) #1
02 [66281131] (06/06) Accurately ripped as in pressing(s) #1
03 [c6fc5458] (06/06) Accurately ripped as in pressing(s) #1
04 [6e4303a9] (06/06) Accurately ripped as in pressing(s) #1
05 [245c16ec] (06/06) Accurately ripped as in pressing(s) #1
06 [44364aad] (06/06) Accurately ripped as in pressing(s) #1
07 [e8d1f594] (06/06) Accurately ripped as in pressing(s) #1
08 [f5472a60] (06/06) Accurately ripped as in pressing(s) #1
09 [e500b918] (06/06) Accurately ripped as in pressing(s) #1
10 [af8b0dbd] (06/06) Accurately ripped as in pressing(s) #1
11 [fa37f7d2] (06/06) Accurately ripped as in pressing(s) #1
12 [401c8417] (06/06) Accurately ripped as in pressing(s) #1

Track [ CRC32 ] [W/O NULL] [ LOG ]
– [5A2232BD] [14BE74CF] CRC32
01 [12F7018D] [752A7022]
02 [E6BDD1E9] [DABD2581]
03 [537CA638] [692D91FF]
04 [6E020D79] [51A6AF0C]
05 [24256280] [4431EDAF]
06 [0173E000] [1C6F278C]
07 [E2A6C4F5] [FD3F70A5]
08 [F30B464A] [20DE7630]
09 [F7FC425C] [D7F085FA]
10 [44A0BA49] [C87904EB]
11 [82723F4F] [63830BF1]
12 [BA0F97D8] [106A05D6]

=================================

Dream Theater  - Discography on AH. Part 3: Promos (1996 - 2009) Re-up

Dream Theater - Trial Of Singles (1998)
Progressive Metal | EAC Rip | Flac(Image) + Cue + Log & MP3 CBR 320Kbps
Scans Included | AMCY-4711 | ~ 571 or 207Mb

Dream Theater  - Discography on AH. Part 3: Promos (1996 - 2009) Re-up

Tracklist:

01. To Live Forever (04:55)
02. Another Day (Live) (04:44)
03. Take The Time (Demo Version) (08:01)
04. Eve (05:12)
05. You Or Me (Demo Version) (06:25)
06. The Way It Used To Be (07:47)
07. Burning My Soul (Live) (08:21)
08. Another Hand - The Killing Hand (Live) (13:28)
09. Take Away My Pain (Demo Version) (06:51)
10. Speak To Me (Demo Version) (06:13)
11. Tears (Live) (03:23)
12. The Silent Man (Acoustic Version) (03:42)

Exact Audio Copy V1.0 beta 1 from 15. November 2010

EAC extraction logfile from 23. December 2010, 18:45

Dream Theater / Trial Of Singles

Used drive : PLEXTOR CD-R PX-240A Adapter: 1 ID: 1

Read mode : Secure
Utilize accurate stream : Yes
Defeat audio cache : Yes
Make use of C2 pointers : No

Read offset correction : 6
Overread into Lead-In and Lead-Out : No
Fill up missing offset samples with silence : Yes
Delete leading and trailing silent blocks : No
Null samples used in CRC calculations : Yes
Used interface : Installed external ASPI interface

Used output format : Internal WAV Routines
Sample format : 44.100 Hz; 16 Bit; Stereo


TOC of the extracted CD

Track | Start | Length | Start sector | End sector
––––––––––––––––––––––––––––-
1 | 0:00.00 | 4:57.40 | 0 | 22314
2 | 4:57.40 | 4:43.40 | 22315 | 43579
3 | 9:41.05 | 8:00.22 | 43580 | 79601
4 | 17:41.27 | 5:12.30 | 79602 | 103031
5 | 22:53.57 | 6:25.33 | 103032 | 131939
6 | 29:19.15 | 7:47.10 | 131940 | 166974
7 | 37:06.25 | 8:19.32 | 166975 | 204431
8 | 45:25.57 | 13:29.25 | 204432 | 265131
9 | 58:55.07 | 6:51.43 | 265132 | 295999
10 | 65:46.50 | 6:12.27 | 296000 | 323926
11 | 71:59.02 | 3:24.05 | 323927 | 339231
12 | 75:23.07 | 3:40.00 | 339232 | 355731


Range status and errors

Selected range

Filename Z:\data\mp3\Seeding\Dream Theater\Promos\1998-Trial Of Singles\trialofsingles.wav

Peak level 100.0 %
Extraction speed 0.4 X
Range quality 100.0 %
Test CRC 19369E81
Copy CRC 19369E81
Copy OK

No errors occurred


AccurateRip summary

Track 1 not present in database
Track 2 not present in database
Track 3 not present in database
Track 4 not present in database
Track 5 not present in database
Track 6 not present in database
Track 7 not present in database
Track 8 not present in database
Track 9 not present in database
Track 10 not present in database
Track 11 not present in database
Track 12 not present in database

None of the tracks are present in the AccurateRip database

End of status report

AUDIOCHECKER v2.0 beta (build 457) - by Dester - opdester@freemail.hu
~~~~~~~~~~~~~~~~~~~~~~~~~~~~~~~~~~
-=== DO NOT EDIT THIS FILE! ===-

Path: …\1998 - Trial Of Singles

01 -=- trialofsingles.flac -=- CDDA (100%)

266713476

[Verification date: 08.09.2011 16:39:32]
[Disc ID: 002394fb-0152e409-b312870c]
Track [ CRC ] Status
01 [faec29c2] (02/02) Accurately ripped as in pressing(s) #1
02 [88ec5551] (02/02) Accurately ripped as in pressing(s) #1
03 [854131fa] (02/02) Accurately ripped as in pressing(s) #1
04 [b46226cd] (02/02) Accurately ripped as in pressing(s) #1
05 [9f316490] (02/02) Accurately ripped as in pressing(s) #1
06 [9cd59a3c] (02/02) Accurately ripped as in pressing(s) #1
07 [dd9464eb] (02/02) Accurately ripped as in pressing(s) #1
08 [4a5f54f1] (02/02) Accurately ripped as in pressing(s) #1
09 [aeff1711] (02/02) Accurately ripped as in pressing(s) #1
10 [d33d1614] (02/02) Accurately ripped as in pressing(s) #1
11 [132fb564] (02/02) Accurately ripped as in pressing(s) #1
12 [fcac518a] (02/02) Accurately ripped as in pressing(s) #1

Track [ CRC32 ] [W/O NULL] [ LOG ]
– [19369E81] [CBD72D47] CRC32
01 [D017C3D6] [CC897025]
02 [0ED7B0E5] [269080D2]
03 [16D570F4] [A65B7F9F]
04 [C5665F93] [DA08471C]
05 [3CD1015E] [DDCB96AB]
06 [BF3090F4] [580B171A]
07 [C7811508] [25256485]
08 [41DA889E] [F8772442]
09 [A0190CB5] [93A836F6]
10 [61D4471C] [74483486]
11 [E633ED8A] [4266150F]
12 [E6B34036] [D8976C9B]

=================================

Dream Theater  - Discography on AH. Part 3: Promos (1996 - 2009) Re-up

Dream Theater - Cleaning Out The Closet (1999)
Progressive Metal | EAC Rip | Flac(Image) + Cue + Log & MP3 CBR 320Kbps
Scans Included | DTIFC 004 | ~ 506 or 238 Mb

Dream Theater  - Discography on AH. Part 3: Promos (1996 - 2009) Re-up

Tracklist:

01. Don't Look Past Me (06:23)
02. To Live Forever '91 (04:38)
03. To Live Forever '94 (04:57)
04. Eve (05:10)
05. Raise The Knife (11:37)
06. Where Are You Now? (07:27)
07. The way It Used to Be (07:46)
08. Cover My Eyes (03:22)
09. Speak To Me (06:11)
10. Scenes (03:30)

Exact Audio Copy V1.0 beta 1 from 15. November 2010

EAC extraction logfile from 23. December 2010, 22:13

Dream Theater / Cleaning Out The Closet

Used drive : LITE-ON DVDRW LH-20A1L Adapter: 4 ID: 0

Read mode : Secure
Utilize accurate stream : Yes
Defeat audio cache : Yes
Make use of C2 pointers : No

Read offset correction : 6
Overread into Lead-In and Lead-Out : No
Fill up missing offset samples with silence : Yes
Delete leading and trailing silent blocks : No
Null samples used in CRC calculations : Yes
Used interface : Installed external ASPI interface

Used output format : Internal WAV Routines
Sample format : 44.100 Hz; 16 Bit; Stereo


TOC of the extracted CD

Track | Start | Length | Start sector | End sector
––––––––––––––––––––––––––––-
1 | 0:00.00 | 6:24.59 | 0 | 28858
2 | 6:24.59 | 4:37.71 | 28859 | 49704
3 | 11:02.55 | 4:54.71 | 49705 | 71825
4 | 15:57.51 | 5:11.02 | 71826 | 95152
5 | 21:08.53 | 11:36.09 | 95153 | 147361
6 | 32:44.62 | 7:27.27 | 147362 | 180913
7 | 40:12.14 | 7:45.54 | 180914 | 215842
8 | 47:57.68 | 3:22.70 | 215843 | 231062
9 | 51:20.63 | 6:10.07 | 231063 | 258819
10 | 57:30.70 | 3:30.00 | 258820 | 274569
11 | 63:32.70 | 9:31.22 | 285970 | 328816


Range status and errors

Selected range

Filename Z:\data\mp3\Seeding\Dream Theater\Promos\1999-Cleaning Out The Closet\cleaningout.wav

Peak level 100.0 %
Extraction speed 1.1 X
Range quality 100.0 %
Test CRC F6983AC7
Copy CRC F6983AC7
Copy OK

No errors occurred


AccurateRip summary

Track 1 accurately ripped (confidence 14) [183529A7]
Track 2 accurately ripped (confidence 15) [FB2A6619]
Track 3 accurately ripped (confidence 15) [F51F9233]
Track 4 accurately ripped (confidence 15) [4C2D3450]
Track 5 accurately ripped (confidence 15) [F005934D]
Track 6 accurately ripped (confidence 15) [7011E209]
Track 7 accurately ripped (confidence 15) [20D3CF76]
Track 8 accurately ripped (confidence 15) [0831F78B]
Track 9 accurately ripped (confidence 15) [47304043]
Track 10 not present in database

9 track(s) accurately ripped
1 track(s) not present in the AccurateRip database

Some tracks could not be verified as accurate

End of status report

AUDIOCHECKER v2.0 beta (build 457) - by Dester - opdester@freemail.hu
~~~~~~~~~~~~~~~~~~~~~~~~~~~~~~~~~~
-=== DO NOT EDIT THIS FILE! ===-

Path: …\1999 - Cleaning Out The Closet

01 -=- cleaningout.flac -=- CDDA (100%)

208830820

[Verification date: 08.09.2011 16:40:15]
[Disc ID: 00188aaa-00c860c3-aa11200b]
Track [ CRC ] Status
01 [183529a7] (15/18) Accurately ripped as in pressing(s) #1
02 [fb2a6619] (16/19) Accurately ripped as in pressing(s) #1
03 [f51f9233] (16/19) Accurately ripped as in pressing(s) #1
04 [4c2d3450] (16/19) Accurately ripped as in pressing(s) #1
05 [f005934d] (16/19) Accurately ripped as in pressing(s) #1
06 [7011e209] (16/19) Accurately ripped as in pressing(s) #1
07 [20d3cf76] (16/19) Accurately ripped as in pressing(s) #1
08 [0831f78b] (16/19) Accurately ripped as in pressing(s) #1
09 [47304043] (16/19) Accurately ripped as in pressing(s) #1
10 [18cb893a] (02/02) Accurately ripped as in pressing(s) #1
Offsetted by -676:
01 [3cdfb87f] (03/18) Accurately ripped as in pressing(s) #2
02 [0b96c81d] (03/19) Accurately ripped as in pressing(s) #2
03 [9350caeb] (03/19) Accurately ripped as in pressing(s) #2
04 [7ef2e980] (03/19) Accurately ripped as in pressing(s) #2
05 [a2e504ad] (03/19) Accurately ripped as in pressing(s) #2
06 [40238911] (03/19) Accurately ripped as in pressing(s) #2
07 [ba6a1df6] (03/19) Accurately ripped as in pressing(s) #2
08 [c7d2e57b] (03/19) Accurately ripped as in pressing(s) #2
09 [7e354a5b] (03/19) Accurately ripped as in pressing(s) #2
10 [d26268d6] (02/02) Partial match to pressing(s) #1,2

Track [ CRC32 ] [W/O NULL] [ LOG ]
– [F6983AC7] [B3ECD073] CRC32
01 [8726AABE] [718C894D]
02 [793536A0] [B47E7E94]
03 [C5C7EE1D] [237052E2]
04 [4BD84FFD] [1DDFD016]
05 [48B866CE] [E352EDF2]
06 [403867AE] [86CEA8A7]
07 [4A732CD9] [95F91C59]
08 [8ADB3C85] [4B16DBF3]
09 [1A32D916] [57C4C76F]
10 [C04B1116] [1CF8287D]


Bonus:

1. Video: SCENES.MPG

Dream Theater  - Discography on AH. Part 3: Promos (1996 - 2009) Re-up

Dream Theater  - Discography on AH. Part 3: Promos (1996 - 2009) Re-up

Dream Theater  - Discography on AH. Part 3: Promos (1996 - 2009) Re-up

=================================

Dream Theater  - Discography on AH. Part 3: Promos (1996 - 2009) Re-up

Dream Theater - Scenes From A World Tour (2000)
Progressive Metal | EAC Rip | Flac(Image) + Cue + Log & MP3 CBR 320Kbps
Scans Included | DTIFC 005 | ~ 460 or 262 Mb

Dream Theater  - Discography on AH. Part 3: Promos (1996 - 2009) Re-up

Tracklist:

01. Heaven And Hell (02:24)
02. Erotomania/Paradigm Shift/Universal Mind (07:33)
03. What did they Say?/Wipeout/Canadian Rap (06:47)
04. War Pigs (04:15)
05. Keyboard Solo (07:26)
06. The Spirit Carries On (08:19)
07. Guitar Solo/Gladiator Theme (10:24)
08. The Zoo/Learning To Live/Whole Lotta Love (06:01)
09. End Of Show (02:54)

Exact Audio Copy V1.0 beta 1 from 15. November 2010

EAC extraction logfile from 23. December 2010, 21:56

Dream Theater / Fanclub CD 2000: Scenes From A World Tou

Used drive : LITE-ON DVDRW LH-20A1L Adapter: 4 ID: 0

Read mode : Secure
Utilize accurate stream : Yes
Defeat audio cache : Yes
Make use of C2 pointers : No

Read offset correction : 6
Overread into Lead-In and Lead-Out : No
Fill up missing offset samples with silence : Yes
Delete leading and trailing silent blocks : No
Null samples used in CRC calculations : Yes
Used interface : Installed external ASPI interface

Used output format : Internal WAV Routines
Sample format : 44.100 Hz; 16 Bit; Stereo


TOC of the extracted CD

Track | Start | Length | Start sector | End sector
––––––––––––––––––––––––––––-
1 | 0:00.00 | 2:23.66 | 0 | 10790
2 | 2:23.66 | 7:33.46 | 10791 | 44811
3 | 9:57.37 | 6:46.20 | 44812 | 75281
4 | 16:43.57 | 4:14.42 | 75282 | 94373
5 | 20:58.24 | 7:26.36 | 94374 | 127859
6 | 28:24.60 | 8:19.11 | 127860 | 165295
7 | 36:43.71 | 10:23.74 | 165296 | 212094
8 | 47:07.70 | 6:01.32 | 212095 | 239201
9 | 53:09.27 | 2:53.38 | 239202 | 252214
10 | 58:34.65 | 14:46.32 | 263615 | 330096


Range status and errors

Selected range

Filename Z:\data\mp3\Seeding\Dream Theater\Promos\2000-Scenes From A World Tour\scenesfromatour.wav

Peak level 100.0 %
Extraction speed 1.0 X
Range quality 100.0 %
Test CRC 207226F1
Copy CRC 207226F1
Copy OK

No errors occurred


AccurateRip summary

Track 1 accurately ripped (confidence 13) [904B1A65]
Track 2 accurately ripped (confidence 13) [686119C6]
Track 3 accurately ripped (confidence 13) [F8690A6D]
Track 4 accurately ripped (confidence 13) [75401B64]
Track 5 accurately ripped (confidence 13) [64E6DF24]
Track 6 accurately ripped (confidence 13) [0EC9D8EB]
Track 7 accurately ripped (confidence 13) [112355DC]
Track 8 accurately ripped (confidence 13) [F62EFDB8]
Track 9 accurately ripped (confidence 13) [294367C6]

All tracks accurately ripped

End of status report

AUDIOCHECKER v2.0 beta (build 457) - by Dester - opdester@freemail.hu
~~~~~~~~~~~~~~~~~~~~~~~~~~~~~~~~~~
-=== DO NOT EDIT THIS FILE! ===-

Path: …\2000 - Scenes From A World Tour

01 -=- scenesfromatour.flac -=- CDDA (99%)

116750916

[Verification date: 08.09.2011 16:40:53]
[Disc ID: 0013d561-0098a555-7b11310a]
Track [ CRC ] Status
01 [904b1a65] (14/14) Accurately ripped as in pressing(s) #1
02 [686119c6] (14/14) Accurately ripped as in pressing(s) #1
03 [f8690a6d] (14/14) Accurately ripped as in pressing(s) #1
04 [75401b64] (14/14) Accurately ripped as in pressing(s) #1
05 [64e6df24] (14/14) Accurately ripped as in pressing(s) #1
06 [0ec9d8eb] (14/14) Accurately ripped as in pressing(s) #1
07 [112355dc] (14/14) Accurately ripped as in pressing(s) #1
08 [f62efdb8] (14/14) Accurately ripped as in pressing(s) #1
09 [294367c6] (14/14) Accurately ripped as in pressing(s) #1

Track [ CRC32 ] [W/O NULL] [ LOG ]
– [207226F1] [5904CF20] CRC32
01 [8E3FC87C] [9FCF7B2E]
02 [194B451C] [509800C1]
03 [A5962979] [21CFEF8A]
04 [5EF0D813] [786EEF25]
05 [B77F13E6] [F5D678EC]
06 [96DCC488] [AA8FDAD0]
07 [6F235057] [F2909652]
08 [8CC925FB] [42B0636C]
09 [4E1354D0] [26424134]


Bonus:

1. Video: VIDEO.MPG

Dream Theater  - Discography on AH. Part 3: Promos (1996 - 2009) Re-up

Dream Theater  - Discography on AH. Part 3: Promos (1996 - 2009) Re-up

Dream Theater  - Discography on AH. Part 3: Promos (1996 - 2009) Re-up

=================================

Dream Theater  - Discography on AH. Part 3: Promos (1996 - 2009) Re-up

Dream Theater - Four Degrees Of Radio Edits (2001)
Progressive Metal | EAC Rip | Flac(Image) + Cue + Log & MP3 CBR 320Kbps
Scans Included | DTIFC 006 | ~ 148 or 50 Mb

Dream Theater  - Discography on AH. Part 3: Promos (1996 - 2009) Re-up

Tracklist:

01. Misunderstood (05:16)
02. Blind Faith (05:24)
03. Solitary Shell (04:12)
04. The Test That Stumped Them All (05:00)

Exact Audio Copy V1.0 beta 1 from 15. November 2010

EAC extraction logfile from 23. December 2010, 22:34

Dream Theater / Four Degrees Of Radio Edits

Used drive : LITE-ON DVDRW LH-20A1L Adapter: 4 ID: 0

Read mode : Secure
Utilize accurate stream : Yes
Defeat audio cache : Yes
Make use of C2 pointers : No

Read offset correction : 6
Overread into Lead-In and Lead-Out : No
Fill up missing offset samples with silence : Yes
Delete leading and trailing silent blocks : No
Null samples used in CRC calculations : Yes
Used interface : Installed external ASPI interface

Used output format : Internal WAV Routines
Sample format : 44.100 Hz; 16 Bit; Stereo


TOC of the extracted CD

Track | Start | Length | Start sector | End sector
––––––––––––––––––––––––––––-
1 | 0:00.00 | 5:16.32 | 0 | 23731
2 | 5:16.32 | 5:23.38 | 23732 | 47994
3 | 10:39.70 | 4:11.67 | 47995 | 66886
4 | 14:51.62 | 5:00.14 | 66887 | 89400


Range status and errors

Selected range

Filename Z:\data\mp3\Seeding\Dream Theater\Promos\2001-Four Degrees Of Radio Edits\radioedits.wav

Peak level 100.0 %
Extraction speed 1.4 X
Range quality 100.0 %
Test CRC 02B06BBA
Copy CRC 02B06BBA
Copy OK

No errors occurred


AccurateRip summary

Track 1 accurately ripped (confidence 6) [94006622]
Track 2 accurately ripped (confidence 6) [64070405]
Track 3 accurately ripped (confidence 6) [618756D9]
Track 4 accurately ripped (confidence 6) [E5E6BB64]

All tracks accurately ripped

End of status report

AUDIOCHECKER v2.0 beta (build 457) - by Dester - opdester@freemail.hu
~~~~~~~~~~~~~~~~~~~~~~~~~~~~~~~~~~
-=== DO NOT EDIT THIS FILE! ===-

Path: …\2001 - Four Degrees Of Radio Edits

01 -=- radioedits.flac -=- CDDA (100%)

168812980

[Verification date: 08.09.2011 16:41:17]
[Disc ID: 00037aaf-000dd313-2d04a804]
Track [ CRC ] Status
01 [94006622] (06/06) Accurately ripped as in pressing(s) #1
02 [64070405] (06/06) Accurately ripped as in pressing(s) #1
03 [618756d9] (06/06) Accurately ripped as in pressing(s) #1
04 [e5e6bb64] (06/06) Accurately ripped as in pressing(s) #1

Track [ CRC32 ] [W/O NULL] [ LOG ]
– [02B06BBA] [0C4CC80A] CRC32
01 [EFDD9BEA] [38A48DD5]
02 [6557B37A] [D4A8B2D3]
03 [59060E7C] [E74FB079]
04 [C53BBE0B] [2CA0FC3F]

=================================

Dream Theater  - Discography on AH. Part 3: Promos (1996 - 2009) Re-up

Dream Theater - Taste The Memories (2002)
Progressive Metal | EAC Rip | Flac(Image) + Cue + Log & MP3 CBR 320Kbps
Scans Included | DTIFC 007 | ~ 551 or 206 Mb

Dream Theater  - Discography on AH. Part 3: Promos (1996 - 2009) Re-up

Tracklist:

01. Mission:Impossible (01:22)
02. Afterlife (05:48)
03. Under A Glass Moon (07:30)
04. Wait For Sleep (03:50)
05. Moon Bubbles (09:55)
06. To Live Forever (12:19)
07. Only A Matter Of Time (06:36)
08. Puppies On Acid (02:03)
09. Take The Time (10:46)
10. A Change Of Seasons (19:44)

Exact Audio Copy V1.0 beta 1 from 15. November 2010

EAC extraction logfile from 23. December 2010, 19:49

Dream Theater / Taste the Memories

Used drive : PLEXTOR CD-R PX-240A Adapter: 1 ID: 1

Read mode : Secure
Utilize accurate stream : Yes
Defeat audio cache : Yes
Make use of C2 pointers : No

Read offset correction : 6
Overread into Lead-In and Lead-Out : No
Fill up missing offset samples with silence : Yes
Delete leading and trailing silent blocks : No
Null samples used in CRC calculations : Yes
Used interface : Installed external ASPI interface

Used output format : Internal WAV Routines
Sample format : 44.100 Hz; 16 Bit; Stereo


TOC of the extracted CD

Track | Start | Length | Start sector | End sector
––––––––––––––––––––––––––––-
1 | 0:00.00 | 1:21.38 | 0 | 6112
2 | 1:21.38 | 6:08.03 | 6113 | 33715
3 | 7:29.41 | 7:13.29 | 33716 | 66219
4 | 14:42.70 | 3:49.55 | 66220 | 83449
5 | 18:32.50 | 9:52.00 | 83450 | 127849
6 | 28:24.50 | 12:18.69 | 127850 | 183268
7 | 40:43.44 | 6:43.06 | 183269 | 213499
8 | 47:26.50 | 1:56.12 | 213500 | 222211
9 | 49:22.62 | 10:48.18 | 222212 | 270829
10 | 60:11.05 | 19:42.01 | 270830 | 359480


Range status and errors

Selected range

Filename Z:\data\mp3\Seeding\Dream Theater\Promos\2002-Taste The Memories\tastethememories.wav

Peak level 100.0 %
Extraction speed 2.4 X
Range quality 100.0 %
Test CRC BB59B8EB
Copy CRC BB59B8EB
Copy OK

No errors occurred


AccurateRip summary

Track 1 accurately ripped (confidence 7) [AE8C0064]
Track 2 accurately ripped (confidence 7) [8CADF656]
Track 3 accurately ripped (confidence 7) [B8B6BA25]
Track 4 accurately ripped (confidence 7) [E63CCFE6]
Track 5 accurately ripped (confidence 8) [97840CB3]
Track 6 accurately ripped (confidence 7) [9CCB38BA]
Track 7 accurately ripped (confidence 7) [205A41A4]
Track 8 accurately ripped (confidence 7) [09681B5A]
Track 9 accurately ripped (confidence 7) [04FDC827]
Track 10 accurately ripped (confidence 7) [5D25F211]

All tracks accurately ripped

End of status report

AUDIOCHECKER v2.0 beta (build 457) - by Dester - opdester@freemail.hu
~~~~~~~~~~~~~~~~~~~~~~~~~~~~~~~~~~
-=== DO NOT EDIT THIS FILE! ===-

Path: …\2002 - Taste the Memories

01 -=- tastethememories.flac -=- CDDA (100%)

223388052

[Verification date: 08.09.2011 16:42:05]
[Disc ID: 0017e7b1-00c9a8f3-8712b90a]
Track [ CRC ] Status
01 [ae8c0064] (07/07) Accurately ripped as in pressing(s) #1
02 [8cadf656] (07/07) Accurately ripped as in pressing(s) #1
03 [b8b6ba25] (07/07) Accurately ripped as in pressing(s) #1
04 [e63ccfe6] (07/07) Accurately ripped as in pressing(s) #1
05 [97840cb3] (08/08) Accurately ripped as in pressing(s) #1
06 [9ccb38ba] (07/07) Accurately ripped as in pressing(s) #1
07 [205a41a4] (07/07) Accurately ripped as in pressing(s) #1
08 [09681b5a] (07/07) Accurately ripped as in pressing(s) #1
09 [04fdc827] (07/07) Accurately ripped as in pressing(s) #1
10 [5d25f211] (07/07) Accurately ripped as in pressing(s) #1

Track [ CRC32 ] [W/O NULL] [ LOG ]
– [BB59B8EB] [B4DA3478] CRC32
01 [355CBF6C] [E4CBC7B8]
02 [63A6C28B] [02CF65A8]
03 [3B00F4BC] [F38F957A]
04 [BA8FE0F7] [59C488A5]
05 [ADF296CF] [22D4FB10]
06 [C9EDEF6B] [D5F52E45]
07 [06A44BE2] [6EC112EF]
08 [D3F8D111] [310F75E9]
09 [4ED416E6] [FD194D52]
10 [BB168AAE] [91FA4228]

=================================

Dream Theater  - Discography on AH. Part 3: Promos (1996 - 2009) Re-up

Dream Theater - The Atco Demos (2002)
Progressive Metal | EAC Rip | Flac(Image) + Cue + Log & MP3 CBR 320Kbps
Scans Included | TODPRCD-02 | ~ 133 or 55 Mb

Dream Theater  - Discography on AH. Part 3: Promos (1996 - 2009) Re-up

Tracklist:

01. Metropolis Part1 'The Miracle And The Sleeper' (09:17)
02. To Live Forever (04:33)
03. Take The Time (08:08)

Exact Audio Copy V1.0 beta 1 from 15. November 2010

EAC extraction logfile from 23. December 2010, 19:03

Dream Theater / The Atco Demos

Used drive : LITE-ON DVDRW LH-20A1L Adapter: 4 ID: 0

Read mode : Secure
Utilize accurate stream : Yes
Defeat audio cache : Yes
Make use of C2 pointers : No

Read offset correction : 6
Overread into Lead-In and Lead-Out : No
Fill up missing offset samples with silence : Yes
Delete leading and trailing silent blocks : No
Null samples used in CRC calculations : Yes
Used interface : Installed external ASPI interface

Used output format : Internal WAV Routines
Sample format : 44.100 Hz; 16 Bit; Stereo


TOC of the extracted CD

Track | Start | Length | Start sector | End sector
––––––––––––––––––––––––––––-
1 | 0:00.01 | 9:17.32 | 1 | 41807
2 | 9:17.33 | 4:32.53 | 41808 | 62260
3 | 13:50.11 | 8:08.18 | 62261 | 98878


Range status and errors

Selected range

Filename Z:\data\mp3\Seeding\Dream Theater\Promos\2002-The Atco Demos\atco.wav

Peak level 71.1 %
Extraction speed 2.1 X
Range quality 100.0 %
Test CRC 0B287447
Copy CRC 0B287447
Copy OK

No errors occurred


AccurateRip summary

Track 1 accurately ripped (confidence 5) [39435024]
Track 2 accurately ripped (confidence 5) [E6881F14]
Track 3 accurately ripped (confidence 5) [22E1EC0A]

All tracks accurately ripped

End of status report

AUDIOCHECKER v2.0 beta (build 457) - by Dester - opdester@freemail.hu
~~~~~~~~~~~~~~~~~~~~~~~~~~~~~~~~~~
-=== DO NOT EDIT THIS FILE! ===-

Path: …\2002 - The Atco Demos

01 -=- atco.flac -=- CDDA (100%)

220753988

[Verification date: 08.09.2011 16:42:28]
[Disc ID: 000318c5-000a293c-22052603]
Pregap length 00:00:01.
Track [ CRC ] Status
01 [39435024] (05/05) Accurately ripped as in pressing(s) #1
02 [e6881f14] (05/05) Accurately ripped as in pressing(s) #1
03 [22e1ec0a] (05/05) Accurately ripped as in pressing(s) #1

Track [ CRC32 ] [W/O NULL]
– [0B287447] [05A185A2]
01 [EF7F21DD] [88EB74EF]
02 [4902A00C] [3A9C9E90]
03 [ACCF20C8] [048D01E6]

=================================

Dream Theater  - Discography on AH. Part 3: Promos (1996 - 2009) Re-up

Dream Theater - Graspop Festival 2002 (2003)
Progressive Metal | EAC Rip | Flac(Image) + Cue + Log & MP3 CBR 320Kbps
Scans Included | DTIFC 008 | ~ 569 or 188 Mb

Dream Theater  - Discography on AH. Part 3: Promos (1996 - 2009) Re-up

Tracklist:

01. The Glass Prison (14:04)
02. The Mirror (07:19)
03. Lie (06:35)
04. Peruvian Skies (07:06)
05. War Inside My Head (02:03)
06. The Test That Stumped Them All (04:56)
07. The Great Debate (13:30)
08. Home (11:12)
09. Pull Me Under/Master Of Puppets (10:26)

Exact Audio Copy V1.0 beta 1 from 15. November 2010

EAC extraction logfile from 23. December 2010, 21:56

Dream Theater / Graspop Festival 2002

Used drive : PLEXTOR CD-R PX-240A Adapter: 1 ID: 1

Read mode : Secure
Utilize accurate stream : Yes
Defeat audio cache : Yes
Make use of C2 pointers : No

Read offset correction : 6
Overread into Lead-In and Lead-Out : No
Fill up missing offset samples with silence : Yes
Delete leading and trailing silent blocks : No
Null samples used in CRC calculations : Yes
Used interface : Installed external ASPI interface

Used output format : Internal WAV Routines
Sample format : 44.100 Hz; 16 Bit; Stereo


TOC of the extracted CD

Track | Start | Length | Start sector | End sector
––––––––––––––––––––––––––––-
1 | 0:00.00 | 14:26.20 | 0 | 64969
2 | 14:26.20 | 6:56.60 | 64970 | 96229
3 | 21:23.05 | 6:47.15 | 96230 | 126769
4 | 28:10.20 | 6:53.64 | 126770 | 157808
5 | 35:04.09 | 2:03.31 | 157809 | 167064
6 | 37:07.40 | 4:56.35 | 167065 | 189299
7 | 42:04.00 | 13:30.00 | 189300 | 250049
8 | 55:34.00 | 11:11.63 | 250050 | 300437
9 | 66:45.63 | 10:25.65 | 300438 | 347377


Range status and errors

Selected range

Filename Z:\data\mp3\Seeding\Dream Theater\Promos\2003-Graspop Festival 2002\graspop.wav

Peak level 100.0 %
Extraction speed 1.3 X
Range quality 100.0 %
Test CRC C37B99A9
Copy CRC C37B99A9
Copy OK

No errors occurred


AccurateRip summary

Track 1 accurately ripped (confidence 8) [B9F21F8F]
Track 2 accurately ripped (confidence 8) [72F08A3A]
Track 3 accurately ripped (confidence 8) [22A15C55]
Track 4 accurately ripped (confidence 8) [0F782F0C]
Track 5 accurately ripped (confidence 8) [C28603F6]
Track 6 accurately ripped (confidence 8) [CD3D9267]
Track 7 accurately ripped (confidence 8) [65B7603C]
Track 8 accurately ripped (confidence 8) [34327189]
Track 9 accurately ripped (confidence 8) [D0DDE067]

All tracks accurately ripped

End of status report

AUDIOCHECKER v2.0 beta (build 457) - by Dester - opdester@freemail.hu
~~~~~~~~~~~~~~~~~~~~~~~~~~~~~~~~~~
-=== DO NOT EDIT THIS FILE! ===-

Path: …\2003 - Graspop Festival 2002

01 -=- graspop.flac -=- CDDA (100%)

181506676

Verification date: 08.09.2011 16:43:14]
[Disc ID: 0019f0aa-00ba77d0-7b121709]
Track [ CRC ] Status
01 [b9f21f8f] (08/10) Accurately ripped as in pressing(s) #1
02 [72f08a3a] (08/10) Accurately ripped as in pressing(s) #1
03 [22a15c55] (08/10) Accurately ripped as in pressing(s) #1
04 [0f782f0c] (08/10) Accurately ripped as in pressing(s) #1
05 [c28603f6] (08/10) Accurately ripped as in pressing(s) #1
06 [cd3d9267] (08/10) Accurately ripped as in pressing(s) #1
07 [65b7603c] (08/10) Accurately ripped as in pressing(s) #1
08 [34327189] (08/10) Accurately ripped as in pressing(s) #1
09 [d0dde067] (08/10) Accurately ripped as in pressing(s) #1

Track [ CRC32 ] [W/O NULL]
– [C37B99A9] [8F66CAA3]
01 [EA6943A4] [93A74BED]
02 [B751ABC7] [858F82B0]
03 [81585C9E] [B363375A]
04 [D3E94478] [30BA32CA]
05 [FEBF7AC8] [13FCB536]
06 [7F9B069B] [A345A880]
07 [8732832B] [EF5CDBD3]
08 [6D43901E] [D02FA870]
09 [E22232CF] [8558B473]

=================================

Dream Theater  - Discography on AH. Part 3: Promos (1996 - 2009) Re-up

Dream Theater - Stream Of Consciousness (2003)
Progressive Metal | EAC Rip | Flac(Image) + Cue + Log & MP3 CBR 320Kbps
Scans Included | TODPRCD-03 | ~ 525 or 186 Mb

Dream Theater  - Discography on AH. Part 3: Promos (1996 - 2009) Re-up

Tracklist:

01. Andy Rowland and Ant Law / Andy Rowland and Ant Law (12:13)
02. Daisuke Kurosawa / Daisuke Kurosawa (10:58)
03. Linear Sphere - Scent of Carbonite / Linear Sphere - Scent of Carbonite (11:19)
04. Richard Campbell / Richard Campbell (11:12)
05. Brian Wherry / Brian Wherry (10:59)
06. Redemption / Redemption (10:50)
07. Eric Clemenzi / Eric Clemenzi (10:32)

Exact Audio Copy V1.0 beta 1 from 15. November 2010

EAC extraction logfile from 23. December 2010, 19:12

Various Artists / Stream of Consciousness

Used drive : PLEXTOR CD-R PX-240A Adapter: 1 ID: 1

Read mode : Secure
Utilize accurate stream : Yes
Defeat audio cache : Yes
Make use of C2 pointers : No

Read offset correction : 6
Overread into Lead-In and Lead-Out : No
Fill up missing offset samples with silence : Yes
Delete leading and trailing silent blocks : No
Null samples used in CRC calculations : Yes
Used interface : Installed external ASPI interface

Used output format : Internal WAV Routines
Sample format : 44.100 Hz; 16 Bit; Stereo


TOC of the extracted CD

Track | Start | Length | Start sector | End sector
––––––––––––––––––––––––––––-
1 | 0:00.00 | 12:14.74 | 0 | 55123
2 | 12:14.74 | 10:58.01 | 55124 | 104474
3 | 23:13.00 | 11:19.15 | 104475 | 155414
4 | 34:32.15 | 11:12.01 | 155415 | 205815
5 | 45:44.16 | 10:59.29 | 205816 | 255269
6 | 56:43.45 | 10:50.15 | 255270 | 304034
7 | 67:33.60 | 10:29.41 | 304035 | 351250


Range status and errors

Selected range

Filename Z:\data\mp3\Seeding\Dream Theater\Promos\2003-Stream Of Consciousness\stream.wav

Peak level 100.0 %
Extraction speed 1.3 X
Range quality 100.0 %
Test CRC C1F47D92
Copy CRC C1F47D92
Copy OK

No errors occurred


AccurateRip summary

Track 1 accurately ripped (confidence 6) [2B091E1E]
Track 2 accurately ripped (confidence 6) [8E2B3F72]
Track 3 accurately ripped (confidence 6) [57A77B75]
Track 4 accurately ripped (confidence 6) [1DF38AE6]
Track 5 accurately ripped (confidence 6) [DD90800C]
Track 6 accurately ripped (confidence 6) [E6168871]
Track 7 accurately ripped (confidence 6) [F58176FC]

All tracks accurately ripped

End of status report

AUDIOCHECKER v2.0 beta (build 457) - by Dester - opdester@freemail.hu
~~~~~~~~~~~~~~~~~~~~~~~~~~~~~~~~~~
-=== DO NOT EDIT THIS FILE! ===-

Path: …\2003 - Stream of Consciousness

01 -=- stream.flac -=- CDDA (99%)

9417652

[Verification date: 08.09.2011 16:43:59]
[Disc ID: 0015d75a-0082601f-5e124b07]
Track [ CRC ] Status
01 [2b091e1e] (06/08) Accurately ripped as in pressing(s) #1
02 [8e2b3f72] (06/08) Accurately ripped as in pressing(s) #1
03 [57a77b75] (06/08) Accurately ripped as in pressing(s) #1
04 [1df38ae6] (06/08) Accurately ripped as in pressing(s) #1
05 [dd90800c] (06/08) Accurately ripped as in pressing(s) #1
06 [e6168871] (06/08) Accurately ripped as in pressing(s) #1
07 [f58176fc] (06/08) Accurately ripped as in pressing(s) #1

Track [ CRC32 ] [W/O NULL]
– [C1F47D92] [913160F8]
01 [0BA2C019] [A926AA14]
02 [21CA5BA3] [CA4BA0DC]
03 [335F0841] [9BAAE73A]
04 [7C0BD647] [B9C289AD]
05 [B80874E6] [43C91F9D]
06 [1329E57B] [8884893A]
07 [BE3D54B3] [060A3B96]

=================================

Dream Theater  - Discography on AH. Part 3: Promos (1996 - 2009) Re-up

Dream Theater - A Sort Of Homecoming (2005)
Progressive Metal | EAC Rip | Flac(Image) + Cue + Log & MP3 CBR 320Kbps
Scans Included | DTIFC 009 | ~ 515 or 182 Mb

Dream Theater  - Discography on AH. Part 3: Promos (1996 - 2009) Re-up

Tracklist:

01. NYC Radio Ad (01:01)
02. As I Am (07:10)
03. Honor Thy Father (09:57)
04. Caught In A Web Pt.1 (03:44)
05. Mike Portnoy Drum Solo Duet With Scott Rockenfield (07:35)
06. Beyond This Life Improv Jam (11:07)
07. The Oakdale Odyssey (05:42)
08. The Spirit Of St. Louis (06:17)
09. John Petrucci Guitar Spot (03:27)
10. Vacant (02:35)
11. Stream Of Consciousness (11:02)
12. Disappear (06:11)

Exact Audio Copy V1.0 beta 1 from 15. November 2010

EAC extraction logfile from 23. December 2010, 19:49

Dream Theater / A Sort Of Homecoming

Used drive : LITE-ON DVDRW LH-20A1L Adapter: 4 ID: 0

Read mode : Secure
Utilize accurate stream : Yes
Defeat audio cache : Yes
Make use of C2 pointers : No

Read offset correction : 6
Overread into Lead-In and Lead-Out : No
Fill up missing offset samples with silence : Yes
Delete leading and trailing silent blocks : No
Null samples used in CRC calculations : Yes
Used interface : Installed external ASPI interface

Used output format : Internal WAV Routines
Sample format : 44.100 Hz; 16 Bit; Stereo


TOC of the extracted CD

Track | Start | Length | Start sector | End sector
––––––––––––––––––––––––––––-
1 | 0:00.00 | 1:01.00 | 0 | 4574
2 | 1:01.00 | 7:10.00 | 4575 | 36824
3 | 8:11.00 | 9:57.00 | 36825 | 81599
4 | 18:08.00 | 3:44.00 | 81600 | 98399
5 | 21:52.00 | 7:35.00 | 98400 | 132524
6 | 29:27.00 | 11:07.00 | 132525 | 182549
7 | 40:34.00 | 5:42.00 | 182550 | 208199
8 | 46:16.00 | 6:17.00 | 208200 | 236474
9 | 52:33.00 | 3:27.00 | 236475 | 251999
10 | 56:00.00 | 2:35.00 | 252000 | 263624
11 | 58:35.00 | 11:02.00 | 263625 | 313274
12 | 69:37.00 | 6:10.66 | 313275 | 341090


Range status and errors

Selected range

Filename Z:\data\mp3\Seeding\Dream Theater\Promos\2004-A Sort Of Homecoming\homecoming.wav

Peak level 98.9 %
Extraction speed 0.3 X
Range quality 100.0 %
Test CRC 7526DBFE
Copy CRC 7526DBFE
Copy OK

No errors occurred


AccurateRip summary

Track 1 accurately ripped (confidence 12) [88F50730]
Track 2 accurately ripped (confidence 12) [58389BE3]
Track 3 accurately ripped (confidence 12) [5893AAB9]
Track 4 accurately ripped (confidence 12) [B250F71D]
Track 5 accurately ripped (confidence 12) [2594E4F2]
Track 6 accurately ripped (confidence 12) [12B23268]
Track 7 accurately ripped (confidence 12) [1770B3E3]
Track 8 accurately ripped (confidence 12) [36DE7B6F]
Track 9 accurately ripped (confidence 12) [65B81F99]
Track 10 accurately ripped (confidence 12) [2D4A8CBD]
Track 11 accurately ripped (confidence 12) [A32572FF]
Track 12 accurately ripped (confidence 12) [D7C958EB]

All tracks accurately ripped

End of status report

AUDIOCHECKER v2.0 beta (build 457) - by Dester - opdester@freemail.hu
~~~~~~~~~~~~~~~~~~~~~~~~~~~~~~~~~~
-=== DO NOT EDIT THIS FILE! ===-

Path: …\2005 - A Sort Of Homecoming

01 -=- homecoming.flac -=- CDDA (100%)

97006260

[Verification date: 08.09.2011 16:44:47]
[Disc ID: 0020d2e5-01378ed3-ad11c30c]
Track [ CRC ] Status
01 [88f50730] (13/15) Accurately ripped as in pressing(s) #1
02 [58389be3] (13/15) Accurately ripped as in pressing(s) #1
03 [5893aab9] (13/15) Accurately ripped as in pressing(s) #1
04 [b250f71d] (13/15) Accurately ripped as in pressing(s) #1
05 [2594e4f2] (13/15) Accurately ripped as in pressing(s) #1
06 [12b23268] (13/15) Accurately ripped as in pressing(s) #1
07 [1770b3e3] (13/15) Accurately ripped as in pressing(s) #1
08 [36de7b6f] (13/15) Accurately ripped as in pressing(s) #1
09 [65b81f99] (13/15) Accurately ripped as in pressing(s) #1
10 [2d4a8cbd] (13/15) Accurately ripped as in pressing(s) #1
11 [a32572ff] (13/15) Accurately ripped as in pressing(s) #1
12 [d7c958eb] (13/15) Accurately ripped as in pressing(s) #1

Track [ CRC32 ] [W/O NULL] [ LOG ]
– [7526DBFE] [46BF0B37] CRC32
01 [33F0B1A4] [F1C754D3]
02 [8EF6DF02] [434975D6]
03 [A79A0D41] [623253EF]
04 [58BBBCF8] [873AF1DC]
05 [F2625686] [1D53065C]
06 [F0EA6404] [134979D9]
07 [7497F928] [E58CBF8F]
08 [1F2C3DE2] [FFE41922]
09 [027924C7] [3F0CA105]
10 [65D8DD70] [A3DF23D2]
11 [25E7837B] [A9678DCA]
12 [EB94A37F] [545E0D6D]

=================================

Dream Theater  - Discography on AH. Part 3: Promos (1996 - 2009) Re-up

Dream Theater - Images And Words. 15th Anniversary Performance (2007)
Progressive Metal | EAC Rip | Flac(Image) + Cue + Log & MP3 CBR 320Kbps
Scans Included | DTIFC 010 | ~ 537 or 175 Mb

Dream Theater  - Discography on AH. Part 3: Promos (1996 - 2009) Re-up

Tracklist:

01. Pull Me Under (08:28)
02. Another Day (05:09)
03. Take the Time (10:41)
04. Surrounded (13:03)
05. Metropolis (10:13)
06. Under a Glass Moon (07:29)
07. Wait for Sleep (03:25)
08. Learning to Live (13:11)

Exact Audio Copy V1.0 beta 1 from 15. November 2010

EAC extraction logfile from 23. December 2010, 13:21

Dream Theater / Images and Words - 15th Anniversary Performance

Used drive : LITE-ON DVDRW LH-20A1L Adapter: 4 ID: 0

Read mode : Secure
Utilize accurate stream : Yes
Defeat audio cache : Yes
Make use of C2 pointers : No

Read offset correction : 6
Overread into Lead-In and Lead-Out : No
Fill up missing offset samples with silence : Yes
Delete leading and trailing silent blocks : No
Null samples used in CRC calculations : Yes
Used interface : Installed external ASPI interface

Used output format : Internal WAV Routines
Sample format : 44.100 Hz; 16 Bit; Stereo


TOC of the extracted CD

Track | Start | Length | Start sector | End sector
––––––––––––––––––––––––––––-
1 | 0:00.00 | 8:27.70 | 0 | 38094
2 | 8:27.70 | 5:08.57 | 38095 | 61251
3 | 13:36.52 | 10:41.23 | 61252 | 109349
4 | 24:18.00 | 13:03.16 | 109350 | 168090
5 | 37:21.16 | 10:13.15 | 168091 | 214080
6 | 47:34.31 | 7:29.05 | 214081 | 247760
7 | 55:03.36 | 3:25.22 | 247761 | 263157
8 | 58:28.58 | 13:10.66 | 263158 | 322473


Range status and errors

Selected range

Filename Z:\data\mp3\Seeding\Dream Theater\Promos\2007-Images And Words 15th Anniversary Performance\images15th.wav

Peak level 100.0 %
Extraction speed 0.8 X
Range quality 100.0 %
Test CRC A414FF8D
Copy CRC A414FF8D
Copy OK

No errors occurred


AccurateRip summary

Track 1 accurately ripped (confidence 7) [70A449AD]
Track 2 accurately ripped (confidence 7) [8206095C]
Track 3 accurately ripped (confidence 7) [69F7FFAD]
Track 4 accurately ripped (confidence 7) [9AFCF074]
Track 5 accurately ripped (confidence 7) [15A676BB]
Track 6 accurately ripped (confidence 7) [9C67AF45]
Track 7 accurately ripped (confidence 7) [4C4B2E14]
Track 8 accurately ripped (confidence 7) [ED4856EE]

All tracks accurately ripped

End of status report

AUDIOCHECKER v2.0 beta (build 457) - by Dester - opdester@freemail.hu
~~~~~~~~~~~~~~~~~~~~~~~~~~~~~~~~~~
-=== DO NOT EDIT THIS FILE! ===-

Path: …\2007 - Images and Words - 15th Anniversary Performance

01 -=- images15th.flac -=- CDDA (100%)

214508308

[Verification date: 08.09.2011 16:45:31]
[Disc ID: 0015bb86-0091eff1-6010cb08]
Track [ CRC ] Status
01 [70a449ad] (06/06) Accurately ripped as in pressing(s) #1
02 [8206095c] (06/06) Accurately ripped as in pressing(s) #1
03 [69f7ffad] (06/06) Accurately ripped as in pressing(s) #1
04 [9afcf074] (06/06) Accurately ripped as in pressing(s) #1
05 [15a676bb] (06/06) Accurately ripped as in pressing(s) #1
06 [9c67af45] (06/06) Accurately ripped as in pressing(s) #1
07 [4c4b2e14] (06/06) Accurately ripped as in pressing(s) #1
08 [ed4856ee] (06/06) Accurately ripped as in pressing(s) #1

Track [ CRC32 ] [W/O NULL] [ LOG ]
– [A414FF8D] [F334BDB5] CRC32
01 [AF0E013B] [D83DC1AE]
02 [A1CC950F] [1867FA1B]
03 [7CA20CB5] [BD43815E]
04 [B89AB2E9] [E119B6E7]
05 [B81704E4] [4D9A5CC9]
06 [B68DCE2B] [D86E86A3]
07 [5297A140] [0EAA92E2]
08 [D442FE5C] [8AB3C08D]

=================================

Dream Theater  - Discography on AH. Part 3: Promos (1996 - 2009) Re-up

Dream Theater - Lifting Shadow (Companion CD) (2007)
Progressive Metal | EAC Rip | Flac(Image) + Cue + Log & MP3 CBR 320Kbps
Scans Included | ~ 528 or 179 Mb

Dream Theater  - Discography on AH. Part 3: Promos (1996 - 2009) Re-up

Tracklist:

01. Another Won (05:29)
02. Two Far (05:29)
03. Status Seeker (04:21)
04. Don't Look Past Me (06:28)
05. Under A Glass Moon (08:07)
06. Caught In A Web (06:00)
07. You Or Me (06:26)
08. Burning My Soul (06:24)
09. Through Her Eyes (06:55)
10. Your Majesty (05:15)
11. Metropolis (14:27)

Exact Audio Copy V1.0 beta 1 from 15. November 2010

EAC extraction logfile from 24. December 2010, 20:16

Dream Theater / Lifting Shadows

Used drive : PLEXTOR CD-R PX-240A Adapter: 1 ID: 1

Read mode : Secure
Utilize accurate stream : Yes
Defeat audio cache : Yes
Make use of C2 pointers : No

Read offset correction : 6
Overread into Lead-In and Lead-Out : No
Fill up missing offset samples with silence : Yes
Delete leading and trailing silent blocks : No
Null samples used in CRC calculations : Yes
Used interface : Installed external ASPI interface

Used output format : Internal WAV Routines
Sample format : 44.100 Hz; 16 Bit; Stereo


TOC of the extracted CD

Track | Start | Length | Start sector | End sector
––––––––––––––––––––––––––––-
1 | 0:00.00 | 5:30.63 | 0 | 24812
2 | 5:30.63 | 5:28.54 | 24813 | 49466
3 | 10:59.42 | 4:21.12 | 49467 | 69053
4 | 15:20.54 | 6:27.57 | 69054 | 98135
5 | 21:48.36 | 8:06.41 | 98136 | 134626
6 | 29:55.02 | 6:00.03 | 134627 | 161629
7 | 35:55.05 | 6:26.26 | 161630 | 190605
8 | 42:21.31 | 6:24.03 | 190606 | 219408
9 | 48:45.34 | 6:54.56 | 219409 | 250514
10 | 55:40.15 | 5:15.24 | 250515 | 274163
11 | 60:55.39 | 14:25.33 | 274164 | 339071


Range status and errors

Selected range

Filename Z:\data\mp3\Seeding\Dream Theater\Promos\2007-Lifting Shadow (Companion CD)\liftingshadows.wav

Peak level 98.8 %
Extraction speed 1.6 X
Range quality 100.0 %
Test CRC 839BFA26
Copy CRC 839BFA26
Copy OK

No errors occurred


AccurateRip summary

Track 1 accurately ripped (confidence 5) [5044819A]
Track 2 accurately ripped (confidence 5) [BD393B75]
Track 3 accurately ripped (confidence 6) [09648325]
Track 4 accurately ripped (confidence 5) [768273D6]
Track 5 accurately ripped (confidence 6) [E1FC302A]
Track 6 accurately ripped (confidence 6) [9C12440A]
Track 7 accurately ripped (confidence 5) [2DF739FD]
Track 8 accurately ripped (confidence 6) [46817C24]
Track 9 accurately ripped (confidence 6) [1D2F53AC]
Track 10 accurately ripped (confidence 6) [468F21C5]
Track 11 accurately ripped (confidence 5) [A778FD2E]

All tracks accurately ripped

End of status report

AUDIOCHECKER v2.0 beta (build 457) - by Dester - opdester@freemail.hu
~~~~~~~~~~~~~~~~~~~~~~~~~~~~~~~~~~
-=== DO NOT EDIT THIS FILE! ===-

Path: …\2007 - Lifting Shadows

01 -=- liftingshadows.flac -=- CDDA (100%)

2902596

[Verification date: 08.09.2011 16:46:15]
[Disc ID: 001ba425-00f40a63-9311a80b]
Track [ CRC ] Status
01 [5044819a] (05/05) Accurately ripped as in pressing(s) #1
02 [bd393b75] (05/05) Accurately ripped as in pressing(s) #1
03 [09648325] (06/06) Accurately ripped as in pressing(s) #1
04 [768273d6] (05/05) Accurately ripped as in pressing(s) #1
05 [e1fc302a] (06/06) Accurately ripped as in pressing(s) #1
06 [9c12440a] (06/06) Accurately ripped as in pressing(s) #1
07 [2df739fd] (05/05) Accurately ripped as in pressing(s) #1
08 [46817c24] (06/06) Accurately ripped as in pressing(s) #1
09 [1d2f53ac] (06/06) Accurately ripped as in pressing(s) #1
10 [468f21c5] (06/06) Accurately ripped as in pressing(s) #1
11 [a778fd2e] (05/05) Accurately ripped as in pressing(s) #1

Track [ CRC32 ] [W/O NULL] [ LOG ]
– [839BFA26] [BA4465C0] CRC32
01 [471B0A9D] [02B271B3]
02 [B24A5730] [2D499C0B]
03 [43E79E47] [DD636FC6]
04 [8C11BEA0] [4DAF3547]
05 [5B4289CB] [95ECB74E]
06 [01C1F8F4] [2B9FC0C9]
07 [246BF7A4] [6AF224CB]
08 [C49FF3B3] [7C6A6E00]
09 [9DCF6CA2] [EF67CA35]
10 [470978D9] [8A835DFD]
11 [9AA02CB2] [4C5D97D3]

=================================

Dream Theater  - Discography on AH. Part 3: Promos (1996 - 2009) Re-up

Dream Theater - Progressive Nation 2008 (2009)
Progressive Metal | EAC Rip | Flac(Image) + Cue + Log & MP3 CBR 320Kbps
Scans Included | DTIFC 011 | ~ 593 or 188 Mb

Dream Theater  - Discography on AH. Part 3: Promos (1996 - 2009) Re-up

Tracklist:

01. Intro (01:27)
02. Also Sprach Zarathustra (01:33)
03. In The Presence Of Enemies Pt. 1 (08:55)
04. Beyond This Live (11:15)
05. Misunderstood (08:22)
06. Erotomania (07:09)
07. Voices (10:03)
08. Repentance (10:43)
09. The Dark Nintendo Night (02:58)
10. Encore Medley - Metropolis - Learning To Live - ACOS The Crimson Sunset (15:01)

Exact Audio Copy V1.0 beta 1 from 15. November 2010

EAC extraction logfile from 23. December 2010, 13:51

Dream Theater / Progressive Nation 2008

Used drive : PLEXTOR CD-R PX-240A Adapter: 1 ID: 1

Read mode : Secure
Utilize accurate stream : Yes
Defeat audio cache : Yes
Make use of C2 pointers : No

Read offset correction : 6
Overread into Lead-In and Lead-Out : No
Fill up missing offset samples with silence : Yes
Delete leading and trailing silent blocks : No
Null samples used in CRC calculations : Yes
Used interface : Installed external ASPI interface

Used output format : Internal WAV Routines
Sample format : 44.100 Hz; 16 Bit; Stereo


TOC of the extracted CD

Track | Start | Length | Start sector | End sector
––––––––––––––––––––––––––––-
1 | 0:00.00 | 1:26.43 | 0 | 6492
2 | 1:26.43 | 1:32.61 | 6493 | 13453
3 | 2:59.29 | 8:54.47 | 13454 | 53550
4 | 11:54.01 | 11:14.50 | 53551 | 104150
5 | 23:08.51 | 8:21.43 | 104151 | 141768
6 | 31:30.19 | 7:08.56 | 141769 | 173924
7 | 38:39.00 | 10:03.20 | 173925 | 219169
8 | 48:42.20 | 10:43.05 | 219170 | 267399
9 | 59:25.25 | 2:57.71 | 267400 | 280745
10 | 62:23.21 | 15:01.04 | 280746 | 348324


Range status and errors

Selected range

Filename Z:\data\mp3\Seeding\Dream Theater\Promos\2009-Progressive Nation 2008\prognation.wav

Peak level 100.0 %
Extraction speed 0.9 X
Range quality 100.0 %
Test CRC A1B6652A
Copy CRC A1B6652A
Copy OK

No errors occurred


AccurateRip summary

Track 1 accurately ripped (confidence 6) [69201060]
Track 2 accurately ripped (confidence 6) [9EB3AF13]
Track 3 accurately ripped (confidence 6) [2477CFB7]
Track 4 accurately ripped (confidence 6) [57CD7D7F]
Track 5 accurately ripped (confidence 6) [C76FFAFE]
Track 6 accurately ripped (confidence 6) [1C9D5E49]
Track 7 accurately ripped (confidence 6) [2EB31FA6]
Track 8 accurately ripped (confidence 6) [D6392DF4]
Track 9 accurately ripped (confidence 6) [4AF8D263]
Track 10 accurately ripped (confidence 6) [7238FE34]

All tracks accurately ripped

End of status report

AUDIOCHECKER v2.0 beta (build 457) - by Dester - opdester@freemail.hu
~~~~~~~~~~~~~~~~~~~~~~~~~~~~~~~~~~
-=== DO NOT EDIT THIS FILE! ===-

Path: …\2009 - Progressive Nation 2008

01 -=- prognation.flac -=- CDDA (100%)

181556900

[Verification date: 08.09.2011 16:47:05]
[Disc ID: 00188d18-00d05d60-8c12240a]
Track [ CRC ] Status
01 [69201060] (06/06) Accurately ripped as in pressing(s) #1
02 [9eb3af13] (06/06) Accurately ripped as in pressing(s) #1
03 [2477cfb7] (06/06) Accurately ripped as in pressing(s) #1
04 [57cd7d7f] (06/06) Accurately ripped as in pressing(s) #1
05 [c76ffafe] (06/06) Accurately ripped as in pressing(s) #1
06 [1c9d5e49] (06/06) Accurately ripped as in pressing(s) #1
07 [2eb31fa6] (06/06) Accurately ripped as in pressing(s) #1
08 [d6392df4] (06/06) Accurately ripped as in pressing(s) #1
09 [4af8d263] (06/06) Accurately ripped as in pressing(s) #1
10 [7238fe34] (06/06) Accurately ripped as in pressing(s) #1

Track [ CRC32 ] [W/O NULL] [ LOG ]
– [A1B6652A] [34537742] CRC32
01 [AE3C841F] [615A9D54]
02 [FD056467] [FAA07120]
03 [268C6486] [75503297]
04 [0CCD1164] [B33AE303]
05 [95B33686] [DB2CBE56]
06 [03218B60] [3905AAA3]
07 [2E0DC64A] [A92D5FA7]
08 [92E5AA40] [57CEC392]
09 [D907E65F] [81244A85]
10 [E9F9C837] [4F1A3FCA]

All thanks go to the original releasers …

Download Dream Theater - Discography on AH. Part 3: Promos (1996 - 2009):