Subcategories

Drive, She Said - Drive, She Said (1989)

Posted By: Andi_Deris
Drive, She Said - Drive, She Said (1989)

Drive, She Said - Drive, She Said (1989)
EAC Rip | FLAC: Image+Cue+Log | 325 Mb | MP3 CBR 320 kbps | 122 Mb | Scans | Time: 44:44
Genre: Melodic Hard Rock, AOR | Label: CBS Records Inc. | Cat.: ZK 45102

Formed in 1988, and having released their first album on CBS Associated in 1989 it’s a fairly typical story: critically acclaimed album, dropped from American label (in the wake of the new grunge movement), same record is well received in Europe and becomes number one on various highly respected UK periodicals, members win top honors in polls and tour UK and various parts of Europe, and go on to release 2 more records for Music For Nations. The band’s sound is characterized by Al’s stellar vocals, anthemic songs, scathing musicianship and deep tapestries of keys and guitars.

Drive, She Said - Drive, She Said (1989)




Drive, She Said - Drive, She Said (1989)


Track Listing

01. If This Is Love (4:23)
02. Hard Way Home (4:05)
03. Don't You Know (3:45)
04. But For You (4:29)
05. Love Has No Pride (4:08)
06. Maybe It's Love (5:02)
07. Hold On (Hands Around Your Heart) (4:21)
08. If I Told You (5:13)
09. I Close My Eyes (4:50)
10. As She Touches Me (Why Can't I Believe) (4:28)

Produced by Mark Mangold, Al Fritsch, John Loungo and Aldo Nova

• Al Fritsch - vocals, guitar and keyboards
• Mark Mangold - keyboards, backing vocals, drums

Drive, She Said - Drive, She Said (1989)


Exact Audio Copy V0.99 prebeta 5 from 4. May 2009

EAC extraction logfile from 17. April 2010, 18:04

Drive She Said / Drive She Said

Used drive : PIONEER DVD-RW DVR-215D Adapter: 3 ID: 0

Read mode : Secure
Utilize accurate stream : Yes
Defeat audio cache : Yes
Make use of C2 pointers : No

Read offset correction : 48
Overread into Lead-In and Lead-Out : No
Fill up missing offset samples with silence : Yes
Delete leading and trailing silent blocks : No
Null samples used in CRC calculations : Yes
Used interface : Native Win32 interface for Win NT & 2000

Used output format : User Defined Encoder
Selected bitrate : 768 kBit/s
Quality : High
Add ID3 tag : No
Command line compressor : C:\Program Files\Exact Audio Copy\FLAC\FLAC.EXE
Additional command line options : -8 -V %s


TOC of the extracted CD

Track | Start | Length | Start sector | End sector
––––––––––––––––––––––––––––-
1 | 0:00.00 | 4:23.67 | 0 | 19791
2 | 4:23.67 | 4:05.65 | 19792 | 38231
3 | 8:29.57 | 3:45.13 | 38232 | 55119
4 | 12:14.70 | 4:29.65 | 55120 | 75359
5 | 16:44.60 | 4:08.67 | 75360 | 94026
6 | 20:53.52 | 5:02.18 | 94027 | 116694
7 | 25:55.70 | 4:21.12 | 116695 | 136281
8 | 30:17.07 | 5:13.18 | 136282 | 159774
9 | 35:30.25 | 4:50.30 | 159775 | 181554
10 | 40:20.55 | 4:28.27 | 181555 | 201681


Range status and errors

Selected range

Filename C:\lossless\my Rips\Drive, She Said\Drive, She Said\Drive She Said - Drive She Said.wav

Peak level 99.9 %
Range quality 100.0 %
Test CRC D5CC14EE
Copy CRC D5CC14EE
Copy OK

No errors occurred


AccurateRip summary

Track 1 accurately ripped (confidence 1) [9823F094]
Track 2 accurately ripped (confidence 1) [4D344B19]
Track 3 accurately ripped (confidence 1) [0E68A6E7]
Track 4 accurately ripped (confidence 1) [F1A9E2F5]
Track 5 accurately ripped (confidence 1) [338D2DE0]
Track 6 accurately ripped (confidence 1) [4F5FC7D2]
Track 7 accurately ripped (confidence 1) [657D4D9D]
Track 8 accurately ripped (confidence 1) [00A0188A]
Track 9 accurately ripped (confidence 1) [B4B68041]
Track 10 accurately ripped (confidence 1) [C31B96EC]

All tracks accurately ripped

End of status report


Many thanks to the original uploader: boets


Dreamtide 2001 What You Believe In (EP) [Japanese Ed.]
Dreamtide 2001 Here Comes The Flood [Japanese Ed.]
Dreamtide 2003 Dreams For The Darling [Japanese Ed.]
Dreamtide 2008 Dream And Deliver [Japanese Ed.]

Drive, She Said 1991 Drivin' Wheel
Drive, She Said 1993 Excelerator
Drive, She Said 2016 Pedal To The Metal

Fair Warning 1995 Rainmaker [Japanese Ed. 2006]
Fair Warning 1997 Go! [Japan 1st Press]
Fair Warning 1997 Go! [Japan SHM-CD, 2009] 2CD
Fair Warning 2000 4 (Four) [Japanese Ed.]
Fair Warning 2001 A Decade Of Fair Warning •Complete Best• [Japanese Ed.] 2CD
Fair Warning 2006 Brother's Keeper [Japan SHM-CD, 2009]
Fair Warning 2009 Aura [Limited Ed. Digi Pack]
Fair Warning 2010 Talking Ain't Enough - Live In Tokyo [2xDVD]
Fair Warning 2013 Sundancer [Japan SHM-CD] 2CD

Last Autumn's Dream 2003-2011 Studio Discography [Japanese Ed.]
Last Autumn's Dream 2012 Ten Tangerine Tales [Japanese Ed.]
Last Autumn's Dream 2013 Platform ~10th Anniversary Best~ [Japanese Ed.]
Last Autumn's Dream 2014 Level Eleven [Japanese Ed.] 2CD
Last Autumn's Dream 2015 Paintings [Japanese Ed.]

Soul Doctor 2001 Soul Doctor [Japanese Ed.]
Soul Doctor 2002 System Go Wild![Japanese Ed.]
Soul Doctor 2005 For A Fistful Of Dollars [Japanese Ed.]
Soul Doctor 2007 Blood Runs Cold [Japanese Ed.]
Soul Doctor 2008 That's Live! [Japanese Ed. 2009]
Soul Doctor 2009 Way Back To The Bone [Japanese Ed.]

Zeno 1986 Zeno (1st Press/Remastered) [Japanese Ed.]
Zeno 1995 Zenology [Japanese Ed. 2005]
Zeno 1998 Listen To The Light [Japanese Ed. 2005]
Zeno 2005 Zenology II [Japanese Ed.]
Zeno 2006 Runway To The Gods [Japanese Ed.]
–––––––––––
Nitroflare