Subcategories

VA - Dubai Eklektic 2: Complied and Mixed by DJ Ravin and DJ Nicholas Sechaud (2011) 2CDs [Re-Up]

Posted By: Designol
VA - Dubai Eklektic 2: Complied and Mixed by DJ Ravin and DJ Nicholas Sechaud (2011) 2CDs [Re-Up]

VA - Dubai Eklektic 2: Complied and Mixed by DJ Ravin and DJ Nicholas Sechaud (2011) 2CD
EAC | FLAC | Tracks (Cue&Log) ~ 964 Gb | Mp3 (CBR320) ~ 329 Mb | Scans ~ 56 Mb
Downtempo, House, Lounge, Ethnic Fusion | Label: Avril Production | # AV1114 | 02:23:24

The Grosvenor House Hotel Dubai is at the forefront of perfection, in the heart of Dubai Marina, a place dedicated to the culture, the creation and excellence. This compilation reflects the atmosphere electro Eastern chic and elegant that prevails … DJ and Producer, Ravin has achieved many successful compilations: Buddha Bar, Siddharta, Fashion TV Club Session, Nirvana Lounge, Clubbing with DJ Ravin, and compilations of the luxurious Huvafen Fushi Maldives. Double gold record with Buddha Bar III, VI, VII, IX. Resident DJ of Buddha Bar at the Hotel Grosvenor House Dubai, the Canadian Sechaud Nicholas knows the international circuit of large clubs like Ibiza and Milan and has worked with Versace and Gucci. It perfectly combines Eastern and Western rhythms.

VA - Dubai Eklektic 2: Complied and Mixed by DJ Ravin and DJ Nicholas Sechaud (2011) 2CDs [Re-Up]


Tracklist:

CD1 - Complied and Mixed by DJ Ravin:

01. Andreas Agiannitopoulos - Rain of Love (06:35)
02. Adel Tabu & Boddhi Satva - Moina Ya Mokili (Jaso Remixes) (05:02)
03. Zepherin Saint - Midnight Mawal (Extended Vocal Mix) (06:06)
04. White Noise - A Swing Thing (03:55)
05. Audio Junkies Feat. Mei Finegold - Deeper (05:24)
06. Rainer Weichhold - Tango For Noemi (Chase Buch & Nick Olivetti Remix) (06:04)
07. Stan Kolev Feat. Albena Veskova - Event Horizon (Original Mix) (06:14)
08. Amloop - Caminhando e Cantando (Paula Pedroza Remix) (06:21)
09. Southern Coast - Light Pride (06:04)
10. Jamie Lewis Feat. Kim Cooper - 1001 (1001 Mix) (06:35)
11. Matan Caspi - Desert Flower (Original Mix) (06:30)
12. Ozark Henry - Christine (Faskil Vocal Mix) (07:00)
13. Gofman & Tsukerman - Ethnica (Club Mix) (05:06)

CD2 - Compiled And Mixed By DJ Nicholas Sechaud:

01. Out Of Sight - Float On By (Like The Wind) (04:08)
02. Victor Nebut & Eric Negel - Close my eyes (03:51)
03. Clelia Felix - Stuck In A Dream (03:53)
04. Ganga - When I Close My Eyes (04:31)
05. Adani & Wolf - Don't Be Afraid Of Me (05:47)
06. Christos Stylianou Feat. Maria Latsino - Be With You (04:54)
07. Novalima - Yo Voy (Faze Action Remix) (04:04)
08. Margo Sol - Serenade (Sambox Deep Remix) (06:02)
09. Tevo Howard Feat. Tracey Thor - Without Me feat. Tracey Thorn (06:13)
10. Agoria - Panta Rei (05:42)
11. NUfrequency Feat. Shara Nelson - Go That Deep (06:27)
12. Terry Grant - I Never Sleep (Aki Bergen Remix) (07:02)
13. Dj Pippi Feat. Marcial Eric Negel & Noem - Once Lunas (03:42)


Exact Audio Copy V1.0 beta 1 from 15. November 2010

EAC extraction logfile from 29. March 2012, 12:38

Various Artists / Dubai Eklektic 2 - Cd1 by Dj Ravin

Used drive : ASUS DRW-24B3ST Adapter: 3 ID: 0

Read mode : Secure
Utilize accurate stream : Yes
Defeat audio cache : Yes
Make use of C2 pointers : No

Read offset correction : 6
Overread into Lead-In and Lead-Out : No
Fill up missing offset samples with silence : Yes
Delete leading and trailing silent blocks : No
Null samples used in CRC calculations : Yes
Used interface : Native Win32 interface for Win NT & 2000
Gap handling : Appended to previous track

Used output format : User Defined Encoder
Selected bitrate : 1024 kBit/s
Quality : High
Add ID3 tag : No
Command line compressor : C:\Program Files\Exact Audio Copy\Flac\flac.exe
Additional command line options : -8 -V -T "ARTIST=%a" -T "TITLE=%t" -T "ALBUM=%g" -T "DATE=%y" -T "TRACKNUMBER=%n" -T "GENRE=%m" -T "COMMENT=ripped by Oleandris" %s


TOC of the extracted CD

Track | Start | Length | Start sector | End sector
––––––––––––––––––––––––––––-
1 | 0:00.00 | 6:35.02 | 0 | 29626
2 | 6:35.02 | 5:01.74 | 29627 | 52275
3 | 11:37.01 | 6:06.38 | 52276 | 79763
4 | 17:43.39 | 3:55.19 | 79764 | 97407
5 | 21:38.58 | 5:24.31 | 97408 | 121738
6 | 27:03.14 | 6:04.60 | 121739 | 149098
7 | 33:07.74 | 6:14.30 | 149099 | 177178
8 | 39:22.29 | 6:21.42 | 177179 | 205795
9 | 45:43.71 | 6:04.52 | 205796 | 233147
10 | 51:48.48 | 6:35.46 | 233148 | 262818
11 | 58:24.19 | 6:29.74 | 262819 | 292067
12 | 64:54.18 | 7:00.01 | 292068 | 323568
13 | 71:54.19 | 5:06.38 | 323569 | 346556


Track 1

Filename F:\ЗАГРУЗКИ\ Dubai Elektic I, II (2010, 2011)\Dubai Elektic II 2CD (2011)\CD1 - Compiled And Mixed By DJ Ravin\01. Andreas Agiannitopoulos - Rain of Love.wav

Pre-gap length 0:00:02.00

Peak level 98.8 %
Extraction speed 1.2 X
Track quality 100.0 %
Test CRC 0541886E
Copy CRC 0541886E
Track not present in AccurateRip database
Copy OK

Track 2

Filename F:\ЗАГРУЗКИ\ Dubai Elektic I, II (2010, 2011)\Dubai Elektic II 2CD (2011)\CD1 - Compiled And Mixed By DJ Ravin\02. Adel Tabu & Boddhi Satva - Moina Ya Mokili (Jaso Remixes).wav

Peak level 98.8 %
Extraction speed 1.3 X
Track quality 100.0 %
Test CRC D456E42E
Copy CRC D456E42E
Track not present in AccurateRip database
Copy OK

Track 3

Filename F:\ЗАГРУЗКИ\ Dubai Elektic I, II (2010, 2011)\Dubai Elektic II 2CD (2011)\CD1 - Compiled And Mixed By DJ Ravin\03. Zepherin Saint - Midnight Mawal (Extended Vocal Mix).wav

Peak level 98.8 %
Extraction speed 1.5 X
Track quality 100.0 %
Test CRC 037D66A8
Copy CRC 037D66A8
Track not present in AccurateRip database
Copy OK

Track 4

Filename F:\ЗАГРУЗКИ\ Dubai Elektic I, II (2010, 2011)\Dubai Elektic II 2CD (2011)\CD1 - Compiled And Mixed By DJ Ravin\04. White Noise - A Swing Thing.wav

Peak level 98.8 %
Extraction speed 1.5 X
Track quality 100.0 %
Test CRC 036D520E
Copy CRC 036D520E
Track not present in AccurateRip database
Copy OK

Track 5

Filename F:\ЗАГРУЗКИ\ Dubai Elektic I, II (2010, 2011)\Dubai Elektic II 2CD (2011)\CD1 - Compiled And Mixed By DJ Ravin\05. Audio Junkies Feat. Mei Finegold - Deeper.wav

Peak level 98.8 %
Extraction speed 1.5 X
Track quality 99.9 %
Test CRC 4F5CA6D2
Copy CRC 4F5CA6D2
Track not present in AccurateRip database
Copy OK

Track 6

Filename F:\ЗАГРУЗКИ\ Dubai Elektic I, II (2010, 2011)\Dubai Elektic II 2CD (2011)\CD1 - Compiled And Mixed By DJ Ravin\06. Rainer Weichhold - Tango For Noemi (Chase Buch & Nick Olivetti Remix).wav

Peak level 98.8 %
Extraction speed 1.8 X
Track quality 100.0 %
Test CRC B48D9ED4
Copy CRC B48D9ED4
Track not present in AccurateRip database
Copy OK

Track 7

Filename F:\ЗАГРУЗКИ\ Dubai Elektic I, II (2010, 2011)\Dubai Elektic II 2CD (2011)\CD1 - Compiled And Mixed By DJ Ravin\07. Stan Kolev Feat. Albena Veskova - Event Horizon (Original Mix).wav

Peak level 98.8 %
Extraction speed 1.9 X
Track quality 100.0 %
Test CRC FB69B41D
Copy CRC FB69B41D
Track not present in AccurateRip database
Copy OK

Track 8

Filename F:\ЗАГРУЗКИ\ Dubai Elektic I, II (2010, 2011)\Dubai Elektic II 2CD (2011)\CD1 - Compiled And Mixed By DJ Ravin\08. Amloop - Caminhando e Cantando (Paula Pedroza Remix).wav

Peak level 98.8 %
Extraction speed 1.9 X
Track quality 99.9 %
Test CRC 816D0A20
Copy CRC 816D0A20
Track not present in AccurateRip database
Copy OK

Track 9

Filename F:\ЗАГРУЗКИ\ Dubai Elektic I, II (2010, 2011)\Dubai Elektic II 2CD (2011)\CD1 - Compiled And Mixed By DJ Ravin\09. Southern Coast - Light Pride.wav

Peak level 98.8 %
Extraction speed 2.1 X
Track quality 100.0 %
Test CRC 164FCB9B
Copy CRC 164FCB9B
Track not present in AccurateRip database
Copy OK

Track 10

Filename F:\ЗАГРУЗКИ\ Dubai Elektic I, II (2010, 2011)\Dubai Elektic II 2CD (2011)\CD1 - Compiled And Mixed By DJ Ravin\10. Jamie Lewis Feat. Kim Cooper - 1001 (1001 Mix).wav

Peak level 98.8 %
Extraction speed 2.2 X
Track quality 100.0 %
Test CRC 9768BDB1
Copy CRC 9768BDB1
Track not present in AccurateRip database
Copy OK

Track 11

Filename F:\ЗАГРУЗКИ\ Dubai Elektic I, II (2010, 2011)\Dubai Elektic II 2CD (2011)\CD1 - Compiled And Mixed By DJ Ravin\11. Matan Caspi - Desert Flower (Original Mix).wav

Peak level 98.8 %
Extraction speed 2.3 X
Track quality 100.0 %
Test CRC 44C07B8B
Copy CRC 44C07B8B
Track not present in AccurateRip database
Copy OK

Track 12

Filename F:\ЗАГРУЗКИ\ Dubai Elektic I, II (2010, 2011)\Dubai Elektic II 2CD (2011)\CD1 - Compiled And Mixed By DJ Ravin\12. Ozark Henry - Christine (Faskil Vocal Mix).wav

Peak level 98.8 %
Extraction speed 2.4 X
Track quality 100.0 %
Test CRC DA897070
Copy CRC DA897070
Track not present in AccurateRip database
Copy OK

Track 13

Filename F:\ЗАГРУЗКИ\ Dubai Elektic I, II (2010, 2011)\Dubai Elektic II 2CD (2011)\CD1 - Compiled And Mixed By DJ Ravin\13. Gofman & Tsukerman - Ethnica (Club Mix).wav

Peak level 98.8 %
Extraction speed 2.1 X
Track quality 99.9 %
Test CRC 804C3404
Copy CRC 804C3404
Track not present in AccurateRip database
Copy OK


None of the tracks are present in the AccurateRip database

No errors occurred

End of status report

==== Log checksum 08440C628D539A08A7DA05A0DD6A6B035E5AB4F24DA1B55EEA9649A2377C1296 ====

Exact Audio Copy V1.0 beta 1 from 15. November 2010

EAC extraction logfile from 29. March 2012, 18:43

Various / Dubai Eklektic 2 - CD2 Compiled And Mixed By Nicholas Sechaud

Used drive : PLEXTOR DVDR PX-L890SA Adapter: 5 ID: 0

Read mode : Secure
Utilize accurate stream : Yes
Defeat audio cache : Yes
Make use of C2 pointers : No

Read offset correction : 6
Overread into Lead-In and Lead-Out : No
Fill up missing offset samples with silence : Yes
Delete leading and trailing silent blocks : No
Null samples used in CRC calculations : Yes
Used interface : Native Win32 interface for Win NT & 2000
Gap handling : Appended to previous track

Used output format : User Defined Encoder
Selected bitrate : 1024 kBit/s
Quality : High
Add ID3 tag : No
Command line compressor : C:\Program Files\Exact Audio Copy\Flac\flac.exe
Additional command line options : -8 -V -T "ARTIST=%a" -T "TITLE=%t" -T "ALBUM=%g" -T "DATE=%y" -T "TRACKNUMBER=%n" -T "GENRE=%m" -T "COMMENT=ripped by Oleandris" %s


TOC of the extracted CD

Track | Start | Length | Start sector | End sector
––––––––––––––––––––––––––––-
1 | 0:00.00 | 4:08.09 | 0 | 18608
2 | 4:08.09 | 3:51.54 | 18609 | 35987
3 | 7:59.63 | 3:53.51 | 35988 | 53513
4 | 11:53.39 | 4:31.34 | 53514 | 73872
5 | 16:24.73 | 5:47.37 | 73873 | 99934
6 | 22:12.35 | 4:54.33 | 99935 | 122017
7 | 27:06.68 | 4:04.48 | 122018 | 140365
8 | 31:11.41 | 6:02.21 | 140366 | 167536
9 | 37:13.62 | 6:13.65 | 167537 | 195576
10 | 43:27.52 | 5:41.72 | 195577 | 221223
11 | 49:09.49 | 6:27.07 | 221224 | 250255
12 | 55:36.56 | 7:02.23 | 250256 | 281928
13 | 62:39.04 | 3:42.27 | 281929 | 298605


Track 1

Filename F:\ЗАГРУЗКИ\ Dubai Elektic I, II (2010, 2011)\Dubai Elektic II 2CD (2011)\CD2 - Compiled And Mixed By DJ Nicholas Sechaud\01. Out Of Sight - Float On By (Like The Wind).wav

Pre-gap length 0:00:02.00

Peak level 99.1 %
Extraction speed 3.4 X
Track quality 100.0 %
Test CRC F6436B86
Copy CRC F6436B86
Track not present in AccurateRip database
Copy OK

Track 2

Filename F:\ЗАГРУЗКИ\ Dubai Elektic I, II (2010, 2011)\Dubai Elektic II 2CD (2011)\CD2 - Compiled And Mixed By DJ Nicholas Sechaud\02. Victor Nebut & Eric Negel - Close my eyes.wav

Peak level 99.1 %
Extraction speed 3.8 X
Track quality 100.0 %
Test CRC B69B8FDB
Copy CRC B69B8FDB
Track not present in AccurateRip database
Copy OK

Track 3

Filename F:\ЗАГРУЗКИ\ Dubai Elektic I, II (2010, 2011)\Dubai Elektic II 2CD (2011)\CD2 - Compiled And Mixed By DJ Nicholas Sechaud\03. Clelia Felix - Stuck In A Dream.wav

Peak level 99.1 %
Extraction speed 4.1 X
Track quality 100.0 %
Test CRC C11C931D
Copy CRC C11C931D
Track not present in AccurateRip database
Copy OK

Track 4

Filename F:\ЗАГРУЗКИ\ Dubai Elektic I, II (2010, 2011)\Dubai Elektic II 2CD (2011)\CD2 - Compiled And Mixed By DJ Nicholas Sechaud\04. Ganga - When I Close My Eyes.wav

Peak level 99.1 %
Extraction speed 4.6 X
Track quality 100.0 %
Test CRC E0B15F3B
Copy CRC E0B15F3B
Track not present in AccurateRip database
Copy OK

Track 5

Filename F:\ЗАГРУЗКИ\ Dubai Elektic I, II (2010, 2011)\Dubai Elektic II 2CD (2011)\CD2 - Compiled And Mixed By DJ Nicholas Sechaud\05. Adani & Wolf - Don't Be Afraid Of Me.wav

Peak level 99.1 %
Extraction speed 5.1 X
Track quality 100.0 %
Test CRC 23413DD0
Copy CRC 23413DD0
Track not present in AccurateRip database
Copy OK

Track 6

Filename F:\ЗАГРУЗКИ\ Dubai Elektic I, II (2010, 2011)\Dubai Elektic II 2CD (2011)\CD2 - Compiled And Mixed By DJ Nicholas Sechaud\06. Christos Stylianou Feat. Maria Latsino - Be With You.wav

Peak level 99.1 %
Extraction speed 5.3 X
Track quality 100.0 %
Test CRC 3BE5A7F8
Copy CRC 3BE5A7F8
Track not present in AccurateRip database
Copy OK

Track 7

Filename F:\ЗАГРУЗКИ\ Dubai Elektic I, II (2010, 2011)\Dubai Elektic II 2CD (2011)\CD2 - Compiled And Mixed By DJ Nicholas Sechaud\07. Novalima - Yo Voy (Faze Action Remix).wav

Peak level 99.1 %
Extraction speed 5.4 X
Track quality 100.0 %
Test CRC FF477709
Copy CRC FF477709
Track not present in AccurateRip database
Copy OK

Track 8

Filename F:\ЗАГРУЗКИ\ Dubai Elektic I, II (2010, 2011)\Dubai Elektic II 2CD (2011)\CD2 - Compiled And Mixed By DJ Nicholas Sechaud\08. Margo Sol - Serenade (Sambox Deep Remix).wav

Peak level 99.1 %
Extraction speed 5.2 X
Track quality 99.9 %
Test CRC F831C35C
Copy CRC F831C35C
Track not present in AccurateRip database
Copy OK

Track 9

Filename F:\ЗАГРУЗКИ\ Dubai Elektic I, II (2010, 2011)\Dubai Elektic II 2CD (2011)\CD2 - Compiled And Mixed By DJ Nicholas Sechaud\09. Tevo Howard Feat. Tracey Thor - Without Me feat. Tracey Thorn.wav

Peak level 99.1 %
Extraction speed 6.4 X
Track quality 100.0 %
Test CRC 37A7857C
Copy CRC 37A7857C
Track not present in AccurateRip database
Copy OK

Track 10

Filename F:\ЗАГРУЗКИ\ Dubai Elektic I, II (2010, 2011)\Dubai Elektic II 2CD (2011)\CD2 - Compiled And Mixed By DJ Nicholas Sechaud\10. Agoria - Panta Rei.wav

Peak level 99.1 %
Extraction speed 6.8 X
Track quality 100.0 %
Test CRC 79C53034
Copy CRC 79C53034
Track not present in AccurateRip database
Copy OK

Track 11

Filename F:\ЗАГРУЗКИ\ Dubai Elektic I, II (2010, 2011)\Dubai Elektic II 2CD (2011)\CD2 - Compiled And Mixed By DJ Nicholas Sechaud\11. NUfrequency Feat. Shara Nelson - Go That Deep.wav

Peak level 99.1 %
Extraction speed 7.1 X
Track quality 100.0 %
Test CRC E3A84E3C
Copy CRC E3A84E3C
Track not present in AccurateRip database
Copy OK

Track 12

Filename F:\ЗАГРУЗКИ\ Dubai Elektic I, II (2010, 2011)\Dubai Elektic II 2CD (2011)\CD2 - Compiled And Mixed By DJ Nicholas Sechaud\12. Terry Grant - I Never Sleep (Aki Bergen Remix).wav

Peak level 99.1 %
Extraction speed 7.5 X
Track quality 100.0 %
Test CRC 21B91418
Copy CRC 21B91418
Track not present in AccurateRip database
Copy OK

Track 13

Filename F:\ЗАГРУЗКИ\ Dubai Elektic I, II (2010, 2011)\Dubai Elektic II 2CD (2011)\CD2 - Compiled And Mixed By DJ Nicholas Sechaud\13. Dj Pippi Feat. Marcial Eric Negel & Noem - Once Lunas.wav

Peak level 99.1 %
Extraction speed 7.1 X
Track quality 100.0 %
Test CRC 463CD9FD
Copy CRC 463CD9FD
Track not present in AccurateRip database
Copy OK


None of the tracks are present in the AccurateRip database

No errors occurred

End of status report

==== Log checksum DC706023A26A072484B5B7D71EB543EC3B41234766E55A31085AEAF8B05C512D ====

VA - Dubai Eklektic 2: Complied and Mixed by DJ Ravin and DJ Nicholas Sechaud (2011) 2CDs [Re-Up]

VA - Dubai Eklektic 2: Complied and Mixed by DJ Ravin and DJ Nicholas Sechaud (2011) 2CDs [Re-Up]