Subcategories

VA - Dubai Eklektic 3: Complied and Mixed by DJ Ravin and DJ Nicholas Sechaud (2013) 2CDs [Re-Up]

Posted By: Designol
VA - Dubai Eklektic 3: Complied and Mixed by DJ Ravin and DJ Nicholas Sechaud (2013) 2CDs [Re-Up]

VA - Dubai Eklektic 3: Complied and Mixed by DJ Ravin and DJ Nicholas Sechaud (2013) 2CD
EAC | FLAC | Tracks (Cue&Log) ~ 1 Gb | Mp3 (CBR320) ~ 345 Mb | Scans ~ 33 Mb
Downtempo, House, Lounge, Ethnic | Label: Avril Production | # AV1319 | Time: 02:30:30

Ravin and Nicholas Sechaud, both residents at the famous Buddah Bar (Paris and Grosvenor House Dubai) are two major DJs in the international club and fine dining scene. Together, they have produced their third Dubai Eklektic compilation, selecting the most exciting sounds of the moment and mixing innovative and chic electro-house songs from Paris to Dubai.

VA - Dubai Eklektic 3: Complied and Mixed by DJ Ravin and DJ Nicholas Sechaud (2013) 2CDs [Re-Up]


Tracklist:

CD1 - Complied and Mixed by DJ Ravin:

01. Audiofly Feat. Fiora - 6 Degrees (Tale Of Us Remix) (05:40)
02. GAD. - Waves (Prosis Remix) (04:50)
03. Adana Twins - Strange (06:57)
04. Jane Maximova - Rain In My Heart ( Biotones Remix) (06:16)
05. Lovebirds Feat. Novika - This Time (Gorge Remix) (07:09)
06. Miss Luna & Q DeRHINO - A DJ (Hp Hoeger Remix) (06:49)
07. Paki Palmieri Presents Kingkongas Feat. Nour Eddine - Tilo (Full Vocal Mix) (06:04)
08. Michael & Levan And Stiven Rivic - Over The Coast ( David Granha Remix) (06:51)
09. Pablo Ceballos - Adagio For Drums (Original Remix) (05:46)
10. Dubphone - Bongo De Congo ( Ben Tax Remix) (04:32)
11. Thomas Schwartz - Africa (07:39)
12. Bart And Baker Feat. Sweet Tooth - Bee Zoo (Audioprophecy & Charlie Rouhana Remix) (05:00)
13. Neomotion - Moonlight (Original remix) (04:29)

CD2 - Compiled And Mixed By DJ Nicholas Sechaud:

01. Sambox - Liar In Love (05:11)
02. Christophe Goze - From Father To Sons (05:23)
03. Christos Stylianou - Broken Mirror (04:08)
04. Mathieu & Florzinho Feat. Ma'dEEvah - Changes (06:06)
05. Triangle Sun - Secret Letter (04:19)
06. Ganga & Sophie Tusnelda - Golden Lightfalls (04:30)
07. Cayetano - Day Boy (Original Mix) (05:12)
08. Dusky - Stick By This (05:06)
09. Amine Edge - Yeah (Original Mix) (05:55)
10. Luca C & Brigante Feat. Roisin Murphy - Flash Of Light (Solomun Mix) (08:10)
11. Ry & Frank Wiedemann - Howling (Ame Remix) (06:01)
12. Clara Da Costa - Dub Be Good 2 Me (Jason Bye Remix) (05:26)
13. Laid Back - Sunshine Reggae (Visti & Meyland's Stella Polaris Remix) (06:51)


Exact Audio Copy V1.0 beta 1 from 15. November 2010

EAC extraction logfile from 14. October 2013, 23:12

Various / Dubai Eklektic Vol.3 - CD1 - By Ravin

Used drive : PLEXTOR DVDR PX-L890SA Adapter: 1 ID: 4

Read mode : Secure
Utilize accurate stream : Yes
Defeat audio cache : Yes
Make use of C2 pointers : No

Read offset correction : 6
Overread into Lead-In and Lead-Out : No
Fill up missing offset samples with silence : Yes
Delete leading and trailing silent blocks : No
Null samples used in CRC calculations : Yes
Used interface : Native Win32 interface for Win NT & 2000
Gap handling : Appended to previous track

Used output format : User Defined Encoder
Selected bitrate : 896 kBit/s
Quality : High
Add ID3 tag : No
Command line compressor : C:\Program Files (x86)\Exact Audio Copy\Flac\flac.exe
Additional command line options : -8 -V -T "ARTIST=%a" -T "TITLE=%t" -T "ALBUM=%g" -T "DATE=%y" -T "TRACKNUMBER=%n" -T "GENRE=%m" -T "COMMENT=ripped by Oleandris" %s


TOC of the extracted CD

Track | Start | Length | Start sector | End sector
––––––––––––––––––––––––––––-
1 | 0:00.00 | 5:40.06 | 0 | 25505
2 | 5:40.06 | 4:50.00 | 25506 | 47255
3 | 10:30.06 | 6:57.66 | 47256 | 78596
4 | 17:27.72 | 6:16.00 | 78597 | 106796
5 | 23:43.72 | 7:08.73 | 106797 | 138969
6 | 30:52.70 | 6:49.14 | 138970 | 169658
7 | 37:42.09 | 6:04.63 | 169659 | 197021
8 | 43:46.72 | 6:51.28 | 197022 | 227874
9 | 50:38.25 | 5:46.55 | 227875 | 253879
10 | 56:25.05 | 4:32.28 | 253880 | 274307
11 | 60:57.33 | 7:39.02 | 274308 | 308734
12 | 68:36.35 | 5:00.00 | 308735 | 331234
13 | 73:36.35 | 4:29.25 | 331235 | 351434


Track 1

Filename F:\ЗАГРУЗКИ\ Dubai Eklektic I, II (2010, 2011)\Dubai Eklektic III 2CD (2013)\CD1 - Compiled And Mixed By DJ Ravin\01. Audiofly Feat. Fiora - 6 Degrees ( Tale Of Us Remix).wav

Pre-gap length 0:00:02.00

Peak level 100.0 %
Extraction speed 3.1 X
Track quality 100.0 %
Test CRC 95ADDE06
Copy CRC 95ADDE06
Track not present in AccurateRip database
Copy OK

Track 2

Filename F:\ЗАГРУЗКИ\ Dubai Eklektic I, II (2010, 2011)\Dubai Eklektic III 2CD (2013)\CD1 - Compiled And Mixed By DJ Ravin\02. GAD. - Waves (Prosis Remix).wav

Peak level 100.0 %
Extraction speed 3.4 X
Track quality 100.0 %
Test CRC 49A0D86A
Copy CRC 49A0D86A
Track not present in AccurateRip database
Copy OK

Track 3

Filename F:\ЗАГРУЗКИ\ Dubai Eklektic I, II (2010, 2011)\Dubai Eklektic III 2CD (2013)\CD1 - Compiled And Mixed By DJ Ravin\03. Adana Twins - Strange.wav

Peak level 100.0 %
Extraction speed 3.9 X
Track quality 100.0 %
Test CRC 20FAEEA8
Copy CRC 20FAEEA8
Track not present in AccurateRip database
Copy OK

Track 4

Filename F:\ЗАГРУЗКИ\ Dubai Eklektic I, II (2010, 2011)\Dubai Eklektic III 2CD (2013)\CD1 - Compiled And Mixed By DJ Ravin\04. Jane Maximova - Rain In My Heart ( Biotones Remix).wav

Peak level 100.0 %
Extraction speed 4.2 X
Track quality 100.0 %
Test CRC 06656793
Copy CRC 06656793
Track not present in AccurateRip database
Copy OK

Track 5

Filename F:\ЗАГРУЗКИ\ Dubai Eklektic I, II (2010, 2011)\Dubai Eklektic III 2CD (2013)\CD1 - Compiled And Mixed By DJ Ravin\05. Lovebirds Feat. Novika - This Time (Gorge Remix).wav

Peak level 100.0 %
Extraction speed 4.6 X
Track quality 100.0 %
Test CRC C7E6F7A5
Copy CRC C7E6F7A5
Track not present in AccurateRip database
Copy OK

Track 6

Filename F:\ЗАГРУЗКИ\ Dubai Eklektic I, II (2010, 2011)\Dubai Eklektic III 2CD (2013)\CD1 - Compiled And Mixed By DJ Ravin\06. Miss Luna & Q DeRHINO - A DJ (Hp Hoeger Remix).wav

Peak level 100.0 %
Extraction speed 4.9 X
Track quality 100.0 %
Test CRC 447CD092
Copy CRC 447CD092
Track not present in AccurateRip database
Copy OK

Track 7

Filename F:\ЗАГРУЗКИ\ Dubai Eklektic I, II (2010, 2011)\Dubai Eklektic III 2CD (2013)\CD1 - Compiled And Mixed By DJ Ravin\07. Paki Palmieri Presents Kingkongas Feat. Nour Eddine - Tilo (Full Vocal Mix).wav

Peak level 100.0 %
Extraction speed 5.1 X
Track quality 100.0 %
Test CRC 1FCF282F
Copy CRC 1FCF282F
Track not present in AccurateRip database
Copy OK

Track 8

Filename F:\ЗАГРУЗКИ\ Dubai Eklektic I, II (2010, 2011)\Dubai Eklektic III 2CD (2013)\CD1 - Compiled And Mixed By DJ Ravin\08. Michael & Levan And Stiven Rivic - Over The Coast ( David Granha Remix).wav

Peak level 100.0 %
Extraction speed 5.5 X
Track quality 100.0 %
Test CRC 88EC8900
Copy CRC 88EC8900
Track not present in AccurateRip database
Copy OK

Track 9

Filename F:\ЗАГРУЗКИ\ Dubai Eklektic I, II (2010, 2011)\Dubai Eklektic III 2CD (2013)\CD1 - Compiled And Mixed By DJ Ravin\09. Pablo Ceballos - Adagio For Drums (Original Remix).wav

Peak level 100.0 %
Extraction speed 5.7 X
Track quality 100.0 %
Test CRC 51BB11A9
Copy CRC 51BB11A9
Track not present in AccurateRip database
Copy OK

Track 10

Filename F:\ЗАГРУЗКИ\ Dubai Eklektic I, II (2010, 2011)\Dubai Eklektic III 2CD (2013)\CD1 - Compiled And Mixed By DJ Ravin\10. Dubphone - Bongo De Congo ( Ben Tax Remix).wav

Peak level 100.0 %
Extraction speed 5.6 X
Track quality 100.0 %
Test CRC 0350BE10
Copy CRC 0350BE10
Track not present in AccurateRip database
Copy OK

Track 11

Filename F:\ЗАГРУЗКИ\ Dubai Eklektic I, II (2010, 2011)\Dubai Eklektic III 2CD (2013)\CD1 - Compiled And Mixed By DJ Ravin\11. Thomas Schwartz - Africa.wav

Peak level 100.0 %
Extraction speed 6.2 X
Track quality 100.0 %
Test CRC 0240F5D5
Copy CRC 0240F5D5
Track not present in AccurateRip database
Copy OK

Track 12

Filename F:\ЗАГРУЗКИ\ Dubai Eklektic I, II (2010, 2011)\Dubai Eklektic III 2CD (2013)\CD1 - Compiled And Mixed By DJ Ravin\12. Bart And Baker Feat. Sweet Tooth - Bee Zoo (Audioprophecy & Charlie Rouhana Remix).wav

Peak level 100.0 %
Extraction speed 6.1 X
Track quality 100.0 %
Test CRC D2A4A29F
Copy CRC D2A4A29F
Track not present in AccurateRip database
Copy OK

Track 13

Filename F:\ЗАГРУЗКИ\ Dubai Eklektic I, II (2010, 2011)\Dubai Eklektic III 2CD (2013)\CD1 - Compiled And Mixed By DJ Ravin\13. Neomotion - Moonlight (Original remix).wav

Peak level 100.0 %
Extraction speed 4.9 X
Track quality 99.9 %
Test CRC 4132C5DA
Copy CRC 4132C5DA
Cannot be verified as accurate (confidence 1) [1423AEE9], AccurateRip returned [8832D148]
Copy OK


1 track(s) could not be verified as accurate
12 track(s) not present in the AccurateRip database

No tracks could be verified as accurate
You may have a different pressing from the one(s) in the database

No errors occurred

End of status report

==== Log checksum 6D3C9C00B09AFBB84ACE33C917A7192926AFD9F551B74FA0224D6FBE2A0B280F ====

Exact Audio Copy V1.0 beta 1 from 15. November 2010

EAC extraction logfile from 14. October 2013, 22:10

Various / Dubai Eklektic Vol.3 - CD2 - Nicholas Sechaud

Used drive : PLEXTOR DVDR PX-891SA Adapter: 1 ID: 5

Read mode : Secure
Utilize accurate stream : Yes
Defeat audio cache : Yes
Make use of C2 pointers : No

Read offset correction : 6
Overread into Lead-In and Lead-Out : No
Fill up missing offset samples with silence : Yes
Delete leading and trailing silent blocks : No
Null samples used in CRC calculations : Yes
Used interface : Native Win32 interface for Win NT & 2000
Gap handling : Appended to previous track

Used output format : User Defined Encoder
Selected bitrate : 896 kBit/s
Quality : High
Add ID3 tag : No
Command line compressor : C:\Program Files (x86)\Exact Audio Copy\Flac\flac.exe
Additional command line options : -8 -V -T "ARTIST=%a" -T "TITLE=%t" -T "ALBUM=%g" -T "DATE=%y" -T "TRACKNUMBER=%n" -T "GENRE=%m" -T "COMMENT=ripped by Oleandris" %s


TOC of the extracted CD

Track | Start | Length | Start sector | End sector
––––––––––––––––––––––––––––-
1 | 0:00.00 | 5:11.66 | 0 | 23390
2 | 5:11.66 | 5:23.20 | 23391 | 47635
3 | 10:35.11 | 4:08.17 | 47636 | 66252
4 | 14:43.28 | 6:06.34 | 66253 | 93736
5 | 20:49.62 | 4:19.08 | 93737 | 113169
6 | 25:08.70 | 4:29.70 | 113170 | 133414
7 | 29:38.65 | 5:12.58 | 133415 | 156872
8 | 34:51.48 | 5:06.62 | 156873 | 179884
9 | 39:58.35 | 5:55.38 | 179885 | 206547
10 | 45:53.73 | 8:09.74 | 206548 | 243296
11 | 54:03.72 | 6:01.50 | 243297 | 270421
12 | 60:05.47 | 5:26.25 | 270422 | 294896
13 | 65:31.72 | 6:51.09 | 294897 | 325730


Track 1

Filename F:\ЗАГРУЗКИ\ Dubai Eklektic I, II (2010, 2011)\Dubai Eklektic III 2CD (2013)\CD2 - Compiled And Mixed By DJ Nicholas Sechaud\01. Sambox - Liar In Love.wav

Pre-gap length 0:00:02.00

Peak level 100.0 %
Extraction speed 5.8 X
Track quality 100.0 %
Test CRC EBB06ABF
Copy CRC EBB06ABF
Accurately ripped (confidence 1) [0DA49452]
Copy OK

Track 2

Filename F:\ЗАГРУЗКИ\ Dubai Eklektic I, II (2010, 2011)\Dubai Eklektic III 2CD (2013)\CD2 - Compiled And Mixed By DJ Nicholas Sechaud\02. Christophe Goze - From Father To Sons.wav

Peak level 100.0 %
Extraction speed 6.5 X
Track quality 100.0 %
Test CRC DD8325BA
Copy CRC DD8325BA
Accurately ripped (confidence 1) [903B5BAD]
Copy OK

Track 3

Filename F:\ЗАГРУЗКИ\ Dubai Eklektic I, II (2010, 2011)\Dubai Eklektic III 2CD (2013)\CD2 - Compiled And Mixed By DJ Nicholas Sechaud\03. Christos Stylianou - Broken Mirror.wav

Peak level 100.0 %
Extraction speed 6.9 X
Track quality 100.0 %
Test CRC D64E3A29
Copy CRC D64E3A29
Accurately ripped (confidence 1) [814EE43C]
Copy OK

Track 4

Filename F:\ЗАГРУЗКИ\ Dubai Eklektic I, II (2010, 2011)\Dubai Eklektic III 2CD (2013)\CD2 - Compiled And Mixed By DJ Nicholas Sechaud\04. Mathieu & Florzinho Feat. Ma'dEEvah - Changes.wav

Peak level 100.0 %
Extraction speed 7.8 X
Track quality 100.0 %
Test CRC 47F441D6
Copy CRC 47F441D6
Accurately ripped (confidence 1) [05F8987A]
Copy OK

Track 5

Filename F:\ЗАГРУЗКИ\ Dubai Eklektic I, II (2010, 2011)\Dubai Eklektic III 2CD (2013)\CD2 - Compiled And Mixed By DJ Nicholas Sechaud\05. Triangle Sun - Secret Letter.wav

Peak level 99.8 %
Extraction speed 7.9 X
Track quality 100.0 %
Test CRC F4FA945F
Copy CRC F4FA945F
Accurately ripped (confidence 1) [6E65D96E]
Copy OK

Track 6

Filename F:\ЗАГРУЗКИ\ Dubai Eklektic I, II (2010, 2011)\Dubai Eklektic III 2CD (2013)\CD2 - Compiled And Mixed By DJ Nicholas Sechaud\06. Ganga & Sophie Tusnelda - Golden Lightfalls.wav

Peak level 99.8 %
Extraction speed 8.4 X
Track quality 100.0 %
Test CRC FD0B513B
Copy CRC FD0B513B
Accurately ripped (confidence 1) [410FF43D]
Copy OK

Track 7

Filename F:\ЗАГРУЗКИ\ Dubai Eklektic I, II (2010, 2011)\Dubai Eklektic III 2CD (2013)\CD2 - Compiled And Mixed By DJ Nicholas Sechaud\07. Cayetano - Day Boy (Original Mix).wav

Peak level 99.9 %
Extraction speed 9.0 X
Track quality 100.0 %
Test CRC F1902BA8
Copy CRC F1902BA8
Accurately ripped (confidence 1) [B81815BB]
Copy OK

Track 8

Filename F:\ЗАГРУЗКИ\ Dubai Eklektic I, II (2010, 2011)\Dubai Eklektic III 2CD (2013)\CD2 - Compiled And Mixed By DJ Nicholas Sechaud\08. Dusky - Stick By This.wav

Peak level 100.0 %
Extraction speed 8.0 X
Track quality 99.9 %
Test CRC EBB99354
Copy CRC EBB99354
Accurately ripped (confidence 1) [D70D5809]
Copy OK

Track 9

Filename F:\ЗАГРУЗКИ\ Dubai Eklektic I, II (2010, 2011)\Dubai Eklektic III 2CD (2013)\CD2 - Compiled And Mixed By DJ Nicholas Sechaud\09. Amine Edge - Yeah (Original Mix).wav

Peak level 100.0 %
Extraction speed 10.1 X
Track quality 100.0 %
Test CRC 016F14FC
Copy CRC 016F14FC
Accurately ripped (confidence 1) [32DD422F]
Copy OK

Track 10

Filename F:\ЗАГРУЗКИ\ Dubai Eklektic I, II (2010, 2011)\Dubai Eklektic III 2CD (2013)\CD2 - Compiled And Mixed By DJ Nicholas Sechaud\10. Luca C & Brigante Feat. Roisin Murphy - Flash Of Light (Solomun Mix).wav

Peak level 99.9 %
Extraction speed 10.9 X
Track quality 100.0 %
Test CRC A207A0BA
Copy CRC A207A0BA
Accurately ripped (confidence 1) [CFC49B5D]
Copy OK

Track 11

Filename F:\ЗАГРУЗКИ\ Dubai Eklektic I, II (2010, 2011)\Dubai Eklektic III 2CD (2013)\CD2 - Compiled And Mixed By DJ Nicholas Sechaud\11. Ry & Frank Wiedemann - Howling (Ame Remix).wav

Peak level 100.0 %
Extraction speed 11.1 X
Track quality 100.0 %
Test CRC D7E627B5
Copy CRC D7E627B5
Accurately ripped (confidence 1) [A3E2352F]
Copy OK

Track 12

Filename F:\ЗАГРУЗКИ\ Dubai Eklektic I, II (2010, 2011)\Dubai Eklektic III 2CD (2013)\CD2 - Compiled And Mixed By DJ Nicholas Sechaud\12. Clara Da Costa - Dub Be Good 2 Me (Jason Bye Remix).wav

Peak level 100.0 %
Extraction speed 11.4 X
Track quality 100.0 %
Test CRC C69A5CA9
Copy CRC C69A5CA9
Accurately ripped (confidence 1) [9C7029F0]
Copy OK

Track 13

Filename F:\ЗАГРУЗКИ\ Dubai Eklektic I, II (2010, 2011)\Dubai Eklektic III 2CD (2013)\CD2 - Compiled And Mixed By DJ Nicholas Sechaud\13. Laid Back - Sunshine Reggae (Visti & Meyland's Stella Polaris Remix).wav

Peak level 100.0 %
Extraction speed 3.3 X
Track quality 99.9 %
Test CRC 1A2F12CB
Copy CRC 1A2F12CB
Accurately ripped (confidence 1) [29388F51]
Copy OK


All tracks accurately ripped

No errors occurred

End of status report

==== Log checksum EA317EE7AA0E6B0F3C40FF38010E7CDAF6D7B0CFEFC113387C4E14BAD30E4D61 ====

VA - Dubai Eklektic 3: Complied and Mixed by DJ Ravin and DJ Nicholas Sechaud (2013) 2CDs [Re-Up]

VA - Dubai Eklektic 3: Complied and Mixed by DJ Ravin and DJ Nicholas Sechaud (2013) 2CDs [Re-Up]