Subcategories

David Newman - DuckTales the Movie: Treasure of the Lost Lamp (Original Motion Picture Soundtrack) (2017)

Posted By: SERTiL
David Newman - DuckTales the Movie: Treasure of the Lost Lamp (Original Motion Picture Soundtrack) (2017)

David Newman - DuckTales the Movie: Treasure of the Lost Lamp (Original Motion Picture Soundtrack)
EAC Rip | FLAC (tracks)+cue, log, scans | 70:50 min | 411 MB
Label: Intrada ‎– ISC 372 | Tracks: 22 | Rls.date: 2016
Soundtrack, Score

David Newman score for Walt Disney animation tale finally gets release on CD! Feature was spun out of popular 1987 animation TV series inspired by Disney artist Carl Banks, creator four decades earlier of Scrooge McDuck, Donald’s rich uncle. Along with nephews Huey, Louie and Dewey, clan embarks on a wild hunt for the treasure of Collie Baba. Shape-shifting sorcerer Merlock makes the journey difficult. A magic lamp complete with a wacky Genie and the requisite three wishes all factor in as well. Bob Hathcock directs, Alan Burnett scripts, Alan Young, Russi Taylor, Christopher Lloyd provide voices. A favorite project of composer David Newman, who considered it, “Like a dream experience for me.” Newman was afforded considerable freedom to write what he felt was most appropriate without interference. “It was lovely.” Newman scores for a large orchestra, writes wall-to-wall music, including several lengthy sequences. Strong degree of musical architecture results. Music often twists and turns on a dime, racing forward, stopping suddenly for quick pauses then continuing onwards. Excitement is name of the game! Vibrant recording by Tim Boyle made at Evergreen Studios in Burbank over 6 days in June 1990. Entire album is presented in crisp stereo sound from complete digital 2-track scoring session masters with 3 additional cues derived from the 30 its Dolby SR-format analog mixes, all courtesy Walt Disney Records. John Takis provides descriptive liner notes.

David Newman - DuckTales the Movie: Treasure of the Lost Lamp (Original Motion Picture Soundtrack) (2017)


TRACKLIST
1. Coming in for a Landing (01:56)
2. The Seal of Collie Baba (04:34)
3. The Pyramid (alternate) (02:55)
4. The Ducks Use Their Marbles (01:10)
5. Webby Discovers the Lantern (04:43)
6. Scrooge Gets Depressed (01:17)
7. Back Home (00:22)
8. Meet the Genie (02:30)
9. Mrs. Beakley Meets the Elephant (01:39)
10. Ice Cream Sundae From the Sky (01:43)
11. The Story of the Talisman (02:25)
12. Morning Becomes Merlock (01:00)
13. Merlock Sneaks Into the Mansion (06:01)
14. Scrooge Gets the Lamp (00:20)
15. I Wish for the Treasure of Collie Baba (01:48)
16. Merlock Goes for Scrooge (06:16)
17. Dijon the Master (04:25)
18. Mission Impossible (05:45)
19. Merlock Takes Control (10:06)
20. End Credits (04:18)
21. The Pyramid (original) (02:54)
22. Merlock Goes for Scrooge (long version) (02:27)

Exact Audio Copy V1.1 from 23. June 2015

EAC extraction logfile from 9. February 2017, 21:01

David Newman / DuckTales: The Movie - Treasure Of The Lost Lamp

Used drive : HL-DT-STBDDVDRW CH30N Adapter: 1 ID: 0

Read mode : Secure
Utilize accurate stream : Yes
Defeat audio cache : Yes
Make use of C2 pointers : No

Read offset correction : 6
Overread into Lead-In and Lead-Out : No
Fill up missing offset samples with silence : Yes
Delete leading and trailing silent blocks : No
Null samples used in CRC calculations : Yes
Used interface : Native Win32 interface for Win NT & 2000
Gap handling : Appended to previous track

Used output format : User Defined Encoder
Selected bitrate : 1024 kBit/s
Quality : High
Add ID3 tag : No
Command line compressor : C:\Program Files (x86)\Exact Audio Copy\Flac\flac.exe
Additional command line options : -8 -V -T "artist=%artist%" -T "title=%title%" -T "album=%albumtitle%" -T "date=%year%" -T "tracknumber=%tracknr%" -T "genre=%genre%" %source%


TOC of the extracted CD

Track | Start | Length | Start sector | End sector
––––––––––––––––––––––––––––-
1 | 0:00.00 | 1:59.14 | 0 | 8938
2 | 1:59.14 | 4:34.73 | 8939 | 29561
3 | 6:34.12 | 2:56.30 | 29562 | 42791
4 | 9:30.42 | 1:11.08 | 42792 | 48124
5 | 10:41.50 | 4:43.26 | 48125 | 69375
6 | 15:25.01 | 1:17.41 | 69376 | 75191
7 | 16:42.42 | 0:23.73 | 75192 | 76989
8 | 17:06.40 | 2:30.50 | 76990 | 88289
9 | 19:37.15 | 1:39.61 | 88290 | 95775
10 | 21:17.01 | 1:42.36 | 95776 | 103461
11 | 22:59.37 | 2:25.73 | 103462 | 114409
12 | 25:25.35 | 1:02.50 | 114410 | 119109
13 | 26:28.10 | 6:01.26 | 119110 | 146210
14 | 32:29.36 | 0:20.39 | 146211 | 147749
15 | 32:50.00 | 1:47.68 | 147750 | 155842
16 | 34:37.68 | 6:16.38 | 155843 | 184080
17 | 40:54.31 | 4:26.15 | 184081 | 204045
18 | 45:20.46 | 5:45.37 | 204046 | 229957
19 | 51:06.08 | 10:05.28 | 229958 | 275360
20 | 61:11.36 | 4:25.73 | 275361 | 295308
21 | 65:37.34 | 2:54.05 | 295309 | 308363
22 | 68:31.39 | 2:30.24 | 308364 | 319637


Track 1

Filename C:\David Newman - DuckTales; The Movie - Treasure Of The Lost Lamp (Intrada ISC 372) [FLAC]\01. Coming In For A Landing.wav

Pre-gap length 0:00:02.00

Peak level 94.9 %
Extraction speed 3.0 X
Track quality 99.9 %
Test CRC E3AC2CD0
Copy CRC E3AC2CD0
Track not present in AccurateRip database
Copy OK

Track 2

Filename C:\David Newman - DuckTales; The Movie - Treasure Of The Lost Lamp (Intrada ISC 372) [FLAC]\02. The Seal Of Collie Baba.wav

Peak level 98.8 %
Extraction speed 3.7 X
Track quality 100.0 %
Test CRC 225D2D43
Copy CRC 225D2D43
Track not present in AccurateRip database
Copy OK

Track 3

Filename C:\David Newman - DuckTales; The Movie - Treasure Of The Lost Lamp (Intrada ISC 372) [FLAC]\03. The Pyramid (Alternate).wav

Peak level 98.8 %
Extraction speed 3.0 X
Track quality 100.0 %
Test CRC D123D3D1
Copy CRC D123D3D1
Track not present in AccurateRip database
Copy OK

Track 4

Filename C:\David Newman - DuckTales; The Movie - Treasure Of The Lost Lamp (Intrada ISC 372) [FLAC]\04. The Ducks Use Their Marbles.wav

Peak level 98.8 %
Extraction speed 1.8 X
Track quality 100.0 %
Test CRC 0350B914
Copy CRC 0350B914
Track not present in AccurateRip database
Copy OK

Track 5

Filename C:\David Newman - DuckTales; The Movie - Treasure Of The Lost Lamp (Intrada ISC 372) [FLAC]\05. Webby Discovers The Lantern.wav

Peak level 98.8 %
Extraction speed 1.4 X
Track quality 100.0 %
Test CRC 16AD3932
Copy CRC 16AD3932
Track not present in AccurateRip database
Copy OK

Track 6

Filename C:\David Newman - DuckTales; The Movie - Treasure Of The Lost Lamp (Intrada ISC 372) [FLAC]\06. Scrooge Gets Depressed.wav

Peak level 83.3 %
Extraction speed 1.1 X
Track quality 100.0 %
Test CRC 30E0E787
Copy CRC 30E0E787
Track not present in AccurateRip database
Copy OK

Track 7

Filename C:\David Newman - DuckTales; The Movie - Treasure Of The Lost Lamp (Intrada ISC 372) [FLAC]\07. Back Home.wav

Peak level 98.8 %
Extraction speed 0.6 X
Track quality 100.0 %
Test CRC 399E9D79
Copy CRC 399E9D79
Track not present in AccurateRip database
Copy OK

Track 8

Filename C:\David Newman - DuckTales; The Movie - Treasure Of The Lost Lamp (Intrada ISC 372) [FLAC]\08. Meet The Genie.wav

Peak level 98.8 %
Extraction speed 1.4 X
Track quality 100.0 %
Test CRC 5F09D2FB
Copy CRC 5F09D2FB
Track not present in AccurateRip database
Copy OK

Track 9

Filename C:\David Newman - DuckTales; The Movie - Treasure Of The Lost Lamp (Intrada ISC 372) [FLAC]\09. Mrs. Beakley Meets The Elephant.wav

Peak level 98.8 %
Extraction speed 1.3 X
Track quality 100.0 %
Test CRC 6AB78396
Copy CRC 6AB78396
Track not present in AccurateRip database
Copy OK

Track 10

Filename C:\David Newman - DuckTales; The Movie - Treasure Of The Lost Lamp (Intrada ISC 372) [FLAC]\10. Ice Cream Sundae From The Sky.wav

Peak level 90.8 %
Extraction speed 1.3 X
Track quality 100.0 %
Test CRC 75C37F87
Copy CRC 75C37F87
Track not present in AccurateRip database
Copy OK

Track 11

Filename C:\David Newman - DuckTales; The Movie - Treasure Of The Lost Lamp (Intrada ISC 372) [FLAC]\11. The Story Of The Talisman.wav

Peak level 95.9 %
Extraction speed 1.5 X
Track quality 100.0 %
Test CRC BE3A92FD
Copy CRC BE3A92FD
Track not present in AccurateRip database
Copy OK

Track 12

Filename C:\David Newman - DuckTales; The Movie - Treasure Of The Lost Lamp (Intrada ISC 372) [FLAC]\12. Morning Becomes Merlock.wav

Peak level 96.8 %
Extraction speed 1.2 X
Track quality 100.0 %
Test CRC E209701F
Copy CRC E209701F
Track not present in AccurateRip database
Copy OK

Track 13

Filename C:\David Newman - DuckTales; The Movie - Treasure Of The Lost Lamp (Intrada ISC 372) [FLAC]\13. Merlock Sneaks Into The Mansion.wav

Peak level 98.8 %
Extraction speed 1.8 X
Track quality 100.0 %
Test CRC 1B0496E0
Copy CRC 1B0496E0
Track not present in AccurateRip database
Copy OK

Track 14

Filename C:\David Newman - DuckTales; The Movie - Treasure Of The Lost Lamp (Intrada ISC 372) [FLAC]\14. Scrooge Gets The Lamp.wav

Peak level 98.8 %
Extraction speed 0.7 X
Track quality 100.0 %
Test CRC 1DE77235
Copy CRC 1DE77235
Track not present in AccurateRip database
Copy OK

Track 15

Filename C:\David Newman - DuckTales; The Movie - Treasure Of The Lost Lamp (Intrada ISC 372) [FLAC]\15. I Wish For The Treasure Of Collie Baba.wav

Peak level 98.8 %
Extraction speed 1.2 X
Track quality 99.9 %
Test CRC 346F73BD
Copy CRC 346F73BD
Track not present in AccurateRip database
Copy OK

Track 16

Filename C:\David Newman - DuckTales; The Movie - Treasure Of The Lost Lamp (Intrada ISC 372) [FLAC]\16. Merlock Goes For Scrooge (Alternate).wav

Peak level 98.8 %
Extraction speed 1.8 X
Track quality 99.9 %
Test CRC 2FE3EC9A
Copy CRC 2FE3EC9A
Track not present in AccurateRip database
Copy OK

Track 17

Filename C:\David Newman - DuckTales; The Movie - Treasure Of The Lost Lamp (Intrada ISC 372) [FLAC]\17. Dijon The Master.wav

Peak level 98.8 %
Extraction speed 2.0 X
Track quality 100.0 %
Test CRC C7763C78
Copy CRC C7763C78
Track not present in AccurateRip database
Copy OK

Track 18

Filename C:\David Newman - DuckTales; The Movie - Treasure Of The Lost Lamp (Intrada ISC 372) [FLAC]\18. Mission Impossible.wav

Peak level 98.8 %
Extraction speed 2.2 X
Track quality 100.0 %
Test CRC BE97575C
Copy CRC BE97575C
Track not present in AccurateRip database
Copy OK

Track 19

Filename C:\David Newman - DuckTales; The Movie - Treasure Of The Lost Lamp (Intrada ISC 372) [FLAC]\19. Merlock Takes Control.wav

Peak level 98.8 %
Extraction speed 2.4 X
Track quality 100.0 %
Test CRC 6562419A
Copy CRC 6562419A
Track not present in AccurateRip database
Copy OK

Track 20

Filename C:\David Newman - DuckTales; The Movie - Treasure Of The Lost Lamp (Intrada ISC 372) [FLAC]\20. End Credits.wav

Peak level 98.8 %
Extraction speed 2.3 X
Track quality 100.0 %
Test CRC 6B99AE8C
Copy CRC 6B99AE8C
Track not present in AccurateRip database
Copy OK

Track 21

Filename C:\David Newman - DuckTales; The Movie - Treasure Of The Lost Lamp (Intrada ISC 372) [FLAC]\21. The Pyramid (Original).wav

Peak level 98.8 %
Extraction speed 2.2 X
Track quality 100.0 %
Test CRC 8E3C5812
Copy CRC 8E3C5812
Track not present in AccurateRip database
Copy OK

Track 22

Filename C:\David Newman - DuckTales; The Movie - Treasure Of The Lost Lamp (Intrada ISC 372) [FLAC]\22. Merlock Goes For Scrooge (Original).wav

Peak level 98.8 %
Extraction speed 2.2 X
Track quality 100.0 %
Test CRC 974611A7
Copy CRC 974611A7
Track not present in AccurateRip database
Copy OK


None of the tracks are present in the AccurateRip database

No errors occurred

End of status report

–– CUETools DB Plugin V2.1.6

[CTDB TOCID: bZJwILCps166visP.WBdw2YgpKQ-] found
Submit result: bZJwILCps166visP.WBdw2YgpKQ- has been confirmed
Track | CTDB Status
1 | (1/1) Accurately ripped
2 | (1/1) Accurately ripped
3 | (1/1) Accurately ripped
4 | (1/1) Accurately ripped
5 | (1/1) Accurately ripped
6 | (1/1) Accurately ripped
7 | (1/1) Accurately ripped
8 | (1/1) Accurately ripped
9 | (1/1) Accurately ripped
10 | (1/1) Accurately ripped
11 | (1/1) Accurately ripped
12 | (1/1) Accurately ripped
13 | (1/1) Accurately ripped
14 | (1/1) Accurately ripped
15 | (1/1) Accurately ripped
16 | (1/1) Accurately ripped
17 | (1/1) Accurately ripped
18 | (1/1) Accurately ripped
19 | (1/1) Accurately ripped
20 | (1/1) Accurately ripped
21 | (1/1) Accurately ripped
22 | (1/1) Accurately ripped


==== Log checksum 8CC335CB8C513621322F22588ABFD40BAF8B5BA84FC10F819D9498CE6FE82372 ====


David Newman - DuckTales the Movie: Treasure of the Lost Lamp (Original Motion Picture Soundtrack) (2017)


Thanks to the Original customer.