Tags
Language
Tags

Duran Duran - Future Past (2021) [Japan]

Posted By: BlondStyle
Duran Duran - Future Past (2021) [Japan]

Duran Duran - Future Past (2021) [Japan]
Pop/Rock, Dance-Rock, Electronic | EAC Rip | FLAC, Tracks+CUE+LOG+Scans (TIF) | 01:05:35 | 1,22 Gb
Label: Tape Modern/BMG (Japan) | Cat.# WPCR-18454 | Released: 2021-10-27 (2021-10-22)

"Future Past" is the 15th studio album by the British band Duran Duran, released on 22 October 2021. It is the band's first album to be released through BMG. The album, co-produced by the band alongside Mark Ronson, Giorgio Moroder and Erol Alkan, also features guest appearances by Tove Lo, Ivorian Doll, Japanese band Chai, and Mike Garson. Blur's Graham Coxon is the guitarist on the album. The band released the album's first single "Invisible" on 19 May 2021. The tracks "More Joy!" featuring Chai, "Anniversary", "Tonight United" and "Give It All Up" featuring Lo were also released in advance of the album.
~Wikipedia

Duran Duran - Future Past (2021) [Japan]

Future Past is perhaps the quintessential title for Duran Duran in 2021, when the veteran New Romantics trade in their legacy while keeping their focus directly on the future. Occasionally, the gilded synthesized surfaces of Future Past recall the futurism of New Wave, but Duran Duran take pains to not re-create the past by inviting a fresh set of collaborators into the studio. Swedish pop star Tove Lo and English rapper Ivorian Doll are duet partners, Japanese pop band Chai provide a chorus cameo, while Mike Garson - the pianist best-known for his work on David Bowie's Aladdin Sane - graces the finale "Falling." Much of the actual vibe and sound of Future Past is due to the behind-the-scenes collaborators, specifically producer Erol Alkan and Blur guitarist Graham Coxon, a pair who are responsible for co-writing and producing the lion's share of the album. Together, Duran Duran, Coxon, and Alkan craft a dense, shape-shifting tapestry that gets punctured by the guitarist's melodic squalls and the group's thick hooks. Their work orbits "Beautiful Lies" and "Tonight United," a pair of neo-disco tracks produced by Giorgio Moroder strategically placed in the middle of the album. Much of Future Past feels like modern disco, music that blurs the distance separating the club and home and that plays with genre as fluidly as it plays with technology. Duran Duran are taking some calculated risks here which sometimes means they stumble - occasionally, the ballads feel a shade strident - but the restlessness makes for a kinetic, exciting album.
~Review by Stephen Thomas Erlewine

Duran Duran - Future Past (2021) [Japan]

Duran Duran - Future Past (2021) [Japan]


Release of this album: 2021, October, 22 [LP Tape Modern/BMG, Cat.# 538697321, USA & Europe]
Release of this CD: 2021, October, 27 [CD Tape Modern/BMG (Japan), Cat.# WPCR-18454 / EAN: 4943674344444]
℗&© 2021 Tape Modern under exclusive license to BMG Rights Management (US) LLC.
Manufactured by Warner Music Japan Inc., a Warner Music Group Company.
Made in Japan


Credits:

Arranged By [String Arrangement] – Joshua Blair (tracks: 1, 3, 5, 6 to 8)
Art Direction, Design – Rory McCartney
Engineer [Additional] – Ritchie Kennedy
Engineer [Assistant] – Ed Farrell, Tom Herbert
Engineer [Mike Garson Engineered By] – Austin Creek (tracks: 12)
Engineer [Tove Lo Vocal] – Cory Bice (tracks: 3)
Engineer, Recorded By – Joshua Blair
Executive-Producer – Sharon Cho, Wendy Laister
Guitar – Joshua Blair (tracks: 6)
Mastered By – John Webber
Mixed By – Mark "Spike" Stent
Mixed By [Assistant Mix Engineer] – Matt Wolach
Photography By [Band Portraits] – Nick Rhodes
Photography By [Cover And Interior Booklet] – Daisuke Yokota
Piano – Joshua Blair (tracks: 1, 2)
Producer [Tove Lo Vocal], Recorded By [Tove Lo Vocal] – Peter Karlsson (tracks: 3)
Producer [Vocal Production] – Joshua Blair (tracks: 6, 7)
Production Manager [CHAI Recording] – Benji Compston (tracks: 11)
Programmed By [Additional Keyboard And Drum Machine Programming] – Erol Alkan (tracks: 1 to 5, 9 to 12)
Programmed By [Pro Tools Programming] – Joshua Blair


Tracklist:

01. Invisible (03:11)
02. All Of You (04:05)
03. Give It All Up (feat. Tove Lo) (05:07)
04. Anniversary (05:18)
05. Future Past (03:53)
06. Velvet Newton (02:40)
07. Beautiful Lies (03:36)
08. Tonight United (03:08)
09. Wing (05:19)
10. Nothing Less (04:26)
11. Laughing Boy (04:55)
12. Hammerhead (feat. Ivorian Doll) (03:34)
13. Invocation (02:08)
14. More Joy! (feat. CHAI) (03:39)
15. Five Years (Japan Bonus Track) (04:46)
16. Falling (feat. Mike Garson) (05:49)

Exact Audio Copy V1.6 from 23. October 2020

EAC extraction logfile from 1. November 2021, 20:52

Duran Duran / Future Past

Used drive : ASUS SDRW-08U9M-U Adapter: 0 ID: 0

Read mode : Secure
Utilize accurate stream : Yes
Defeat audio cache : Yes
Make use of C2 pointers : No

Read offset correction : 6
Overread into Lead-In and Lead-Out : No
Fill up missing offset samples with silence : Yes
Delete leading and trailing silent blocks : No
Null samples used in CRC calculations : Yes
Used interface : Installed external ASPI interface
Gap handling : Appended to previous track

Used output format : Internal WAV Routines
Sample format : 44.100 Hz; 16 Bit; Stereo


TOC of the extracted CD

Track | Start | Length | Start sector | End sector
––––––––––––––––––––––––––––-
1 | 0:00.00 | 3:11.34 | 0 | 14358
2 | 3:11.34 | 4:05.22 | 14359 | 32755
3 | 7:16.56 | 5:07.21 | 32756 | 55801
4 | 12:24.02 | 5:18.13 | 55802 | 79664
5 | 17:42.15 | 3:52.69 | 79665 | 97133
6 | 21:35.09 | 2:40.09 | 97134 | 109142
7 | 24:15.18 | 3:35.59 | 109143 | 125326
8 | 27:51.02 | 3:07.50 | 125327 | 139401
9 | 30:58.52 | 5:19.33 | 139402 | 163359
10 | 36:18.10 | 4:25.40 | 163360 | 183274
11 | 40:43.50 | 4:55.15 | 183275 | 205414
12 | 45:38.65 | 3:33.46 | 205415 | 221435
13 | 49:12.36 | 2:08.26 | 221436 | 231061
14 | 51:20.62 | 3:39.29 | 231062 | 247515
15 | 55:00.16 | 4:45.52 | 247516 | 268942
16 | 59:45.68 | 5:49.08 | 268943 | 295125


Track 1

Filename W:\Uploads\Duran Duran\2021 - Future Past (Japan)\01. Invisible.wav

Pre-gap length 0:00:02.00

Peak level 98.9 %
Extraction speed 2.9 X
Track quality 100.0 %
Test CRC 4C1BAA3A
Copy CRC 4C1BAA3A
Track not present in AccurateRip database
Copy OK

Track 2

Filename W:\Uploads\Duran Duran\2021 - Future Past (Japan)\02. All Of You.wav

Peak level 98.8 %
Extraction speed 3.2 X
Track quality 100.0 %
Test CRC FF1F054E
Copy CRC FF1F054E
Track not present in AccurateRip database
Copy OK

Track 3

Filename W:\Uploads\Duran Duran\2021 - Future Past (Japan)\03. Give It All Up.wav

Peak level 98.2 %
Extraction speed 3.6 X
Track quality 100.0 %
Test CRC 34664D91
Copy CRC 34664D91
Track not present in AccurateRip database
Copy OK

Track 4

Filename W:\Uploads\Duran Duran\2021 - Future Past (Japan)\04. Anniversary.wav

Peak level 98.8 %
Extraction speed 4.0 X
Track quality 100.0 %
Test CRC 24C1DAC1
Copy CRC 24C1DAC1
Track not present in AccurateRip database
Copy OK

Track 5

Filename W:\Uploads\Duran Duran\2021 - Future Past (Japan)\05. Future Past.wav

Peak level 98.4 %
Extraction speed 4.1 X
Track quality 100.0 %
Test CRC 41682D62
Copy CRC 41682D62
Track not present in AccurateRip database
Copy OK

Track 6

Filename W:\Uploads\Duran Duran\2021 - Future Past (Japan)\06. Velvet Newton.wav

Peak level 98.8 %
Extraction speed 4.0 X
Track quality 100.0 %
Test CRC 5CA2FD61
Copy CRC 5CA2FD61
Track not present in AccurateRip database
Copy OK

Track 7

Filename W:\Uploads\Duran Duran\2021 - Future Past (Japan)\07. Beautiful Lies.wav

Peak level 97.7 %
Extraction speed 3.6 X
Track quality 99.9 %
Test CRC 817478C4
Copy CRC 817478C4
Track not present in AccurateRip database
Copy OK

Track 8

Filename W:\Uploads\Duran Duran\2021 - Future Past (Japan)\08. Tonight United.wav

Peak level 99.4 %
Extraction speed 4.4 X
Track quality 100.0 %
Test CRC 86D2D135
Copy CRC 86D2D135
Track not present in AccurateRip database
Copy OK

Track 9

Filename W:\Uploads\Duran Duran\2021 - Future Past (Japan)\09. Wing.wav

Peak level 98.8 %
Extraction speed 4.9 X
Track quality 100.0 %
Test CRC 582C7F2C
Copy CRC 582C7F2C
Track not present in AccurateRip database
Copy OK

Track 10

Filename W:\Uploads\Duran Duran\2021 - Future Past (Japan)\10. Nothing Less.wav

Peak level 98.8 %
Extraction speed 5.1 X
Track quality 100.0 %
Test CRC 201D338B
Copy CRC 201D338B
Track not present in AccurateRip database
Copy OK

Track 11

Filename W:\Uploads\Duran Duran\2021 - Future Past (Japan)\11. Laughing Boy.wav

Peak level 98.9 %
Extraction speed 5.3 X
Track quality 100.0 %
Test CRC FB6F4020
Copy CRC FB6F4020
Track not present in AccurateRip database
Copy OK

Track 12

Filename W:\Uploads\Duran Duran\2021 - Future Past (Japan)\12. Hammerhead.wav

Peak level 98.8 %
Extraction speed 5.2 X
Track quality 100.0 %
Test CRC F72A2F95
Copy CRC F72A2F95
Track not present in AccurateRip database
Copy OK

Track 13

Filename W:\Uploads\Duran Duran\2021 - Future Past (Japan)\13. Invocation.wav

Peak level 98.8 %
Extraction speed 4.9 X
Track quality 100.0 %
Test CRC 5C879BE5
Copy CRC 5C879BE5
Track not present in AccurateRip database
Copy OK

Track 14

Filename W:\Uploads\Duran Duran\2021 - Future Past (Japan)\14. More Joy!.wav

Peak level 98.8 %
Extraction speed 5.5 X
Track quality 100.0 %
Test CRC B5141A16
Copy CRC B5141A16
Track not present in AccurateRip database
Copy OK

Track 15

Filename W:\Uploads\Duran Duran\2021 - Future Past (Japan)\15. Five Years (Japan Bonus Track).wav

Peak level 99.9 %
Extraction speed 5.9 X
Track quality 100.0 %
Test CRC 47D83D16
Copy CRC 47D83D16
Track not present in AccurateRip database
Copy OK

Track 16

Filename W:\Uploads\Duran Duran\2021 - Future Past (Japan)\16. Falling.wav

Peak level 98.8 %
Extraction speed 6.1 X
Track quality 100.0 %
Test CRC E739072E
Copy CRC E739072E
Track not present in AccurateRip database
Copy OK


None of the tracks are present in the AccurateRip database

No errors occurred

End of status report

–– CUETools DB Plugin V2.1.6

[CTDB TOCID: AJa75n1MLr7jAd2jk1jwhqTN8dc-] found
Submit result: AJa75n1MLr7jAd2jk1jwhqTN8dc- has been confirmed
Track | CTDB Status
1 | (7/7) Accurately ripped
2 | (7/7) Accurately ripped
3 | (7/7) Accurately ripped
4 | (7/7) Accurately ripped
5 | (7/7) Accurately ripped
6 | (7/7) Accurately ripped
7 | (7/7) Accurately ripped
8 | (7/7) Accurately ripped
9 | (7/7) Accurately ripped
10 | (7/7) Accurately ripped
11 | (7/7) Accurately ripped
12 | (7/7) Accurately ripped
13 | (7/7) Accurately ripped
14 | (7/7) Accurately ripped
15 | (7/7) Accurately ripped
16 | (7/7) Accurately ripped


==== Log checksum 8FA1FB2649E1673AEC426CF1AFFC4C51160B2709011A079980BC651F1FD35B88 ====

––––––––––––––––––––––––––––––––––––––––
Analyzed: Duran Duran feat. Chai / Future Past (Japan) (1)
Duran Duran feat. Ivorian Doll / Future Past (Japan) (2)
Duran Duran feat. Mike Garson / Future Past (Japan) (3)
Duran Duran feat. Tove Lo / Future Past (Japan) (4)
Duran Duran / Future Past (Japan) (5-16)
––––––––––––––––––––––––––––––––––––––––

DR Peak RMS Duration Track
––––––––––––––––––––––––––––––––––––––––
DR5 -0.10 dB -7.54 dB 3:39 14-More Joy!
DR4 -0.10 dB -6.43 dB 3:34 12-Hammerhead
DR4 -0.10 dB -7.45 dB 5:49 16-Falling
DR4 -0.15 dB -6.92 dB 5:07 03-Give It All Up
DR4 -0.10 dB -6.14 dB 3:11 01-Invisible
DR5 -0.10 dB -6.53 dB 4:05 02-All Of You
DR5 -0.10 dB -6.21 dB 5:18 04-Anniversary
DR5 -0.14 dB -6.43 dB 3:53 05-Future Past
DR4 -0.10 dB -5.81 dB 2:40 06-Velvet Newton
DR4 -0.20 dB -4.72 dB 3:36 07-Beautiful Lies
DR5 -0.05 dB -6.54 dB 3:08 08-Tonight United
DR4 -0.10 dB -5.93 dB 5:19 09-Wing
DR5 -0.10 dB -6.43 dB 4:26 10-Nothing Less
DR5 -0.09 dB -7.19 dB 4:55 11-Laughing Boy
DR3 -0.10 dB -5.39 dB 2:08 13-Invocation
DR7 -0.01 dB -8.85 dB 4:46 15-Five Years (Japan Bonus Track)
––––––––––––––––––––––––––––––––––––––––

Number of tracks: 16
Official DR value: DR5

Samplerate: 44100 Hz
Channels: 2
Bits per sample: 16
Bitrate: 905 kbps
Codec: FLAC
================================================================================

Thanks to aylaayla

♫~Welcome To My Blog~♫

password: BlondStyle