Subcategories

Dvorak: Stabat Mater (2012)

Posted By: peotuvave
Dvorak: Stabat Mater (2012)

Dvorak: Stabat Mater (2012)
EAC Rip | Flac (Image + cue + log) | 1 CD | Full Scans | 285 MB
Genre: Classical | Label: Lpo | Catalog Number: 62

Dvořák’s Stabat Mater was a work brought about by personal tragedy of almost incomprehensible proportions, after the composer lost all three of his then living children. A setting of the mediaeval Latin prayer to the bereaved mother of the crucified Christ, it was to become both a work of mourning and a work of healing. The shifts of mood from grief and near despair to hope and faith run throughout the work, before the glory and solace of the final Amen. Neeme Järvi conducts the London Philharmonic Orchestra and Choir in this live concert recording.

The head of a musical dynasty, Neeme Järvi is one of today’s most respected maestros. He conducts many of the world’s most prominent orchestras and works alongside soloists of the highest calibre. A prolific recording artist, he has amassed a discography of over 450 recordings. This new CD sits alongside Järvi’s acclaimed recording of the Dvořák Requiem released on the LPO label in 2009.

The strong soloist line up includes the superlative soprano Janice Watson and bass Peter Rose. Tenor Peter Auty along with Rose feature on the Dvořák Requiem recording (LPO0042).

Composer: Antonín Dvorák
Performer: Dagmar Pecková, Peter Auty, Janice Watson, Peter [Bass Vocal] Rose
Conductor: Neeme Järvi

Reviews: “Peter Rose's commanding resonance is full of warmth. Janice Watson floats with a beautiful ease…From an orchestral point of view this performance is a triumph, with flawless playing. The LPO Choir also make an excellently incisive contribution. Jarvi's adoption of flowing (and occasionally brisk) tempi helps to drive the piece on…An interpretation to savour.”

“Given its length and the understandable prevailing sadness of the music, perhaps it's not surprising that performances are relatively rare, but as this recording…shows, it nevertheless contains moments of ravishing beauty, when it seems as if Dvořák was remembering happier, more tranquil times. It's the suave beauty of the orchestral writing that comes across most vividly from the London Philharmonic under Järvi.”

Tracklisting:

1. Stabat Mater, Op. 58/B 71 by Antonín Dvorák
Performer: Dagmar Pecková (), Peter Auty (), Janice Watson (),
Peter [Bass Vocal] Rose ()
Conductor: Neeme Järvi
Period: Romantic
Written: 1876-1877; Bohemia
Date of Recording: 10/09/2010
Venue: Live Southbank Centre's Royal Festival Hall,
Length: 60 Minutes 32 Secs.

Exact Audio Copy V1.0 beta 3 from 29. August 2011

EAC extraction logfile from 18. November 2012, 19:25

Watson, Peckova, Auty, Rose; London Philharmonic Orchestra & Choir, Neeme Jarvi / Dvorak - Stabat Mater

Used drive : HL-DT-STDVDRAM GSA-4083N Adapter: 1 ID: 0

Read mode : Secure
Utilize accurate stream : Yes
Defeat audio cache : Yes
Make use of C2 pointers : No

Read offset correction : 667
Overread into Lead-In and Lead-Out : No
Fill up missing offset samples with silence : Yes
Delete leading and trailing silent blocks : No
Null samples used in CRC calculations : Yes
Used interface : Native Win32 interface for Win NT & 2000

Used output format : User Defined Encoder
Selected bitrate : 896 kBit/s
Quality : High
Add ID3 tag : No
Command line compressor : C:\Program Files\Exact Audio Copy\Flac\flac.exe
Additional command line options : -V -8 %source%


TOC of the extracted CD

Track | Start | Length | Start sector | End sector
––––––––––––––––––––––––––––-
1 | 0:00.00 | 13:59.56 | 0 | 62980
2 | 13:59.56 | 8:23.13 | 62981 | 100718
3 | 22:22.69 | 5:29.40 | 100719 | 125433
4 | 27:52.34 | 7:45.58 | 125434 | 160366
5 | 35:38.17 | 4:25.08 | 160367 | 180249
6 | 40:03.25 | 5:07.73 | 180250 | 203347
7 | 45:11.23 | 5:17.32 | 203348 | 227154
8 | 50:28.55 | 4:52.43 | 227155 | 249097
9 | 55:21.23 | 4:29.37 | 249098 | 269309
10 | 59:50.60 | 2:46.09 | 269310 | 281768
11 | 62:36.69 | 4:31.03 | 281769 | 302096


Range status and errors

Selected range

Filename J:\New Music\Dvorak - Stabat Mater - Jarvi\Dvorak - Stabat Mater.wav

Peak level 100.0 %
Extraction speed 4.2 X
Range quality 100.0 %
Test CRC 99748CB9
Copy CRC 99748CB9
Copy OK

No errors occurred

End of status report

==== Log checksum 1E7052760EE9A8725F4D68C68EA4ED45AADC4D3297006100848E3879707E83ED ====


Thanks to the original releaser

Download:

Filepost

Part 1 | Part 2

Uploaded

Part 1 | Part 2