Tags
Language
Tags

Dwiki Dharmawan - Rumah Batu (2018)

Posted By: popsakov
Dwiki Dharmawan - Rumah Batu (2018)

Dwiki Dharmawan - Rumah Batu (2018)
EAC Rip | FLAC (Tracks) + Cue +m3u + Log ~ 483 Mb | MP3 CBR320 ~ 189 Mb
Full Scans ~ 107 Mb | 01:18:05 | RAR 5% Recovery
Jazz Fusion / World Fusion / Contemporary Jazz / Gamelan
MoonJune Records #MJR092

Riding the momentum of 2016's groundbreaking, critically heralded release, "Pasar Klewer" – an album awarded a 5-star review by Downbeat, All About Jazz, and numerous others – MoonJune Records is proud to present the phenomenal new album by the iconic keyboardist, composer and producer, Dwiki Dharmawan. Drawing from both his extensive jazz influences and his rich cultural heritage, the Indonesian maestro delivers yet another spellbinding masterwork!

Brimming with adventurous compositions, ingenious arrangements and superlative performances, "Rumah Batu"(meaning "the stone house" in Indonesian Bahasa language) almost defies categorization – eclipsing both progressive jazz and world music genres. While a score of diverse ethnic flavors abound throughout, within its nucleus resides the free-spirited, unpretentious essence that epitomizes the greatest jazz.

Augmented by a stellar cast of players, vastly international in scope – including: the enigmatic French virtuoso, of Vietnamese descent, Nguyên Lê, on guitar; legendary flamenco fretless bassist, Spain's Carles Benavent; the extraordinary flutist, also from Indonesia, Sa'at Syah, and; the proven progressive backbone of fellow Israeli-born, UK transplants, Yaron Stavi [on upright bass (yes: the album features twin basses!)] and (supreme drummer) Asaf Sirkis – this landmark recording offers an intimate glimpse into Dwiki's unparalleled genius as player, arranger and songwriter.

The album chronicles yet another magical session created and captured at the already-infamous La Casa Murada. Situated in the tranquil, picturesque setting of the Catalonian wine region of Penedès, Spain, the studio's recordings seem to take on a life of their own; and Rumah Batu is certainly no exception: articulating jazz's continuing evolution in the 21st century.

For those who wondered what Messenger Dharmawan could possibly conjur as a follow-up to Rumah Batu's unanimously praised predecessor, prepare to be amazed and perplexed – and escorted on a musical sojourn unlike any the genre has ever witnessed!

***************

Dwiki Dharmawan - Rumah Batu (2018)

Dwiki Dharmawan - Rumah Batu (2018)

Track List:

01. Rintak Rebana [10:39]
02. Paris Barantai [11:44]
03. Impenan [8:20]
04. Janger [5:59]
05. Rumah Batu Suite, Part 1 - Kaili [12:11]
06. Rumah Batu Suite, Part 2 - Perjalanan [14:14]
07. Samarkand [7:41]
08. Salamatkan Orang Utan [7:16]

Personnel:
Dwiki Dharmawan - Acoustic Piano
Nguyên Lê - Electric Guitar, Soundscapes
Carles Benavent - Bass Guitar
Yaron Stavi - Upright Bass
Asaf Sirkis - Drums

With Special Guests:
Sa'at Syah - Suling Flute, Vocals (1, 2, 3, 4, 7, 8)
Ade Rudiana - Kendang Percussion (1, 2, 3, 4, 7, 8)
Dewi Gita - Lead Vocal (3)
Teuku Hariansya & Indra Maulana Keubitbit - Rapa’i Acehnese Percussions (1)
Nyoman Windha’s Gamelan Jass Jegog - Balinese Gamelan & Percussions (4)
Smit - Vocals And Lalove Traditional Sulawesi Flute (6)

Exact Audio Copy V1.0 beta 4 from 7. December 2014

EAC extraction logfile from 1. October 2018, 13:28

Dwiki Dharmawan / Rumah Batu

Used drive : ATAPI iHAS124 E Adapter: 1 ID: 0

Read mode : Secure
Utilize accurate stream : Yes
Defeat audio cache : Yes
Make use of C2 pointers : No

Read offset correction : 6
Overread into Lead-In and Lead-Out : No
Fill up missing offset samples with silence : Yes
Delete leading and trailing silent blocks : No
Null samples used in CRC calculations : Yes
Used interface : Native Win32 interface for Win NT & 2000
Gap handling : Appended to previous track

Used output format : User Defined Encoder
Selected bitrate : 768 kBit/s
Quality : High
Add ID3 tag : No
Command line compressor : C:\Program Files (x86)\flac-1.3.2-win\win64\flac.exe
Additional command line options : -8 -V -T "ARTIST=%artist%" -T "TITLE=%title%" -T "ALBUM=%albumtitle%" -T "DATE=%year%" -T "TRACKNUMBER=%tracknr%" -T "GENRE=%genre%" -T "COMMENT=ripped by vp_sunset" %source% -o %dest%


TOC of the extracted CD

Track | Start | Length | Start sector | End sector
––––––––––––––––––––––––––––-
1 | 0:00.00 | 10:41.08 | 0 | 48082
2 | 10:41.08 | 11:45.51 | 48083 | 101008
3 | 22:26.59 | 8:23.35 | 101009 | 138768
4 | 30:50.19 | 6:02.26 | 138769 | 165944
5 | 36:52.45 | 12:11.22 | 165945 | 220791
6 | 49:03.67 | 14:16.16 | 220792 | 285007
7 | 63:20.08 | 7:43.39 | 285008 | 319771
8 | 71:03.47 | 7:16.37 | 319772 | 352508


Track 1

Filename C:\_EAC\01. Rintak Rebana.wav

Pre-gap length 0:00:02.00

Peak level 94.6 %
Extraction speed 2.2 X
Track quality 99.9 %
Test CRC 275C39A4
Copy CRC 275C39A4
Track not present in AccurateRip database
Copy OK

Track 2

Filename C:\_EAC\02. Paris Barantai.wav

Pre-gap length 0:00:02.00

Peak level 95.9 %
Extraction speed 3.0 X
Track quality 100.0 %
Test CRC 59D31D06
Copy CRC 59D31D06
Track not present in AccurateRip database
Copy OK

Track 3

Filename C:\_EAC\03. Impenan.wav

Pre-gap length 0:00:02.00

Peak level 94.4 %
Extraction speed 3.3 X
Track quality 100.0 %
Test CRC 420E60F3
Copy CRC 420E60F3
Track not present in AccurateRip database
Copy OK

Track 4

Filename C:\_EAC\04. Janger.wav

Pre-gap length 0:00:03.00

Peak level 95.8 %
Extraction speed 3.5 X
Track quality 100.0 %
Test CRC 7568346D
Copy CRC 7568346D
Track not present in AccurateRip database
Copy OK

Track 5

Filename C:\_EAC\05. Rumah Batu Suite, Part 1 - Kaili.wav

Pre-gap length 0:00:03.00

Peak level 94.3 %
Extraction speed 4.0 X
Track quality 100.0 %
Test CRC C4AF0F98
Copy CRC C4AF0F98
Track not present in AccurateRip database
Copy OK

Track 6

Filename C:\_EAC\06. Rumah Batu Suite, Part 2 - Perjalanan.wav

Peak level 94.4 %
Extraction speed 3.9 X
Track quality 99.9 %
Test CRC 06C13B0C
Copy CRC 06C13B0C
Track not present in AccurateRip database
Copy OK

Track 7

Filename C:\_EAC\07. Samarkand.wav

Pre-gap length 0:00:02.00

Peak level 95.5 %
Extraction speed 4.5 X
Track quality 100.0 %
Test CRC 12EDC1E1
Copy CRC 12EDC1E1
Track not present in AccurateRip database
Copy OK

Track 8

Filename C:\_EAC\08. Salamatkan Orang Utan.wav

Pre-gap length 0:00:03.00

Peak level 95.7 %
Extraction speed 4.7 X
Track quality 100.0 %
Test CRC B7770727
Copy CRC B7770727
Track not present in AccurateRip database
Copy OK


None of the tracks are present in the AccurateRip database

No errors occurred

End of status report

–– CUETools DB Plugin V2.1.4

[CTDB TOCID: iMYXt.iPyM8gd0lwdkmi2j3dNzg-] found
Submit result: iMYXt.iPyM8gd0lwdkmi2j3dNzg- has been confirmed
Track | CTDB Status
1 | (1/1) Accurately ripped
2 | (1/1) Accurately ripped
3 | (1/1) Accurately ripped
4 | (1/1) Accurately ripped
5 | (1/1) Accurately ripped
6 | (1/1) Accurately ripped
7 | (1/1) Accurately ripped
8 | (1/1) Accurately ripped


==== Log checksum A9257F1A11FA7F2884770D5EB6ABCE2670BD773FDCB1DFF5A52035FC591AAC71 ====

foobar2000 1.3.16 / Dynamic Range Meter 1.1.1
log date: 2018-10-01 20:43:19

––––––––––––––––––––––––––––––––––––––––
Analyzed: Dwiki Dharmawan / Rumah Batu
––––––––––––––––––––––––––––––––––––––––

DR Peak RMS Duration Track
––––––––––––––––––––––––––––––––––––––––
DR12 -0.48 dB -14.27 dB 10:41 01-Rintak Rebana
DR9 -0.36 dB -12.43 dB 11:46 02-Paris Barantai
DR11 -0.50 dB -14.63 dB 8:23 03-Impenan
DR10 -0.36 dB -14.78 dB 6:02 04-Janger
DR12 -0.50 dB -15.15 dB 12:11 05-Rumah Batu Suite, Part 1 - Kaili
DR10 -0.49 dB -14.98 dB 14:16 06-Rumah Batu Suite, Part 2 - Perjalanan
DR10 -0.40 dB -11.79 dB 7:44 07-Samarkand
DR11 -0.37 dB -13.41 dB 7:16 08-Salamatkan Orang Utan
––––––––––––––––––––––––––––––––––––––––

Number of tracks: 8
Official DR value: DR11

Samplerate: 44100 Hz
Channels: 2
Bits per sample: 16
Bitrate: 938 kbps
Codec: FLAC
================================================================================

Dwiki Dharmawan - Rumah Batu (2018)


All thanks go to vp_sunset

>>> My Blog <<<

DOWNLOAD: