Subcategories

Bob Dylan - Dylan Revisited: All Time Best (2016) [5CD Box Set]

Posted By: SERTiL
Bob Dylan - Dylan Revisited: All Time Best (2016) [5CD Box Set]

Bob Dylan - Dylan Revisited: All Time Best (2016) [5CD Box Set]
EAC Rip | FLAC (tracks)+cue, log | 2.29 GB
Label: Sony Records Int'l ‎– SICP-4761 | Tracks: 87 | Time: 386:52 min
Folk Rock, Singer-Songwriter

This 5CD limited edition boxed set with 87 tracks is being released in Japan in conjunction with Bob's April 2016 tour there, and also to celebrate his 75th birthday. The set was compiled by Kenta Hagiwara, who also wrote the liner notes, with lyrics translated by Goro Nakagawa (English lyrics for some songs aren't included "by the artist's intention"). The publicity says this is the first Dylan compilation exclusively released by Sony Music Japan, but this is very much untrue! There have been many exclusive Japanese releases from the 1960s onwards.

Tracklist:

CD1
1. Song to Woody
2. Blowin' in the Wind
3. Don't Think Twice, It's All Right
4. A Hard Rain's A-Gonna Fall
5. The Times They Are A-Changin'
6. One Too Many Mornings
7. All I Really Want to Do
8. It Ain't Me, Babe
9. My Back Pages
10. Subterranean Homesick Blues
11. Maggie's Farm
12. Mr. Tambourine Man
13. Like a Rolling Stone
14. Highway 61 Revisited
15. Queen Jane Approximately
16. Positively 4th Street
17. Stuck Inside of Mobile with the Memphis Blues Again
18. Rainy Day Women #12 & 35

Exact Audio Copy V1.1 from 23. June 2015

EAC extraction logfile from 15. April 2016, 13:43

Bob Dylan / Dylan Revisited - All Time Best

Used drive : PLDS DVD-RW DH16AESH Adapter: 1 ID: 0

Read mode : Secure
Utilize accurate stream : Yes
Defeat audio cache : Yes
Make use of C2 pointers : No

Read offset correction : 6
Overread into Lead-In and Lead-Out : No
Fill up missing offset samples with silence : Yes
Delete leading and trailing silent blocks : No
Null samples used in CRC calculations : Yes
Used interface : Native Win32 interface for Win NT & 2000
Gap handling : Appended to previous track

Used output format : User Defined Encoder
Selected bitrate : 1024 kBit/s
Quality : High
Add ID3 tag : No
Command line compressor : C:\Program Files (x86)\Exact Audio Copy\Flac\flac.exe
Additional command line options : -8 -e -V -T "ARTIST=%artist%" -T "TITLE=%title%" -T "ALBUM=%albumtitle%" -T "DATE=%year%" -T "TRACKNUMBER=%tracknr%" -T "GENRE=%genre%" -T "PERFORMER=%albuminterpret%" -T "COMPOSER=%composer%" %haslyrics%–tag-from-file=LYRICS="%lyricsfile%"%haslyrics% -T "ALBUMARTIST=%albumartist%" -T "DISCNUMBER=%cdnumber%" -T "TOTALDISCS=%totalcds%" -T "TOTALTRACKS=%numtracks%" -T "COMMENT=%comment%" %source% -o %dest%


TOC of the extracted CD

Track | Start | Length | Start sector | End sector
––––––––––––––––––––––––––––-
1 | 0:00.00 | 2:43.62 | 0 | 12286
2 | 2:43.62 | 2:49.42 | 12287 | 25003
3 | 5:33.29 | 3:42.19 | 25004 | 41672
4 | 9:15.48 | 6:54.16 | 41673 | 72738
5 | 16:09.64 | 3:15.68 | 72739 | 87431
6 | 19:25.57 | 2:41.27 | 87432 | 99533
7 | 22:07.09 | 4:07.02 | 99534 | 118060
8 | 26:14.11 | 3:36.52 | 118061 | 134312
9 | 29:50.63 | 4:26.05 | 134313 | 154267
10 | 34:16.68 | 2:21.47 | 154268 | 164889
11 | 36:38.40 | 3:57.62 | 164890 | 182726
12 | 40:36.27 | 5:27.63 | 182727 | 207314
13 | 46:04.15 | 6:10.61 | 207315 | 235125
14 | 52:15.01 | 3:28.14 | 235126 | 250739
15 | 55:43.15 | 5:29.21 | 250740 | 275435
16 | 61:12.36 | 4:10.33 | 275436 | 294218
17 | 65:22.69 | 7:07.09 | 294219 | 326252
18 | 72:30.03 | 4:36.50 | 326253 | 347002


Track 1

Filename C:\EAC Rips\Bob Dylan - Dylan Revisited - All Time Best [FLAC]\Disc One\01 - Song To Woody.wav

Pre-gap length 0:00:02.00

Peak level 81.0 %
Extraction speed 3.7 X
Track quality 100.0 %
Test CRC F767973C
Copy CRC F767973C
Track not present in AccurateRip database
Copy OK

Track 2

Filename C:\EAC Rips\Bob Dylan - Dylan Revisited - All Time Best [FLAC]\Disc One\02 - Blowin' In The Wind.wav

Pre-gap length 0:00:01.56

Peak level 99.8 %
Extraction speed 4.0 X
Track quality 100.0 %
Test CRC BDEEACAD
Copy CRC BDEEACAD
Track not present in AccurateRip database
Copy OK

Track 3

Filename C:\EAC Rips\Bob Dylan - Dylan Revisited - All Time Best [FLAC]\Disc One\03 - Don't Think Twice, It's All Right.wav

Pre-gap length 0:00:01.58

Peak level 94.3 %
Extraction speed 4.4 X
Track quality 100.0 %
Test CRC 3033D908
Copy CRC 3033D908
Track not present in AccurateRip database
Copy OK

Track 4

Filename C:\EAC Rips\Bob Dylan - Dylan Revisited - All Time Best [FLAC]\Disc One\04 - A Hard Rain's A-Gonna Fall.wav

Pre-gap length 0:00:01.60

Peak level 99.8 %
Extraction speed 5.2 X
Track quality 100.0 %
Test CRC AB7ECE89
Copy CRC AB7ECE89
Track not present in AccurateRip database
Copy OK

Track 5

Filename C:\EAC Rips\Bob Dylan - Dylan Revisited - All Time Best [FLAC]\Disc One\05 - The Times They Are A-Changin'.wav

Pre-gap length 0:00:02.13

Peak level 95.3 %
Extraction speed 5.0 X
Track quality 100.0 %
Test CRC C8D42D4B
Copy CRC C8D42D4B
Track not present in AccurateRip database
Copy OK

Track 6

Filename C:\EAC Rips\Bob Dylan - Dylan Revisited - All Time Best [FLAC]\Disc One\06 - One Too Many Mornings.wav

Pre-gap length 0:00:01.64

Peak level 94.3 %
Extraction speed 3.8 X
Track quality 99.9 %
Test CRC AFC15D90
Copy CRC AFC15D90
Track not present in AccurateRip database
Copy OK

Track 7

Filename C:\EAC Rips\Bob Dylan - Dylan Revisited - All Time Best [FLAC]\Disc One\07 - All I Really Want To Do.wav

Pre-gap length 0:00:01.49

Peak level 91.1 %
Extraction speed 5.6 X
Track quality 100.0 %
Test CRC CE95BD3C
Copy CRC CE95BD3C
Track not present in AccurateRip database
Copy OK

Track 8

Filename C:\EAC Rips\Bob Dylan - Dylan Revisited - All Time Best [FLAC]\Disc One\08 - It Ain't Me Babe.wav

Pre-gap length 0:00:02.01

Peak level 95.3 %
Extraction speed 5.9 X
Track quality 100.0 %
Test CRC 5DBBDBA9
Copy CRC 5DBBDBA9
Track not present in AccurateRip database
Copy OK

Track 9

Filename C:\EAC Rips\Bob Dylan - Dylan Revisited - All Time Best [FLAC]\Disc One\09 - My Back Pages.wav

Pre-gap length 0:00:01.56

Peak level 91.0 %
Extraction speed 6.2 X
Track quality 100.0 %
Test CRC 7915EBFC
Copy CRC 7915EBFC
Track not present in AccurateRip database
Copy OK

Track 10

Filename C:\EAC Rips\Bob Dylan - Dylan Revisited - All Time Best [FLAC]\Disc One\10 - Subterranean Homesick Blues.wav

Pre-gap length 0:00:02.02

Peak level 99.8 %
Extraction speed 5.8 X
Track quality 100.0 %
Test CRC 4B54CE61
Copy CRC 4B54CE61
Track not present in AccurateRip database
Copy OK

Track 11

Filename C:\EAC Rips\Bob Dylan - Dylan Revisited - All Time Best [FLAC]\Disc One\11 - Maggie's Farm.wav

Pre-gap length 0:00:01.33

Peak level 99.8 %
Extraction speed 6.6 X
Track quality 100.0 %
Test CRC 16B885FC
Copy CRC 16B885FC
Track not present in AccurateRip database
Copy OK

Track 12

Filename C:\EAC Rips\Bob Dylan - Dylan Revisited - All Time Best [FLAC]\Disc One\12 - Mr. Tambourine Man.wav

Pre-gap length 0:00:01.32

Peak level 99.8 %
Extraction speed 7.0 X
Track quality 100.0 %
Test CRC 1F672B10
Copy CRC 1F672B10
Track not present in AccurateRip database
Copy OK

Track 13

Filename C:\EAC Rips\Bob Dylan - Dylan Revisited - All Time Best [FLAC]\Disc One\13 - Like A Rolling Stone.wav

Pre-gap length 0:00:01.26

Peak level 98.7 %
Extraction speed 6.3 X
Track quality 99.9 %
Test CRC 2124744A
Copy CRC 2124744A
Track not present in AccurateRip database
Copy OK

Track 14

Filename C:\EAC Rips\Bob Dylan - Dylan Revisited - All Time Best [FLAC]\Disc One\14 - Highway 61 Revisited.wav

Pre-gap length 0:00:01.40

Peak level 98.7 %
Extraction speed 7.1 X
Track quality 100.0 %
Test CRC FD42750E
Copy CRC FD42750E
Track not present in AccurateRip database
Copy OK

Track 15

Filename C:\EAC Rips\Bob Dylan - Dylan Revisited - All Time Best [FLAC]\Disc One\15 - Queen Jane Approximately.wav

Pre-gap length 0:00:01.33

Peak level 98.7 %
Extraction speed 7.8 X
Track quality 100.0 %
Test CRC 28436BB0
Copy CRC 28436BB0
Track not present in AccurateRip database
Copy OK

Track 16

Filename C:\EAC Rips\Bob Dylan - Dylan Revisited - All Time Best [FLAC]\Disc One\16 - Positively 4th Street.wav

Pre-gap length 0:00:01.10

Peak level 100.0 %
Extraction speed 7.7 X
Track quality 100.0 %
Test CRC DD36986B
Copy CRC DD36986B
Track not present in AccurateRip database
Copy OK

Track 17

Filename C:\EAC Rips\Bob Dylan - Dylan Revisited - All Time Best [FLAC]\Disc One\17 - Stuck Inside Of Mobile With The Memphis Blues Again.wav

Pre-gap length 0:00:01.09

Peak level 98.7 %
Extraction speed 8.4 X
Track quality 100.0 %
Test CRC AFB6538C
Copy CRC AFB6538C
Track not present in AccurateRip database
Copy OK

Track 18

Filename C:\EAC Rips\Bob Dylan - Dylan Revisited - All Time Best [FLAC]\Disc One\18 - Rainy Day Women #12 & 35.wav

Pre-gap length 0:00:01.56

Peak level 99.8 %
Extraction speed 8.3 X
Track quality 100.0 %
Test CRC D7880F62
Copy CRC D7880F62
Track not present in AccurateRip database
Copy OK


None of the tracks are present in the AccurateRip database

No errors occurred

End of status report

–– CUETools DB Plugin V2.1.6

[CTDB TOCID: EFioMKP_UKKdMOmqMbbCUuIsqk8-] found
Submit result: EFioMKP_UKKdMOmqMbbCUuIsqk8- has been confirmed
Track | CTDB Status
1 | (1/1) Accurately ripped
2 | (1/1) Accurately ripped
3 | (1/1) Accurately ripped
4 | (1/1) Accurately ripped
5 | (1/1) Accurately ripped
6 | (1/1) Accurately ripped
7 | (1/1) Accurately ripped
8 | (1/1) Accurately ripped
9 | (1/1) Accurately ripped
10 | (1/1) Accurately ripped
11 | (1/1) Accurately ripped
12 | (1/1) Accurately ripped
13 | (1/1) Accurately ripped
14 | (1/1) Accurately ripped
15 | (1/1) Accurately ripped
16 | (1/1) Accurately ripped
17 | (1/1) Accurately ripped
18 | (1/1) Accurately ripped


==== Log checksum 2874885FDC7EC63718FC91B4D6AF88708B5E85327884CE88D14A59E3F78E0A62 ====


CD2
1. I Want You
2. Just Like a Woman
3. All Along the Watchtower
4. I'll Be Your Baby Tonight
5. I Threw It All Away
6. Lay Lady Lay
7. Tonight I'll Be Staying Here with You
8. This Wheel's on Fire
9. You Ain't Goin' Nowhere
10. Wigwam
11. If Not for You
12. The Man in Me
13. I Shall Be Released
14. Watching the River Flow
15. Knockin' On Heaven's Door
16. On a Night Like This
17. Forever Young (slow version)
18. Most Likely You Go Your Way and I'll Go Mine
19. Tangled Up in Blue
20. Simple Twist of Fate
21. Hurricane

Exact Audio Copy V1.1 from 23. June 2015

EAC extraction logfile from 15. April 2016, 14:40

Bob Dylan / Dylan Revisited - All Time Best

Used drive : PLDS DVD-RW DH16AESH Adapter: 1 ID: 0

Read mode : Secure
Utilize accurate stream : Yes
Defeat audio cache : Yes
Make use of C2 pointers : No

Read offset correction : 6
Overread into Lead-In and Lead-Out : No
Fill up missing offset samples with silence : Yes
Delete leading and trailing silent blocks : No
Null samples used in CRC calculations : Yes
Used interface : Native Win32 interface for Win NT & 2000
Gap handling : Appended to previous track

Used output format : User Defined Encoder
Selected bitrate : 1024 kBit/s
Quality : High
Add ID3 tag : No
Command line compressor : C:\Program Files (x86)\Exact Audio Copy\Flac\flac.exe
Additional command line options : -8 -e -V -T "ARTIST=%artist%" -T "TITLE=%title%" -T "ALBUM=%albumtitle%" -T "DATE=%year%" -T "TRACKNUMBER=%tracknr%" -T "GENRE=%genre%" -T "PERFORMER=%albuminterpret%" -T "COMPOSER=%composer%" %haslyrics%–tag-from-file=LYRICS="%lyricsfile%"%haslyrics% -T "ALBUMARTIST=%albumartist%" -T "DISCNUMBER=%cdnumber%" -T "TOTALDISCS=%totalcds%" -T "TOTALTRACKS=%numtracks%" -T "COMMENT=%comment%" %source% -o %dest%


TOC of the extracted CD

Track | Start | Length | Start sector | End sector
––––––––––––––––––––––––––––-
1 | 0:00.00 | 3:07.61 | 0 | 14085
2 | 3:07.61 | 4:54.63 | 14086 | 36198
3 | 8:02.49 | 2:34.64 | 36199 | 47812
4 | 10:37.38 | 2:41.41 | 47813 | 59928
5 | 13:19.04 | 2:26.10 | 59929 | 70888
6 | 15:45.14 | 3:19.69 | 70889 | 85882
7 | 19:05.08 | 3:25.28 | 85883 | 101285
8 | 22:30.36 | 3:52.43 | 101286 | 118728
9 | 26:23.04 | 2:44.67 | 118729 | 131095
10 | 29:07.71 | 3:10.03 | 131096 | 145348
11 | 32:17.74 | 2:42.21 | 145349 | 157519
12 | 35:00.20 | 3:07.14 | 157520 | 171558
13 | 38:07.34 | 3:04.54 | 171559 | 185412
14 | 41:12.13 | 3:36.45 | 185413 | 201657
15 | 44:48.58 | 2:31.45 | 201658 | 213027
16 | 47:20.28 | 2:57.46 | 213028 | 226348
17 | 50:17.74 | 4:56.53 | 226349 | 248601
18 | 55:14.52 | 4:18.38 | 248602 | 267989
19 | 59:33.15 | 5:43.13 | 267990 | 293727
20 | 65:16.28 | 4:19.30 | 293728 | 313182
21 | 69:35.58 | 8:34.13 | 313183 | 351745


Track 1

Filename C:\EAC Rips\Bob Dylan - Dylan Revisited - All Time Best [FLAC]\Disc Two\01 - I Want You.wav

Pre-gap length 0:00:02.00

Peak level 99.8 %
Extraction speed 2.0 X
Track quality 100.0 %
Test CRC 07306E0F
Copy CRC 07306E0F
Track not present in AccurateRip database
Copy OK

Track 2

Filename C:\EAC Rips\Bob Dylan - Dylan Revisited - All Time Best [FLAC]\Disc Two\02 - Just Like A Woman.wav

Pre-gap length 0:00:01.24

Peak level 99.8 %
Extraction speed 2.4 X
Track quality 100.0 %
Test CRC E2AFCA55
Copy CRC E2AFCA55
Track not present in AccurateRip database
Copy OK

Track 3

Filename C:\EAC Rips\Bob Dylan - Dylan Revisited - All Time Best [FLAC]\Disc Two\03 - All Along The Watchtower.wav

Pre-gap length 0:00:01.69

Peak level 100.0 %
Extraction speed 2.3 X
Track quality 100.0 %
Test CRC B8E510DE
Copy CRC B8E510DE
Track not present in AccurateRip database
Copy OK

Track 4

Filename C:\EAC Rips\Bob Dylan - Dylan Revisited - All Time Best [FLAC]\Disc Two\04 - I'll Be Your Baby Tonight.wav

Pre-gap length 0:00:01.54

Peak level 99.8 %
Extraction speed 2.4 X
Track quality 100.0 %
Test CRC 99C30B32
Copy CRC 99C30B32
Track not present in AccurateRip database
Copy OK

Track 5

Filename C:\EAC Rips\Bob Dylan - Dylan Revisited - All Time Best [FLAC]\Disc Two\05 - I Threw It All Away.wav

Pre-gap length 0:00:01.64

Peak level 89.0 %
Extraction speed 2.5 X
Track quality 100.0 %
Test CRC 20DD4E43
Copy CRC 20DD4E43
Track not present in AccurateRip database
Copy OK

Track 6

Filename C:\EAC Rips\Bob Dylan - Dylan Revisited - All Time Best [FLAC]\Disc Two\06 - Lay Lady Lay.wav

Pre-gap length 0:00:01.49

Peak level 95.3 %
Extraction speed 2.7 X
Track quality 100.0 %
Test CRC C2CFEAFB
Copy CRC C2CFEAFB
Track not present in AccurateRip database
Copy OK

Track 7

Filename C:\EAC Rips\Bob Dylan - Dylan Revisited - All Time Best [FLAC]\Disc Two\07 - Tonight I'll Be Staying Here With You.wav

Pre-gap length 0:00:01.22

Peak level 95.3 %
Extraction speed 2.9 X
Track quality 100.0 %
Test CRC 81497955
Copy CRC 81497955
Track not present in AccurateRip database
Copy OK

Track 8

Filename C:\EAC Rips\Bob Dylan - Dylan Revisited - All Time Best [FLAC]\Disc Two\08 - This Wheel's On Fire.wav

Pre-gap length 0:00:01.08

Peak level 87.3 %
Extraction speed 3.1 X
Track quality 100.0 %
Test CRC E7D5E917
Copy CRC E7D5E917
Track not present in AccurateRip database
Copy OK

Track 9

Filename C:\EAC Rips\Bob Dylan - Dylan Revisited - All Time Best [FLAC]\Disc Two\09 - You Ain't Goin' Nowhere.wav

Pre-gap length 0:00:01.45

Peak level 97.6 %
Extraction speed 3.0 X
Track quality 100.0 %
Test CRC FB9E7BB7
Copy CRC FB9E7BB7
Track not present in AccurateRip database
Copy OK

Track 10

Filename C:\EAC Rips\Bob Dylan - Dylan Revisited - All Time Best [FLAC]\Disc Two\10 - Wigwam.wav

Pre-gap length 0:00:02.13

Peak level 74.5 %
Extraction speed 3.2 X
Track quality 100.0 %
Test CRC 9CF13A97
Copy CRC 9CF13A97
Track not present in AccurateRip database
Copy OK

Track 11

Filename C:\EAC Rips\Bob Dylan - Dylan Revisited - All Time Best [FLAC]\Disc Two\11 - If Not For You.wav

Pre-gap length 0:00:01.93

Peak level 93.2 %
Extraction speed 3.2 X
Track quality 100.0 %
Test CRC 03D3F0EB
Copy CRC 03D3F0EB
Track not present in AccurateRip database
Copy OK

Track 12

Filename C:\EAC Rips\Bob Dylan - Dylan Revisited - All Time Best [FLAC]\Disc Two\12 - The Man In Me.wav

Pre-gap length 0:00:01.22

Peak level 88.6 %
Extraction speed 3.3 X
Track quality 100.0 %
Test CRC 4099B1CF
Copy CRC 4099B1CF
Track not present in AccurateRip database
Copy OK

Track 13

Filename C:\EAC Rips\Bob Dylan - Dylan Revisited - All Time Best [FLAC]\Disc Two\13 - I Shall Be Released.wav

Pre-gap length 0:00:01.00

Peak level 99.8 %
Extraction speed 3.4 X
Track quality 100.0 %
Test CRC 8FAC1D72
Copy CRC 8FAC1D72
Track not present in AccurateRip database
Copy OK

Track 14

Filename C:\EAC Rips\Bob Dylan - Dylan Revisited - All Time Best [FLAC]\Disc Two\14 - Watching The River Flow.wav

Pre-gap length 0:00:01.24

Peak level 94.3 %
Extraction speed 3.6 X
Track quality 100.0 %
Test CRC 20868BBF
Copy CRC 20868BBF
Track not present in AccurateRip database
Copy OK

Track 15

Filename C:\EAC Rips\Bob Dylan - Dylan Revisited - All Time Best [FLAC]\Disc Two\15 - Knockin' On Heaven's Door.wav

Pre-gap length 0:00:01.02

Peak level 88.8 %
Extraction speed 3.5 X
Track quality 100.0 %
Test CRC 39980C40
Copy CRC 39980C40
Track not present in AccurateRip database
Copy OK

Track 16

Filename C:\EAC Rips\Bob Dylan - Dylan Revisited - All Time Best [FLAC]\Disc Two\16 - On A Night Like This.wav

Pre-gap length 0:00:01.01

Peak level 99.8 %
Extraction speed 2.5 X
Track quality 99.9 %
Test CRC FDC9A899
Copy CRC FDC9A899
Track not present in AccurateRip database
Copy OK

Track 17

Filename C:\EAC Rips\Bob Dylan - Dylan Revisited - All Time Best [FLAC]\Disc Two\17 - Forever Young (Slow Version).wav

Peak level 94.3 %
Extraction speed 4.1 X
Track quality 100.0 %
Test CRC C4C84A92
Copy CRC C4C84A92
Track not present in AccurateRip database
Copy OK

Track 18

Filename C:\EAC Rips\Bob Dylan - Dylan Revisited - All Time Best [FLAC]\Disc Two\18 - Most Likely You Go Your Way (And I'll Go Mine).wav

Peak level 84.7 %
Extraction speed 4.1 X
Track quality 100.0 %
Test CRC 8B8DEE3B
Copy CRC 8B8DEE3B
Track not present in AccurateRip database
Copy OK

Track 19

Filename C:\EAC Rips\Bob Dylan - Dylan Revisited - All Time Best [FLAC]\Disc Two\19 - Tangled Up In Blue.wav

Pre-gap length 0:00:02.05

Peak level 99.8 %
Extraction speed 4.4 X
Track quality 100.0 %
Test CRC 18B0E8DD
Copy CRC 18B0E8DD
Track not present in AccurateRip database
Copy OK

Track 20

Filename C:\EAC Rips\Bob Dylan - Dylan Revisited - All Time Best [FLAC]\Disc Two\20 - Simple Twist Of Fate.wav

Pre-gap length 0:00:01.37

Peak level 99.8 %
Extraction speed 4.3 X
Track quality 100.0 %
Test CRC A39B6262
Copy CRC A39B6262
Track not present in AccurateRip database
Copy OK

Track 21

Filename C:\EAC Rips\Bob Dylan - Dylan Revisited - All Time Best [FLAC]\Disc Two\21 - Hurricane.wav

Pre-gap length 0:00:01.41

Peak level 99.8 %
Extraction speed 4.1 X
Track quality 100.0 %
Test CRC C799345E
Copy CRC C799345E
Track not present in AccurateRip database
Copy OK


None of the tracks are present in the AccurateRip database

No errors occurred

End of status report

–– CUETools DB Plugin V2.1.6

[CTDB TOCID: xNi_r1ACpN4OTl31MTxVvMAyR6s-] found
Submit result: xNi_r1ACpN4OTl31MTxVvMAyR6s- has been confirmed
Track | CTDB Status
1 | (1/1) Accurately ripped
2 | (1/1) Accurately ripped
3 | (1/1) Accurately ripped
4 | (1/1) Accurately ripped
5 | (1/1) Accurately ripped
6 | (1/1) Accurately ripped
7 | (1/1) Accurately ripped
8 | (1/1) Accurately ripped
9 | (1/1) Accurately ripped
10 | (1/1) Accurately ripped
11 | (1/1) Accurately ripped
12 | (1/1) Accurately ripped
13 | (1/1) Accurately ripped
14 | (1/1) Accurately ripped
15 | (1/1) Accurately ripped
16 | (1/1) Accurately ripped
17 | (1/1) Accurately ripped
18 | (1/1) Accurately ripped
19 | (1/1) Accurately ripped
20 | (1/1) Accurately ripped
21 | (1/1) Accurately ripped


==== Log checksum AF4D5D375CDB89FD91B5F102BDC323F95A65BC0FC34C5E92229E91432F03EFB5 ====


CD3
1. Mozambique
2. One More Cup of Coffee
3. Changing of the Guards
4. Gotta Serve Somebody
5. Precious Angel
6. Jokerman
7. Sweetheart Like You
8. The Groom's Still Waiting at the Altar
9. Every Grain of Sand
10. Tight Connection to My Heart (Has Anybody Seen My Love?)
11. Brownsville Girl
12. Silvio
13. Everything Is Broken
14. Ring Them Bells
15. Most of the Time

Exact Audio Copy V1.1 from 23. June 2015

EAC extraction logfile from 15. April 2016, 15:49

Bob Dylan / Dylan Revisited - All Time Best

Used drive : PLDS DVD-RW DH16AESH Adapter: 1 ID: 0

Read mode : Secure
Utilize accurate stream : Yes
Defeat audio cache : Yes
Make use of C2 pointers : No

Read offset correction : 6
Overread into Lead-In and Lead-Out : No
Fill up missing offset samples with silence : Yes
Delete leading and trailing silent blocks : No
Null samples used in CRC calculations : Yes
Used interface : Native Win32 interface for Win NT & 2000
Gap handling : Appended to previous track

Used output format : User Defined Encoder
Selected bitrate : 1024 kBit/s
Quality : High
Add ID3 tag : No
Command line compressor : C:\Program Files (x86)\Exact Audio Copy\Flac\flac.exe
Additional command line options : -8 -e -V -T "ARTIST=%artist%" -T "TITLE=%title%" -T "ALBUM=%albumtitle%" -T "DATE=%year%" -T "TRACKNUMBER=%tracknr%" -T "GENRE=%genre%" -T "PERFORMER=%albuminterpret%" -T "COMPOSER=%composer%" %haslyrics%–tag-from-file=LYRICS="%lyricsfile%"%haslyrics% -T "ALBUMARTIST=%albumartist%" -T "DISCNUMBER=%cdnumber%" -T "TOTALDISCS=%totalcds%" -T "TOTALTRACKS=%numtracks%" -T "COMMENT=%comment%" %source% -o %dest%


TOC of the extracted CD

Track | Start | Length | Start sector | End sector
––––––––––––––––––––––––––––-
1 | 0:00.00 | 3:02.17 | 0 | 13666
2 | 3:02.17 | 3:45.69 | 13667 | 30610
3 | 6:48.11 | 6:39.25 | 30611 | 60560
4 | 13:27.36 | 5:24.62 | 60561 | 84922
5 | 18:52.23 | 6:32.03 | 84923 | 114325
6 | 25:24.26 | 6:16.54 | 114326 | 142579
7 | 31:41.05 | 4:34.39 | 142580 | 163168
8 | 36:15.44 | 4:05.55 | 163169 | 181598
9 | 40:21.24 | 6:15.10 | 181599 | 209733
10 | 46:36.34 | 5:22.38 | 209734 | 233921
11 | 51:58.72 | 11:03.39 | 233922 | 283685
12 | 63:02.36 | 3:07.69 | 283686 | 297779
13 | 66:10.30 | 3:15.28 | 297780 | 312432
14 | 69:25.58 | 3:03.01 | 312433 | 326158
15 | 72:28.59 | 5:04.55 | 326159 | 349013


Track 1

Filename C:\EAC Rips\Bob Dylan - Dylan Revisited - All Time Best [FLAC]\Disc Three\01 - Mozambique.wav

Pre-gap length 0:00:02.00

Peak level 99.8 %
Extraction speed 2.9 X
Track quality 99.9 %
Test CRC CA42A88F
Copy CRC CA42A88F
Track not present in AccurateRip database
Copy OK

Track 2

Filename C:\EAC Rips\Bob Dylan - Dylan Revisited - All Time Best [FLAC]\Disc Three\02 - One More Cup Of Coffee.wav

Pre-gap length 0:00:01.57

Peak level 99.8 %
Extraction speed 4.2 X
Track quality 100.0 %
Test CRC ECCA481C
Copy CRC ECCA481C
Track not present in AccurateRip database
Copy OK

Track 3

Filename C:\EAC Rips\Bob Dylan - Dylan Revisited - All Time Best [FLAC]\Disc Three\03 - Changing Of The Guards.wav

Pre-gap length 0:00:00.56

Peak level 99.9 %
Extraction speed 4.9 X
Track quality 100.0 %
Test CRC 9FAC3082
Copy CRC 9FAC3082
Track not present in AccurateRip database
Copy OK

Track 4

Filename C:\EAC Rips\Bob Dylan - Dylan Revisited - All Time Best [FLAC]\Disc Three\04 - Gotta Serve Somebody.wav

Pre-gap length 0:00:02.09

Peak level 89.0 %
Extraction speed 5.3 X
Track quality 100.0 %
Test CRC 5BCA1B01
Copy CRC 5BCA1B01
Track not present in AccurateRip database
Copy OK

Track 5

Filename C:\EAC Rips\Bob Dylan - Dylan Revisited - All Time Best [FLAC]\Disc Three\05 - Precious Angel.wav

Peak level 99.8 %
Extraction speed 5.8 X
Track quality 100.0 %
Test CRC 5FF2B619
Copy CRC 5FF2B619
Track not present in AccurateRip database
Copy OK

Track 6

Filename C:\EAC Rips\Bob Dylan - Dylan Revisited - All Time Best [FLAC]\Disc Three\06 - Jokerman.wav

Pre-gap length 0:00:01.28

Peak level 100.0 %
Extraction speed 6.1 X
Track quality 100.0 %
Test CRC 918DDFB5
Copy CRC 918DDFB5
Track not present in AccurateRip database
Copy OK

Track 7

Filename C:\EAC Rips\Bob Dylan - Dylan Revisited - All Time Best [FLAC]\Disc Three\07 - Sweetheart Like You.wav

Pre-gap length 0:00:00.74

Peak level 89.0 %
Extraction speed 5.2 X
Track quality 99.9 %
Test CRC 96666A98
Copy CRC 96666A98
Track not present in AccurateRip database
Copy OK

Track 8

Filename C:\EAC Rips\Bob Dylan - Dylan Revisited - All Time Best [FLAC]\Disc Three\08 - The Groom's Still Waiting At The Altar.wav

Pre-gap length 0:00:00.86

Peak level 100.0 %
Extraction speed 6.4 X
Track quality 100.0 %
Test CRC B887DC2A
Copy CRC B887DC2A
Track not present in AccurateRip database
Copy OK

Track 9

Filename C:\EAC Rips\Bob Dylan - Dylan Revisited - All Time Best [FLAC]\Disc Three\09 - Every Grain Of Sand.wav

Pre-gap length 0:00:02.17

Peak level 83.5 %
Extraction speed 5.9 X
Track quality 99.9 %
Test CRC 5BDF1783
Copy CRC 5BDF1783
Track not present in AccurateRip database
Copy OK

Track 10

Filename C:\EAC Rips\Bob Dylan - Dylan Revisited - All Time Best [FLAC]\Disc Three\10 - Tight Connection To My Heart.wav

Pre-gap length 0:00:00.85

Peak level 99.9 %
Extraction speed 7.1 X
Track quality 100.0 %
Test CRC 9695D8BA
Copy CRC 9695D8BA
Track not present in AccurateRip database
Copy OK

Track 11

Filename C:\EAC Rips\Bob Dylan - Dylan Revisited - All Time Best [FLAC]\Disc Three\11 - Brownsville Girl.wav

Pre-gap length 0:00:02.08

Peak level 99.9 %
Extraction speed 7.8 X
Track quality 100.0 %
Test CRC E0A3521E
Copy CRC E0A3521E
Track not present in AccurateRip database
Copy OK

Track 12

Filename C:\EAC Rips\Bob Dylan - Dylan Revisited - All Time Best [FLAC]\Disc Three\12 - Silvio.wav

Pre-gap length 0:00:00.61

Peak level 99.9 %
Extraction speed 5.5 X
Track quality 99.9 %
Test CRC 0857B8F3
Copy CRC 0857B8F3
Track not present in AccurateRip database
Copy OK

Track 13

Filename C:\EAC Rips\Bob Dylan - Dylan Revisited - All Time Best [FLAC]\Disc Three\13 - Everything Is Broken.wav

Pre-gap length 0:00:02.08

Peak level 89.0 %
Extraction speed 7.4 X
Track quality 100.0 %
Test CRC FD508BCC
Copy CRC FD508BCC
Track not present in AccurateRip database
Copy OK

Track 14

Filename C:\EAC Rips\Bob Dylan - Dylan Revisited - All Time Best [FLAC]\Disc Three\14 - Ring Them Bells.wav

Pre-gap length 0:00:01.37

Peak level 82.8 %
Extraction speed 7.3 X
Track quality 100.0 %
Test CRC 1CFEBF7D
Copy CRC 1CFEBF7D
Track not present in AccurateRip database
Copy OK

Track 15

Filename C:\EAC Rips\Bob Dylan - Dylan Revisited - All Time Best [FLAC]\Disc Three\15 - Most Of The Time.wav

Pre-gap length 0:00:02.06

Peak level 72.8 %
Extraction speed 8.1 X
Track quality 100.0 %
Test CRC 64E3CC69
Copy CRC 64E3CC69
Track not present in AccurateRip database
Copy OK


None of the tracks are present in the AccurateRip database

No errors occurred

End of status report

–– CUETools DB Plugin V2.1.6

[CTDB TOCID: Dc.OvlxFV6fYhl3w09Qk92afRHM-] found
Submit result: already submitted
Track | CTDB Status
1 | (2/2) Accurately ripped
2 | (2/2) Accurately ripped
3 | (2/2) Accurately ripped
4 | (2/2) Accurately ripped
5 | (2/2) Accurately ripped
6 | (2/2) Accurately ripped
7 | (2/2) Accurately ripped
8 | (2/2) Accurately ripped
9 | (2/2) Accurately ripped
10 | (2/2) Accurately ripped
11 | (2/2) Accurately ripped
12 | (2/2) Accurately ripped
13 | (2/2) Accurately ripped
14 | (2/2) Accurately ripped
15 | (2/2) Accurately ripped


==== Log checksum EF4B5E1293757D66EDDDD584B618456E59D2E02CE7F4DFD08A6B3CEFC3886674 ====


CD4
1. Under the Red Sky
2. Dignity
3. Not Dark Yet
4. Tryin' to Get to Heaven
5. Things Have Changed
6. Make You Feel My Love
7. Summer Days
8. Po' Boy
9. Someday Baby
10. When the Deal Goes Down
11. Workingman's Blues #2
12. Beyond Here Lies Nothin'
13. I Feel a Change Comin' On
14. Duquesne Whistle
15. Long and Wasted Years
16. That Lucky Old Sun

Exact Audio Copy V1.1 from 23. June 2015

EAC extraction logfile from 18. April 2016, 8:35

Bob Dylan / Dylan Revisited - All Time Best

Used drive : PLDS DVD-RW DH16AESH Adapter: 1 ID: 0

Read mode : Secure
Utilize accurate stream : Yes
Defeat audio cache : Yes
Make use of C2 pointers : No

Read offset correction : 6
Overread into Lead-In and Lead-Out : No
Fill up missing offset samples with silence : Yes
Delete leading and trailing silent blocks : No
Null samples used in CRC calculations : Yes
Used interface : Native Win32 interface for Win NT & 2000
Gap handling : Appended to previous track

Used output format : User Defined Encoder
Selected bitrate : 1024 kBit/s
Quality : High
Add ID3 tag : No
Command line compressor : C:\Program Files (x86)\Exact Audio Copy\Flac\flac.exe
Additional command line options : -8 -e -V -T "ARTIST=%artist%" -T "TITLE=%title%" -T "ALBUM=%albumtitle%" -T "DATE=%year%" -T "TRACKNUMBER=%tracknr%" -T "GENRE=%genre%" -T "PERFORMER=%albuminterpret%" -T "COMPOSER=%composer%" %haslyrics%–tag-from-file=LYRICS="%lyricsfile%"%haslyrics% -T "ALBUMARTIST=%albumartist%" -T "DISCNUMBER=%cdnumber%" -T "TOTALDISCS=%totalcds%" -T "TOTALTRACKS=%numtracks%" -T "COMMENT=%comment%" %source% -o %dest%


TOC of the extracted CD

Track | Start | Length | Start sector | End sector
––––––––––––––––––––––––––––-
1 | 0:00.00 | 4:10.44 | 0 | 18793
2 | 4:10.44 | 5:37.50 | 18794 | 44118
3 | 9:48.19 | 6:30.13 | 44119 | 73381
4 | 16:18.32 | 5:22.43 | 73382 | 97574
5 | 21:41.00 | 5:10.10 | 97575 | 120834
6 | 26:51.10 | 3:33.41 | 120835 | 136850
7 | 30:24.51 | 4:53.68 | 136851 | 158893
8 | 35:18.44 | 3:07.10 | 158894 | 172928
9 | 38:25.54 | 4:56.43 | 172929 | 195171
10 | 43:22.22 | 5:03.34 | 195172 | 217930
11 | 48:25.56 | 6:07.47 | 217931 | 245502
12 | 54:33.28 | 3:52.28 | 245503 | 262930
13 | 58:25.56 | 5:25.40 | 262931 | 287345
14 | 63:51.21 | 5:43.32 | 287346 | 313102
15 | 69:34.53 | 3:47.10 | 313103 | 330137
16 | 73:21.63 | 3:35.67 | 330138 | 346329


Track 1

Filename C:\EAC Rips\Bob Dylan - Dylan Revisited - All Time Best [FLAC]\Disc Four\01 - Under The Red Sky.wav

Pre-gap length 0:00:02.00

Peak level 93.0 %
Extraction speed 4.0 X
Track quality 100.0 %
Test CRC ECFED5A7
Copy CRC ECFED5A7
Track not present in AccurateRip database
Copy OK

Track 2

Filename C:\EAC Rips\Bob Dylan - Dylan Revisited - All Time Best [FLAC]\Disc Four\02 - Dignity.wav

Pre-gap length 0:00:01.54

Peak level 95.2 %
Extraction speed 3.9 X
Track quality 99.9 %
Test CRC 44809506
Copy CRC 44809506
Track not present in AccurateRip database
Copy OK

Track 3

Filename C:\EAC Rips\Bob Dylan - Dylan Revisited - All Time Best [FLAC]\Disc Four\03 - Not Dark Yet.wav

Pre-gap length 0:00:02.09

Peak level 99.9 %
Extraction speed 5.2 X
Track quality 100.0 %
Test CRC E8CB24D3
Copy CRC E8CB24D3
Track not present in AccurateRip database
Copy OK

Track 4

Filename C:\EAC Rips\Bob Dylan - Dylan Revisited - All Time Best [FLAC]\Disc Four\04 - Trying To Get To Heaven.wav

Pre-gap length 0:00:02.09

Peak level 100.0 %
Extraction speed 5.5 X
Track quality 100.0 %
Test CRC D4C404A7
Copy CRC D4C404A7
Track not present in AccurateRip database
Copy OK

Track 5

Filename C:\EAC Rips\Bob Dylan - Dylan Revisited - All Time Best [FLAC]\Disc Four\05 - Things Have Changed.wav

Pre-gap length 0:00:01.60

Peak level 62.4 %
Extraction speed 5.8 X
Track quality 100.0 %
Test CRC 5F2CF46C
Copy CRC 5F2CF46C
Track not present in AccurateRip database
Copy OK

Track 6

Filename C:\EAC Rips\Bob Dylan - Dylan Revisited - All Time Best [FLAC]\Disc Four\06 - Make You Feel My Love.wav

Pre-gap length 0:00:02.06

Peak level 99.4 %
Extraction speed 5.8 X
Track quality 100.0 %
Test CRC A11A17E1
Copy CRC A11A17E1
Track not present in AccurateRip database
Copy OK

Track 7

Filename C:\EAC Rips\Bob Dylan - Dylan Revisited - All Time Best [FLAC]\Disc Four\07 - Summer Days.wav

Pre-gap length 0:00:02.09

Peak level 94.4 %
Extraction speed 6.3 X
Track quality 100.0 %
Test CRC A89400EE
Copy CRC A89400EE
Track not present in AccurateRip database
Copy OK

Track 8

Filename C:\EAC Rips\Bob Dylan - Dylan Revisited - All Time Best [FLAC]\Disc Four\08 - Po' Boy.wav

Pre-gap length 0:00:02.09

Peak level 87.0 %
Extraction speed 6.1 X
Track quality 100.0 %
Test CRC 8A339290
Copy CRC 8A339290
Track not present in AccurateRip database
Copy OK

Track 9

Filename C:\EAC Rips\Bob Dylan - Dylan Revisited - All Time Best [FLAC]\Disc Four\09 - Someday Baby.wav

Pre-gap length 0:00:01.90

Peak level 100.0 %
Extraction speed 6.8 X
Track quality 100.0 %
Test CRC A6C6A6C2
Copy CRC A6C6A6C2
Track not present in AccurateRip database
Copy OK

Track 10

Filename C:\EAC Rips\Bob Dylan - Dylan Revisited - All Time Best [FLAC]\Disc Four\10 - When The Deal Goes Down.wav

Pre-gap length 0:00:02.08

Peak level 63.8 %
Extraction speed 5.9 X
Track quality 99.9 %
Test CRC 30F5AEB4
Copy CRC 30F5AEB4
Track not present in AccurateRip database
Copy OK

Track 11

Filename C:\EAC Rips\Bob Dylan - Dylan Revisited - All Time Best [FLAC]\Disc Four\11 - Workingman's Blues #2.wav

Pre-gap length 0:00:01.45

Peak level 90.5 %
Extraction speed 7.5 X
Track quality 100.0 %
Test CRC 8BA8F05E
Copy CRC 8BA8F05E
Track not present in AccurateRip database
Copy OK

Track 12

Filename C:\EAC Rips\Bob Dylan - Dylan Revisited - All Time Best [FLAC]\Disc Four\12 - Beyond Here Lies Nothin'.wav

Pre-gap length 0:00:02.09

Peak level 100.0 %
Extraction speed 5.9 X
Track quality 99.9 %
Test CRC F8BBB1D5
Copy CRC F8BBB1D5
Track not present in AccurateRip database
Copy OK

Track 13

Filename C:\EAC Rips\Bob Dylan - Dylan Revisited - All Time Best [FLAC]\Disc Four\13 - I Feel A Change Comin' On.wav

Pre-gap length 0:00:02.09

Peak level 100.0 %
Extraction speed 7.8 X
Track quality 100.0 %
Test CRC F0A42E86
Copy CRC F0A42E86
Track not present in AccurateRip database
Copy OK

Track 14

Filename C:\EAC Rips\Bob Dylan - Dylan Revisited - All Time Best [FLAC]\Disc Four\14 - Duquesne Whistle.wav

Pre-gap length 0:00:01.14

Peak level 87.2 %
Extraction speed 8.1 X
Track quality 100.0 %
Test CRC 55F40377
Copy CRC 55F40377
Track not present in AccurateRip database
Copy OK

Track 15

Filename C:\EAC Rips\Bob Dylan - Dylan Revisited - All Time Best [FLAC]\Disc Four\15 - Long And Wasted Years.wav

Pre-gap length 0:00:01.64

Peak level 81.3 %
Extraction speed 8.0 X
Track quality 100.0 %
Test CRC 837B9BD9
Copy CRC 837B9BD9
Track not present in AccurateRip database
Copy OK

Track 16

Filename C:\EAC Rips\Bob Dylan - Dylan Revisited - All Time Best [FLAC]\Disc Four\16 - That Lucky Old Sun.wav

Pre-gap length 0:00:01.25

Peak level 85.4 %
Extraction speed 7.9 X
Track quality 100.0 %
Test CRC AB31A459
Copy CRC AB31A459
Track not present in AccurateRip database
Copy OK


None of the tracks are present in the AccurateRip database

No errors occurred

End of status report

–– CUETools DB Plugin V2.1.6

[CTDB TOCID: 2ZBuGbF23FkADd364_SNHvT_2Fk-] found
Submit result: 2ZBuGbF23FkADd364_SNHvT_2Fk- has been confirmed
Track | CTDB Status
1 | (1/1) Accurately ripped
2 | (1/1) Accurately ripped
3 | (1/1) Accurately ripped
4 | (1/1) Accurately ripped
5 | (1/1) Accurately ripped
6 | (1/1) Accurately ripped
7 | (1/1) Accurately ripped
8 | (1/1) Accurately ripped
9 | (1/1) Accurately ripped
10 | (1/1) Accurately ripped
11 | (1/1) Accurately ripped
12 | (1/1) Accurately ripped
13 | (1/1) Accurately ripped
14 | (1/1) Accurately ripped
15 | (1/1) Accurately ripped
16 | (1/1) Accurately ripped


==== Log checksum B8FA363FA12A5FF89A33F58277AE93E46C5499E9C02A0D6B862F4A64AB93FDFA ====


CD5 - The Best of The Bootleg Series (including Biograph)
1. Dink's Song
2. Worried Blues
3. Mama, You Been on My Mind
4. Farewell, Angelina
5. I'll Keep It with Mine
6. Lay Down Your Weary Tune
7. It Takes a Lot to Laugh, It Takes a Train to Cry
8. Tell Me Momma
9. All You Have to Do Is Dream (Take 2)
10. Pretty Saro
11. Blind Willie McTell
12. Abandoned Love
13. Series of Dreams
14. Born in Time
15. Cold Iron Bound
16. Mississippi
17. High Water (For Charley Patton) (Live)

Exact Audio Copy V1.1 from 23. June 2015

EAC extraction logfile from 18. April 2016, 9:58

Bob Dylan / Dylan Revisited - All Time Best

Used drive : PLDS DVD-RW DH16AESH Adapter: 1 ID: 0

Read mode : Secure
Utilize accurate stream : Yes
Defeat audio cache : Yes
Make use of C2 pointers : No

Read offset correction : 6
Overread into Lead-In and Lead-Out : No
Fill up missing offset samples with silence : Yes
Delete leading and trailing silent blocks : No
Null samples used in CRC calculations : Yes
Used interface : Native Win32 interface for Win NT & 2000
Gap handling : Appended to previous track

Used output format : User Defined Encoder
Selected bitrate : 1024 kBit/s
Quality : High
Add ID3 tag : No
Command line compressor : C:\Program Files (x86)\Exact Audio Copy\Flac\flac.exe
Additional command line options : -8 -e -V -T "ARTIST=%artist%" -T "TITLE=%title%" -T "ALBUM=%albumtitle%" -T "DATE=%year%" -T "TRACKNUMBER=%tracknr%" -T "GENRE=%genre%" -T "PERFORMER=%albuminterpret%" -T "COMPOSER=%composer%" %haslyrics%–tag-from-file=LYRICS="%lyricsfile%"%haslyrics% -T "ALBUMARTIST=%albumartist%" -T "DISCNUMBER=%cdnumber%" -T "TOTALDISCS=%totalcds%" -T "TOTALTRACKS=%numtracks%" -T "COMMENT=%comment%" %source% -o %dest%


TOC of the extracted CD

Track | Start | Length | Start sector | End sector
––––––––––––––––––––––––––––-
1 | 0:00.00 | 4:40.36 | 0 | 21035
2 | 4:40.36 | 2:39.33 | 21036 | 32993
3 | 7:19.69 | 2:57.52 | 32994 | 46320
4 | 10:17.46 | 5:28.28 | 46321 | 70948
5 | 15:45.74 | 3:46.58 | 70949 | 87956
6 | 19:32.57 | 4:37.08 | 87957 | 108739
7 | 24:09.65 | 3:29.61 | 108740 | 124475
8 | 27:39.51 | 4:52.53 | 124476 | 146428
9 | 32:32.29 | 3:22.16 | 146429 | 161594
10 | 35:54.45 | 2:17.22 | 161595 | 171891
11 | 38:11.67 | 5:54.29 | 171892 | 198470
12 | 44:06.21 | 4:29.44 | 198471 | 218689
13 | 48:35.65 | 6:26.39 | 218690 | 247678
14 | 55:02.29 | 4:13.38 | 247679 | 266691
15 | 59:15.67 | 5:44.29 | 266692 | 292520
16 | 65:00.21 | 6:03.47 | 292521 | 319792
17 | 71:03.68 | 6:43.44 | 319793 | 350061


Track 1

Filename C:\EAC Rips\Bob Dylan - Dylan Revisited - All Time Best [FLAC]\Disc Five\01 - Dink's Song.wav

Pre-gap length 0:00:02.00

Peak level 86.7 %
Extraction speed 2.1 X
Track quality 100.0 %
Test CRC 957AC4B9
Copy CRC 957AC4B9
Track not present in AccurateRip database
Copy OK

Track 2

Filename C:\EAC Rips\Bob Dylan - Dylan Revisited - All Time Best [FLAC]\Disc Five\02 - Worried Blues.wav

Pre-gap length 0:00:02.08

Peak level 88.1 %
Extraction speed 2.2 X
Track quality 100.0 %
Test CRC FDAE5EF6
Copy CRC FDAE5EF6
Track not present in AccurateRip database
Copy OK

Track 3

Filename C:\EAC Rips\Bob Dylan - Dylan Revisited - All Time Best [FLAC]\Disc Five\03 - Mama, You Been On My Mind.wav

Pre-gap length 0:00:01.32

Peak level 83.0 %
Extraction speed 2.3 X
Track quality 100.0 %
Test CRC 9C6F77F6
Copy CRC 9C6F77F6
Track not present in AccurateRip database
Copy OK

Track 4

Filename C:\EAC Rips\Bob Dylan - Dylan Revisited - All Time Best [FLAC]\Disc Five\04 - Farewell, Angelina.wav

Pre-gap length 0:00:01.85

Peak level 71.3 %
Extraction speed 2.7 X
Track quality 100.0 %
Test CRC F6A53DCE
Copy CRC F6A53DCE
Track not present in AccurateRip database
Copy OK

Track 5

Filename C:\EAC Rips\Bob Dylan - Dylan Revisited - All Time Best [FLAC]\Disc Five\05 - I'll Keep It With Mine.wav

Pre-gap length 0:00:02.09

Peak level 85.0 %
Extraction speed 2.8 X
Track quality 100.0 %
Test CRC 9C232DF8
Copy CRC 9C232DF8
Track not present in AccurateRip database
Copy OK

Track 6

Filename C:\EAC Rips\Bob Dylan - Dylan Revisited - All Time Best [FLAC]\Disc Five\06 - Lay Down Your Weary Tune.wav

Pre-gap length 0:00:02.08

Peak level 88.1 %
Extraction speed 3.0 X
Track quality 100.0 %
Test CRC CF89273D
Copy CRC CF89273D
Track not present in AccurateRip database
Copy OK

Track 7

Filename C:\EAC Rips\Bob Dylan - Dylan Revisited - All Time Best [FLAC]\Disc Five\07 - It Takes A Lot To Laugh, It Take A Train To Cry.wav

Pre-gap length 0:00:02.09

Peak level 83.8 %
Extraction speed 2.1 X
Track quality 99.9 %
Test CRC 0B5D4318
Copy CRC 0B5D4318
Track not present in AccurateRip database
Copy OK

Track 8

Filename C:\EAC Rips\Bob Dylan - Dylan Revisited - All Time Best [FLAC]\Disc Five\08 - Tell Me, Momma.wav

Pre-gap length 0:00:02.08

Peak level 77.5 %
Extraction speed 3.3 X
Track quality 100.0 %
Test CRC DDDF44D4
Copy CRC DDDF44D4
Track not present in AccurateRip database
Copy OK

Track 9

Filename C:\EAC Rips\Bob Dylan - Dylan Revisited - All Time Best [FLAC]\Disc Five\09 - All You Have To Do Is Dream (Take 2).wav

Pre-gap length 0:00:02.57

Peak level 100.0 %
Extraction speed 3.3 X
Track quality 100.0 %
Test CRC 5FB6E314
Copy CRC 5FB6E314
Track not present in AccurateRip database
Copy OK

Track 10

Filename C:\EAC Rips\Bob Dylan - Dylan Revisited - All Time Best [FLAC]\Disc Five\10 - Pretty Saro.wav

Pre-gap length 0:00:02.09

Peak level 53.8 %
Extraction speed 3.1 X
Track quality 100.0 %
Test CRC C6A1125B
Copy CRC C6A1125B
Track not present in AccurateRip database
Copy OK

Track 11

Filename C:\EAC Rips\Bob Dylan - Dylan Revisited - All Time Best [FLAC]\Disc Five\11 - Blind Willie McTell.wav

Pre-gap length 0:00:01.36

Peak level 100.0 %
Extraction speed 3.8 X
Track quality 100.0 %
Test CRC 3E342119
Copy CRC 3E342119
Track not present in AccurateRip database
Copy OK

Track 12

Filename C:\EAC Rips\Bob Dylan - Dylan Revisited - All Time Best [FLAC]\Disc Five\12 - Abandoned Love.wav

Pre-gap length 0:00:02.06

Peak level 98.8 %
Extraction speed 2.8 X
Track quality 99.9 %
Test CRC F907472A
Copy CRC F907472A
Track not present in AccurateRip database
Copy OK

Track 13

Filename C:\EAC Rips\Bob Dylan - Dylan Revisited - All Time Best [FLAC]\Disc Five\13 - Series of Dreams.wav

Pre-gap length 0:00:01.62

Peak level 70.3 %
Extraction speed 4.1 X
Track quality 100.0 %
Test CRC 5AD469E8
Copy CRC 5AD469E8
Track not present in AccurateRip database
Copy OK

Track 14

Filename C:\EAC Rips\Bob Dylan - Dylan Revisited - All Time Best [FLAC]\Disc Five\14 - Born In Time.wav

Pre-gap length 0:00:02.09

Peak level 68.9 %
Extraction speed 4.1 X
Track quality 100.0 %
Test CRC C4C0DD80
Copy CRC C4C0DD80
Track not present in AccurateRip database
Copy OK

Track 15

Filename C:\EAC Rips\Bob Dylan - Dylan Revisited - All Time Best [FLAC]\Disc Five\15 - Cold Irons Bound.wav

Pre-gap length 0:00:02.08

Peak level 100.0 %
Extraction speed 4.3 X
Track quality 100.0 %
Test CRC 4E0F60C3
Copy CRC 4E0F60C3
Track not present in AccurateRip database
Copy OK

Track 16

Filename C:\EAC Rips\Bob Dylan - Dylan Revisited - All Time Best [FLAC]\Disc Five\16 - Mississippi.wav

Peak level 74.0 %
Extraction speed 4.5 X
Track quality 100.0 %
Test CRC 0331A3D3
Copy CRC 0331A3D3
Track not present in AccurateRip database
Copy OK

Track 17

Filename C:\EAC Rips\Bob Dylan - Dylan Revisited - All Time Best [FLAC]\Disc Five\17 - High Water (For Charley Patton) (Live).wav

Peak level 79.4 %
Extraction speed 4.7 X
Track quality 100.0 %
Test CRC 55D35A17
Copy CRC 55D35A17
Track not present in AccurateRip database
Copy OK


None of the tracks are present in the AccurateRip database

No errors occurred

End of status report

–– CUETools DB Plugin V2.1.6

[CTDB TOCID: GBDDT7oBnlB0QMkzbCVfPHrzOAg-] found
Submit result: GBDDT7oBnlB0QMkzbCVfPHrzOAg- has been confirmed
Track | CTDB Status
1 | (1/1) Accurately ripped
2 | (1/1) Accurately ripped
3 | (1/1) Accurately ripped
4 | (1/1) Accurately ripped
5 | (1/1) Accurately ripped
6 | (1/1) Accurately ripped
7 | (1/1) Accurately ripped
8 | (1/1) Accurately ripped
9 | (1/1) Accurately ripped
10 | (1/1) Accurately ripped
11 | (1/1) Accurately ripped
12 | (1/1) Accurately ripped
13 | (1/1) Accurately ripped
14 | (1/1) Accurately ripped
15 | (1/1) Accurately ripped
16 | (1/1) Accurately ripped
17 | (1/1) Accurately ripped


==== Log checksum 26A7FD1E1D106695FCA7A92E81ADC61218A8340B60CD99B56EC57368B8E94BBD ====


Thanks to the Original customer.