Subcategories

Erkki-Sven Tüür (b. 1959) Crystallisatio (1996)

Posted By: ooliver
Erkki-Sven Tüür (b. 1959) Crystallisatio (1996)

Erkki-Sven Tüür (b. 1959) Crystallisatio (1996)
Tallinn Chamber Orchestra - Tonu Kaljuste, conductor
Avant-Garde | EAC Rip (ape, cue, log) | 7-zip | 302 MB | RS.com
Label: ECM New Series | Cat. Num.: ECM 1590 | 1 CD 64:14 | Artwork Scans

…the treatment of the few musical conventions that still prevail provides a measure of the quality of a work of art. If a work is completely devoted to these conventions, it is worthless as a current piece of art; if it ignores them as completely, it is meaningless. Innovation in art has always entailed the gradual modification of existing forms. Erkki-Sven Tuur has absorbed the formal canon of music history, assimilated its needs and significantly enlarged upon them with out forgetting beauty of sound and the serenity of the liturgy: the Glass Bead Game and consolation. In the fine web of his musical imagination he is forever the poet. We all believe that we cannot do without poetry. Even if - like Jean Cocteau - we do not know what it is for.
Wolgang Sandner from the attached booket

Crystallisatio - (5 tracks) 64:14
01 Architectonics VI, for flute, clarinet, vibraphone and strings [1992] 12:29
02 Passion. for strings [1993] 06:48
03 Illusion. for strings [1993] 03:35
04 Crystallisatio, for 3 flutes, campanelli, strings and live electronics [1993] 12:26
05 Requiem, for soprano, tenore, mixed choir, triangle, piano and strings [1994] 28:56
in memoriam Peeter Lilje
Kaia Urb (soprano) Tiit Kogermann (tenore)


ECM New Series ECM 1590
Exact Audio Copy V0.99 prebeta 4 from 23. January 2008

EAC extraction logfile from 9. May 2009, 16:57

Erkki-Sven Tuur / Crystallisatio

Used drive : HL-DT-STDVDRAM GSA-H44N Adapter: 3 ID: 0

Read mode : Secure
Utilize accurate stream : Yes
Defeat audio cache : No
Make use of C2 pointers : No

Read offset correction : 667
Overread into Lead-In and Lead-Out : No
Fill up missing offset samples with silence : Yes
Delete leading and trailing silent blocks : No
Null samples used in CRC calculations : Yes
Used interface : Installed external ASPI interface

Used output format : Internal WAV Routines
Sample format : 44.100 Hz; 16 Bit; Stereo

TOC of the extracted CD

Track | Start | Length | Start sector | End sector
––––––––––––––––––––––––––––-
1 | 0:00.32 | 12:29.35 | 32 | 56241
2 | 12:29.67 | 6:48.20 | 56242 | 86861
3 | 19:18.12 | 3:35.70 | 86862 | 103056
4 | 22:54.07 | 12:26.30 | 103057 | 159036
5 | 35:20.37 | 28:56.70 | 159037 | 289306

Range status and errors

Selected range

Filename I:\ Torrent\Music\ My uploads\56 Tuur\Erkki-Sven Tuur - Crystallisatio.wav

Peak level 93.7 %
Range quality 100.0 %
Copy CRC 299C34AE
Copy OK

No errors occurred

End of status report

More info on Erkki-Sven Tüür

Packed via 7.Zip, served by RS, redirected through tinyurl:
Part1
Part2
Part3
Part4


Enjoy