Subcategories

Emerson, Lake & Palmer - Trilogy (1972) [Reissue 2011]

Posted By: Andi_Deris
Emerson, Lake & Palmer - Trilogy (1972) [Reissue 2011]

Emerson, Lake & Palmer - Trilogy (1972) [Reissue 2011]
EAC Rip | FLAC: Image+Cue+Log | MP3 CBR 320 kbps | Scans
291 Mb | 107 Mb | 15 Mb | Time: 46:35
Leadclass Ltd./Sony Music | 88697830122
Progressive Rock, Art Rock, Symphonic Prog

Trilogy is the third studio album by the English progressive rock band Emerson, Lake & Palmer, released in July 1972 on Island Records. The cover, designed by Hipgnosis, depicts a combined bust of the three members, while the interior of the original gatefold sleeve features a photomontage of the three in Epping Forest.

Trilogy increased ELP's worldwide popularity, and included "Hoedown", an arrangement of the Aaron Copland composition, which was one of their most popular songs when performing live.

Emerson, Lake & Palmer - Trilogy (1972) [Reissue 2011]




Emerson, Lake & Palmer - Trilogy (1972) [Reissue 2011]


Track Listing

01. The Endless Enigma (Part One) (06:42)
02. Fugue (01:57)
03. The Endless Enigma (Part Two) (02:03)
04. From The Beginning (04:16)
05. The Sheriff (03:23)
06. Hoedown (03:47)
07. Trilogy (08:55)
08. Living Sin (03:14)
09. Abaddon's Bolero (08:10)

Bonus Track
10. Hoedown (Live) (04:06)

Produced by Greg Lake

Personnel

• Keith Emerson - Hammond organ C3, Steinway piano, Moog synthesiser III-C, Mini-Moog model D, zurna (listed as a "Zoukra")
• Greg Lake - vocals, bass, electric and acoustic guitars
• Carl Palmer - drums, percussion

Notes

Reissue

℗ 1972 This compilation ℗ 2001 Leadclass Limited under exclusive license to Sony Music Entertainment UK Limited.
© 2011 Leadclass Limited under exclusive license to Sony Music Entertainment UK Limited.
Distributed by Sony Music Entertainment.
Made In The EU.


Exact Audio Copy V1.0 beta 3 from 29. August 2011

EAC extraction logfile from 30. September 2014, 9:51

Emerson, Lake & Palmer / Trilogy (2011, 886978301222)

Used drive : ATAPI iHAS124 B Adapter: 1 ID: 0

Read mode : Secure
Utilize accurate stream : Yes
Defeat audio cache : Yes
Make use of C2 pointers : No

Read offset correction : 6
Overread into Lead-In and Lead-Out : No
Fill up missing offset samples with silence : Yes
Delete leading and trailing silent blocks : No
Null samples used in CRC calculations : Yes
Used interface : Installed external ASPI interface

Used output format : User Defined Encoder
Selected bitrate : 128 kBit/s
Quality : High
Add ID3 tag : Yes
Command line compressor : C:\Program Files (x86)\Exact Audio Copy\Flac\flac.exe
Additional command line options : -V -8 -T "Date=%year%" -T "Genre=%genre%" %source%


TOC of the extracted CD

Track | Start | Length | Start sector | End sector
––––––––––––––––––––––––––––-
1 | 0:00.00 | 6:42.22 | 0 | 30171
2 | 6:42.22 | 1:57.03 | 30172 | 38949
3 | 8:39.25 | 2:03.19 | 38950 | 48193
4 | 10:42.44 | 4:16.25 | 48194 | 67418
5 | 14:58.69 | 3:22.70 | 67419 | 82638
6 | 18:21.64 | 3:47.09 | 82639 | 99672
7 | 22:08.73 | 8:54.55 | 99673 | 139777
8 | 31:03.53 | 3:13.46 | 139778 | 154298
9 | 34:17.24 | 8:10.20 | 154299 | 191068
10 | 42:27.44 | 4:06.12 | 191069 | 209530


Range status and errors

Selected range

Filename G:\CD\ELP - Trilogy.wav

Peak level 97.0 %
Extraction speed 5.5 X
Range quality 100.0 %
Test CRC 4925F569
Copy CRC 4925F569
Copy OK

No errors occurred


AccurateRip summary

Track 1 accurately ripped (confidence 62) [A8BC90EE] (AR v2)
Track 2 accurately ripped (confidence 62) [E853F4E1] (AR v2)
Track 3 accurately ripped (confidence 61) [5D296205] (AR v2)
Track 4 accurately ripped (confidence 62) [B8E52625] (AR v2)
Track 5 accurately ripped (confidence 62) [5AD90AE4] (AR v2)
Track 6 accurately ripped (confidence 61) [09BE9B64] (AR v2)
Track 7 accurately ripped (confidence 61) [4151609D] (AR v2)
Track 8 accurately ripped (confidence 61) [660AF9F5] (AR v2)
Track 9 accurately ripped (confidence 61) [3D3E13AB] (AR v2)
Track 10 accurately ripped (confidence 60) [4FE9A3C5] (AR v2)

All tracks accurately ripped

End of status report

–– CUETools DB Plugin V2.1.3

[CTDB TOCID: NddBxSYd3ahtiEuSwOetYqJ3C8Y-] found, Submit result: NddBxSYd3ahtiEuSwOetYqJ3C8Y- has been confirmed
[8cd5e4aa] (50/50) Accurately ripped


==== Log checksum 2318D21A558D4A9A04FA657171A0D66C832F21412D8BF2EF8CC7194FB8DA8EF3 ====


Many thanks to the original uploader: gerrV





Password: pass