Tags
Language
Tags

Eagles - Hotel California (1976) Re-Up

Posted By: popsakov
Eagles - Hotel California (1976) Re-Up

Eagles - Hotel California (1976)
EAC Rip | FLAC (Img) + Cue + Log ~ 277 Mb | MP3 CBR320 ~ 126 Mb
Full Scans | 00:43:27 | RAR 5% Recovery
Country Rock, Classic Rock | Asylum Records #103-2 / EUR 253 051 | US

Hotel California is the fifth studio album by American rock band the Eagles, and is one of the best-selling albums of all time. Three singles were released from the album, each reaching high in the Billboard Hot 100: "New Kid in Town" (number 1), "Hotel California" (number 1), and "Life in the Fast Lane" (number 11). The album became the band's best-selling album after Their Greatest Hits (1971–1975). It has been certified 26× Platinum in the U.S., and has sold over 32 million copies sold worldwide. The album was ranked number 37 on Rolling Stone's list of "The 500 Greatest Albums of All Time".
***************

Eagles - Hotel California (1976) Re-Up

Eagles - Hotel California (1976) Re-Up

Track List:

01. Hotel California [6:30]
02. New Kid In Town [5:04]
03. Life In The Fast Lane [4:46]
04. Wasted Time [4:57]
05. Wasted Time (Reprise) [1:23]
06. Victim Of Love [4:09]
07. Pretty Maids All In A Row [3:59]
08. Try And Love Again [5:11]
09. The Last Resort [7:28]

Exact Audio Copy V1.5 from 20. February 2020

EAC extraction logfile from 2. August 2020, 9:32

Eagles / Hotel California

Used drive : ASUS DRW-24D5MT Adapter: 1 ID: 0

Read mode : Secure
Utilize accurate stream : Yes
Defeat audio cache : Yes
Make use of C2 pointers : No

Read offset correction : 6
Overread into Lead-In and Lead-Out : No
Fill up missing offset samples with silence : Yes
Delete leading and trailing silent blocks : No
Null samples used in CRC calculations : Yes
Used interface : Native Win32 interface for Win NT & 2000

Used output format : User Defined Encoder
Selected bitrate : 128 kBit/s
Quality : High
Add ID3 tag : No
Command line compressor : C:\Program Files (x86)\Exact Audio Copy\FLAC\FLAC.EXE
Additional command line options : -V -8 -T "Date=%year%" -T "Genre=%genre%" %source%


TOC of the extracted CD

Track | Start | Length | Start sector | End sector
––––––––––––––––––––––––––––-
1 | 0:00.32 | 6:30.00 | 32 | 29281
2 | 6:30.32 | 5:03.70 | 29282 | 52076
3 | 11:34.27 | 4:46.00 | 52077 | 73526
4 | 16:20.27 | 4:57.15 | 73527 | 95816
5 | 21:17.42 | 1:23.13 | 95817 | 102054
6 | 22:40.55 | 4:09.07 | 102055 | 120736
7 | 26:49.62 | 3:58.50 | 120737 | 138636
8 | 30:48.37 | 5:11.18 | 138637 | 161979
9 | 35:59.55 | 7:27.42 | 161980 | 195546


Range status and errors

Selected range

Filename F:\ЕАС\rwa12\Eagles - Hotel California.wav

Peak level 100.0 %
Extraction speed 1.8 X
Range quality 100.0 %
Test CRC DA79FB78
Copy CRC DA79FB78
Copy OK

No errors occurred


AccurateRip summary

Track 1 accurately ripped (confidence 132) [7FD711E8] (AR v2)
Track 2 accurately ripped (confidence 132) [AC277902] (AR v2)
Track 3 accurately ripped (confidence 131) [D0EBEBDD] (AR v2)
Track 4 accurately ripped (confidence 131) [A8426151] (AR v2)
Track 5 accurately ripped (confidence 135) [6B3AD3F3] (AR v2)
Track 6 accurately ripped (confidence 133) [E3BF3E19] (AR v2)
Track 7 accurately ripped (confidence 132) [0C34CB59] (AR v2)
Track 8 accurately ripped (confidence 133) [34BC6DF4] (AR v2)
Track 9 accurately ripped (confidence 129) [EB381D59] (AR v2)

All tracks accurately ripped

End of status report

–– CUETools DB Plugin V2.1.6

[CTDB TOCID: 1DgkNAJI4t55vqcJR_Hf98XyxQM-] found
Submit result: already submitted
Track | CTDB Status
1 | (334/349) Accurately ripped
2 | (340/349) Accurately ripped
3 | (337/349) Accurately ripped
4 | (339/349) Accurately ripped
5 | (345/349) Accurately ripped
6 | (343/349) Accurately ripped
7 | (339/349) Accurately ripped
8 | (339/349) Accurately ripped
9 | (332/349) Accurately ripped


==== Log checksum 615469DAFC462E9FDD14CC13991093896D3494E81E58CC6AB9A6F4381ECC9139 ====

[CUETools log; Date: 02.08.2020 14:48:42; Version: 2.1.6]
Pregap length 00:00:32.
[CTDB TOCID: 1DgkNAJI4t55vqcJR_Hf98XyxQM-] found.
Track | CTDB Status
1 | (334/349) Accurately ripped
2 | (340/349) Accurately ripped
3 | (337/349) Accurately ripped
4 | (339/349) Accurately ripped
5 | (345/349) Accurately ripped
6 | (343/349) Accurately ripped
7 | (339/349) Accurately ripped
8 | (339/349) Accurately ripped
9 | (332/349) Accurately ripped
[AccurateRip ID: 000ecbdb-006a5257-780a2f09] found.
Track [ CRC | V2 ] Status
01 [4055e9f9|7fd711e8] (087+132/252) Accurately ripped
02 [ff3306ef|ac277902] (089+132/254) Accurately ripped
03 [5e617af6|d0ebebdd] (089+131/251) Accurately ripped
04 [c2b02928|a8426151] (088+131/250) Accurately ripped
05 [1d6759b3|6b3ad3f3] (089+135/257) Accurately ripped
06 [8ccf9d93|e3bf3e19] (088+133/254) Accurately ripped
07 [11c95cbf|0c34cb59] (089+132/252) Accurately ripped
08 [fed3c568|34bc6df4] (088+133/252) Accurately ripped
09 [beed96e2|eb381d59] (085+129/243) Accurately ripped
Offsetted by -1475:
01 [e097160d] (009/252) Accurately ripped
02 [59c258f6] (010/254) Accurately ripped
03 [974ca68d] (009/251) Accurately ripped
04 [91160091] (009/250) Accurately ripped
05 [e5cec4ad] (011/257) Accurately ripped
06 [24a3577a] (010/254) Accurately ripped
07 [14087932] (009/252) Accurately ripped
08 [65297c95] (009/252) Accurately ripped
09 [39840363] (009/243) Accurately ripped
Offsetted by -994:
01 [97bff59f] (000/252) No match (V2 was not tested)
02 [b0ddca97] (000/254) No match (V2 was not tested)
03 [1ab2f642] (000/251) No match (V2 was not tested)
04 [ebdcd70a] (000/250) No match (V2 was not tested)
05 [461824b6] (000/257) No match (V2 was not tested)
06 [d229e2e3] (000/254) No match (V2 was not tested)
07 [8ae445cc] (000/252) No match (V2 was not tested)
08 [5a7c5c7a] (000/252) No match (V2 was not tested)
09 [f0d8b648] (000/243) No match (V2 was not tested)
Offsetted by 329:
01 [28d1562c] (000/252) No match (V2 was not tested)
02 [0b63151d] (000/254) No match (V2 was not tested)
03 [37c2ea7a] (000/251) No match (V2 was not tested)
04 [c5831f91] (000/250) No match (V2 was not tested)
05 [17241fa0] (000/257) No match (V2 was not tested)
06 [7f9bbfe7] (000/254) No match (V2 was not tested)
07 [0cda38ef] (000/252) No match (V2 was not tested)
08 [aafaeba5] (000/252) No match (V2 was not tested)
09 [56b5efb5] (000/243) No match (V2 was not tested)

Track Peak [ CRC32 ] [W/O NULL] [ LOG ]
– 100,0 [DA79FB78] [9A2D09A5] CRC32
01 100,0 [329D6635] [8CFC88F9]
02 100,0 [1EE0A458] [21B5A459]
03 100,0 [E60D1837] [F3B3770D]
04 99,7 [73ABF05E] [E637039E]
05 59,2 [13C2436C] [B2A05430]
06 100,0 [816A46B3] [CCCA6AC9]
07 91,3 [02DC2B10] [31214868]
08 100,0 [7110743B] [F6A4B8DC]
09 100,0 [7A5DBB61] [3E8D5A7C]

Eagles - Hotel California (1976) Re-Up


All thanks go to rwa12

>>> Eagles in my Blog <<<

DOWNLOAD: