Tags
Language
Tags

Eagles - Hotel California (1976) {2011, Hybrid SACD, Japan}

Posted By: popsakov
Eagles - Hotel California (1976) {2011, Hybrid SACD, Japan}

Eagles - Hotel California (1976) {2011, Hybrid SACD, Japan}
EAC Rip | FLAC (Img) + Cue + Log ~ 274 Mb | MP3 CBR320 ~ 105 Mb
Full Scans ~ 258 Mb | 00:43:35 | RAR 5% Recovery
Classic Rock, Country Rock | Elektra / Warner Music Japan Inc. #WPCR-14165

Hotel California is the fifth studio album by American rock band the Eagles, and is one of the best-selling albums of all time. Three singles were released from the album, each reaching high in the Billboard Hot 100: "New Kid in Town" (number 1), "Hotel California" (number 1), and "Life in the Fast Lane" (number 11). The album became the band's best-selling album after Their Greatest Hits (1971–1975). It has been certified 26× Platinum in the U.S., and has sold over 32 million copies sold worldwide. The album was ranked number 37 on Rolling Stone's list of "The 500 Greatest Albums of All Time".

***************

Eagles - Hotel California (1976) {2011, Hybrid SACD, Japan}

Track List:

01. Hotel California [6:32]
02. New Kid In Town [5:04]
03. Life In The Fast Lane [4:46]
04. Wasted Time [4:57]
05. Wasted Time (reprise) [1:24]
06. Victim Of Love [4:10]
07. Pretty Maids All In A Row [4:00]
08. Try And Love Again [5:11]
09. The Last Resort [7:32]

Personnel:
Vocals, Bass, Bass Guitar - Randy Meisner
Vocals, Drums, Percussion - Don Henley
Vocals, Guitar, Keyboards - Glenn Frey, Joe Walsh
Vocals, Guitar, Slide Guitar - Don Felder

Exact Audio Copy V0.99 prebeta 5 from 4. May 2009

Отчёт EAC об извлечении, выполненном 3. апреля 2012, 13:12

The Eagles / Hotel California (Hibrid SACD WPCR-14165)

Дисковод: PIONEER DVD-RW DVR-218L Adapter: 0 ID: 0

Режим чтения : Достоверность
Использование точного потока : Да
Отключение кэша аудио : Да
Использование указателей C2 : Нет

Коррекция смещения при чтении : 6
Способность читать области Lead-in и Lead-out : Нет
Заполнение пропущенных сэмплов тишиной : Да
Удаление блоков с тишиной в начале и конце : Нет
При вычислениях CRC использовались нулевые сэмплы : Да
Интерфейс : Встроенный Win32-интерфейс для Win NT/2000

Выходной формат : Пользовательский кодировщик
Выбранный битрейт : 128 kBit/s
Качество : Высокий
Добавление ID3-тэга : Нет
Утилита сжатия : C:\Program Files (x86)\Exact Audio Copy\Flac\flac.exe
Дополнительные параметры : -5 -V -T "ARTIST=%a" -T "TITLE=%t" -T "ALBUM=%g" -T "DATE=%y" -T "TRACKNUMBER=%n" -T "GENRE=%m" -T "COMMENT=EAC FLAC -5" %s


TOC извлечённого CD

Трек | Старт | Длительность | Начальный сектор | Конечный сектор
––––––––––––––––––––––––––––––––––-
1 | 0:00.00 | 6:31.56 | 0 | 29380
2 | 6:31.56 | 5:04.35 | 29381 | 52215
3 | 11:36.16 | 4:46.21 | 52216 | 73686
4 | 16:22.37 | 4:57.04 | 73687 | 95965
5 | 21:19.41 | 1:23.46 | 95966 | 102236
6 | 22:43.12 | 4:09.42 | 102237 | 120953
7 | 26:52.54 | 3:59.39 | 120954 | 138917
8 | 30:52.18 | 5:11.02 | 138918 | 162244
9 | 36:03.20 | 7:31.39 | 162245 | 196108


Характеристики диапазона извлечения и сообщения об ошибках

Выбранный диапазон

Имя файла F:\_МУЗЫКА\Eagles - Hotel California (1976) (Hibrid SACD WPCR-14165)\1976 - The Eagles - Hotel California (Hibrid SACD WPCR-14165).wav

Пиковый уровень 100.0 %
Качество диапазона 100.0 %
CRC теста E2AF505E
CRC копии E2AF505E
Копирование… OK

Ошибок не произошло


AccurateRip: сводка

Трек 1 точное извлечение (доверие 2) [379ECF45]
Трек 2 нет в базе данных
Трек 3 точное извлечение (доверие 2) [E541DF5D]
Трек 4 точное извлечение (доверие 2) [8A38A396]
Трек 5 точное извлечение (доверие 2) [BA210E16]
Трек 6 точное извлечение (доверие 2) [6DB46AC3]
Трек 7 точное извлечение (доверие 2) [FD83496D]
Трек 8 точное извлечение (доверие 2) [D502D17A]
Трек 9 точное извлечение (доверие 2) [B90CDFFB]

8 трек(и) скопированы точно
1 трек(и) не содержатся в базе AccurateRip

Некоторые треки не прошли проверку на точность

Конец отчёта

foobar2000 1.4 / Dynamic Range Meter 1.1.1
log date: 2019-11-10 11:56:30

––––––––––––––––––––––––––––––––––––––––
Analyzed: The Eagles / Hotel California (Hibrid SACD WPCR-14165)
––––––––––––––––––––––––––––––––––––––––

DR Peak RMS Duration Track
––––––––––––––––––––––––––––––––––––––––
DR9 0.00 dB -11.31 dB 6:32 01-Hotel California
DR8 0.00 dB -10.63 dB 5:04 02-New Kid In Town
DR9 0.00 dB -10.32 dB 4:46 03-Life In The Fast Lane
DR9 0.00 dB -12.98 dB 4:57 04-Wasted Time
DR11 -0.03 dB -16.40 dB 1:24 05-Wasted Time (reprise)
DR8 0.00 dB -9.84 dB 4:10 06-Victim Of Love
DR11 0.00 dB -14.27 dB 4:00 07-Pretty Maids All In A Row
DR8 0.00 dB -10.41 dB 5:11 08-Try And Love Again
DR9 0.00 dB -12.62 dB 7:32 09-The Last Resort
––––––––––––––––––––––––––––––––––––––––

Number of tracks: 9
Official DR value: DR9

Samplerate: 44100 Hz
Channels: 2
Bits per sample: 16
Bitrate: 835 kbps
Codec: FLAC
================================================================================

[CUETools log; Date: 10.11.2019 11:55:42; Version: 2.1.6]
[CTDB TOCID: PenwqFHlDoYy10mqKPJI6NBUyAo-] found.
Track | CTDB Status
1 | (188/190) Accurately ripped
2 | (190/190) Accurately ripped
3 | (190/190) Accurately ripped
4 | (190/190) Accurately ripped
5 | (190/190) Accurately ripped
6 | (190/190) Accurately ripped
7 | (190/190) Accurately ripped
8 | (190/190) Accurately ripped
9 | (190/190) Accurately ripped
[AccurateRip ID: 000ed3c1-006a8c48-840a3609] found.
Track [ CRC | V2 ] Status
01 [379ecf45|68a503d3] (005+117/122) Accurately ripped
02 [372b3b1e|e3898fbc] (004+114/120) Accurately ripped
03 [e541df5d|eb0af797] (005+116/121) Accurately ripped
04 [8a38a396|940986c6] (005+115/120) Accurately ripped
05 [ba210e16|7317f755] (005+115/120) Accurately ripped
06 [6db46ac3|af06a81b] (005+115/120) Accurately ripped
07 [fd83496d|64b17505] (005+115/120) Accurately ripped
08 [d502d17a|61b068a2] (005+115/120) Accurately ripped
09 [b90cdffb|8227b49e] (005+115/120) Accurately ripped

Track Peak [ CRC32 ] [W/O NULL] [ LOG ]
– 100,0 [E2AF505E] [1349C4E7] CRC32
01 100,0 [0A6DE608] [C976552C]
02 100,0 [283CD95B] [84912D47]
03 100,0 [E3989318] [964009AE]
04 100,0 [617EB821] [046E6FF5]
05 99,6 [1F4C177C] [49618938]
06 100,0 [96BD22F2] [2480AC85]
07 100,0 [E061510E] [A8F3CEDF]
08 100,0 [2AC46C70] [79033ABD]
09 100,0 [BC385489] [DCFD011D]

Eagles - Hotel California (1976) {2011, Hybrid SACD, Japan}


All thanks go to BolshoeR

>>> "Eagles" in my Blog <<<

DOWNLOAD: