Subcategories

Eagles - Legacy (2018) [14-Disc Box Set]

Posted By: v3122
Eagles - Legacy (2018) [14-Disc Box Set]

Eagles - Legacy (2018)
EAC | Flac(Image) + Cue + Log & MP3 CBR 320Kbps
Rhino, R2-563613 | ~ 3785 or 1645 Mb | Artwork(jpg) -> 1.64 Gb
DVD9: NTSC 4:3 (720x480) VBR | LPCM 2 ch / Dolby AC3 6 ch / DTS 6 ch
Blu-ray: MPEG-4 AVC 1080i, 29,970 fps, 16:9, High Profile 4.1
LPCM 2.0, 48 kHz, 24-bit / DTS-HD MA 5.1, 48 kHz, 24-bit
Rock / Pop Rock / Classic Rock

Legacy includes all seven of the band’s studio albums, three live albums, and a compilation of singles and b-sides. It also includes two concert videos:Hell Freezes Over (DVD) and Farewell Tour: Live From Melbourne (Blu-ray). Legacy follows the Eagles through the different stage of the band’s storied career, from the country-rock of early albums like Desperado and the superstar success of Hotel California, to the band’s 1994 reunion Hell Freezes Over and its most-recent studio album, 2005’s Long Road Out of Eden. All of the band’s hits, deep cuts and fan favorites are here, including “Take It Easy,” “Already Gone,” “Hotel California,” “Please Come Home For Christmas,” “Heartbreak Tonight” “No More Cloudy Days,” and “Get Over It.”

~ amazon
Eagles - Legacy (2018) [14-Disc Box Set]

Eagles - Legacy (2018):

Eagles - Legacy (2018) [14-Disc Box Set]

Tracklist CD01 - 1972 Eagles:

01 Take It Easy
02 Witchy Woman
03 Chug All Night
04 Most Of Us Are Sad
05 Nightingale
06 Train Leaves Here This Morning
07 Take The Devil
08 Earlybird
09 Peaceful Easy Feeling
10 Tryin'

Exact Audio Copy V1.3 from 2. September 2016

EAC extraction logfile from 1. December 2018, 12:24

Eagles / Eagles

Used drive : PLEXTOR BD-R PX-B950SA Adapter: 1 ID: 1

Read mode : Secure
Utilize accurate stream : Yes
Defeat audio cache : Yes
Make use of C2 pointers : No

Read offset correction : 6
Overread into Lead-In and Lead-Out : No
Fill up missing offset samples with silence : Yes
Delete leading and trailing silent blocks : No
Null samples used in CRC calculations : Yes
Used interface : Native Win32 interface for Win NT & 2000

Used output format : Internal WAV Routines
Sample format : 44.100 Hz; 16 Bit; Stereo


TOC of the extracted CD

Track | Start | Length | Start sector | End sector
––––––––––––––––––––––––––––-
1 | 0:00.00 | 3:31.41 | 0 | 15865
2 | 3:31.41 | 4:10.65 | 15866 | 34680
3 | 7:42.31 | 3:15.48 | 34681 | 49353
4 | 10:58.04 | 3:35.30 | 49354 | 65508
5 | 14:33.34 | 4:05.44 | 65509 | 83927
6 | 18:39.03 | 4:10.32 | 83928 | 102709
7 | 22:49.35 | 4:00.61 | 102710 | 120770
8 | 26:50.21 | 2:59.69 | 120771 | 134264
9 | 29:50.15 | 4:17.71 | 134265 | 153610
10 | 34:08.11 | 2:55.01 | 153611 | 166736


Range status and errors

Selected range

Filename C:\Users\Alex\Desktop\ALLexxess\Eagles\2018 Legacy (14-Disc Box Set Rhino Records)\1972 Eagles\Eagles - Eagles.wav

Peak level 96.9 %
Extraction speed 6.4 X
Range quality 100.0 %
Test CRC 9E7A5B0E
Copy CRC 9E7A5B0E
Copy OK

No errors occurred


AccurateRip summary

Track 1 not present in database
Track 2 not present in database
Track 3 not present in database
Track 4 not present in database
Track 5 not present in database
Track 6 not present in database
Track 7 not present in database
Track 8 not present in database
Track 9 not present in database
Track 10 not present in database

None of the tracks are present in the AccurateRip database

End of status report

–– CUETools DB Plugin V2.1.6

[CTDB TOCID: g4UzlOw4rD4yFE3zvE5t7qslQmY-] disk not present in database
Submit result: g4UzlOw4rD4yFE3zvE5t7qslQmY- has been uploaded


==== Log checksum E034764F1769DC54674A371DC64EAED11ACDF8418D936444952E4F288CB69588 ====


[CUETools log; Date: 05.12.2018 12:55:12; Version: 2.1.4]
[AccurateRip ID: 000e26c8-007157cd-6b08af0a] disk not present in database.

Track Peak [ CRC32 ] [W/O NULL] [ LOG ]
– 96,9 [9E7A5B0E] [7488629E] CRC32
01 96,4 [9888E500] [BD69F8E6]
02 96,1 [DB27DFF8] [161A64E2]
03 95,7 [C3A3B40C] [CA115AC0]
04 95,1 [DA664E90] [8A4F7E53]
05 96,9 [FEB9255D] [CF1C3E64]
06 95,1 [CAA8BF03] [84BBEAD6]
07 95,7 [120370DA] [102A8060]
08 96,5 [929A50D0] [14340B87]
09 95,5 [36EC8A29] [20B4DA1B]
10 95,0 [1587BEB1] [1BCF01E6]


Eagles - Legacy (2018) [14-Disc Box Set]

Tracklist CD02 - 1973 Desperado:

01 Doolin-Dalton
02 Twenty-One
03 Out Of Control
04 Tequila Sunrise
05 Desperado
06 Certain Kind Of Fool
07 Doolin-Dalton (Instrumental Version)
08 Outlaw Man
09 Saturday Night
10 Bitter Creek
11 Doolin-Dalton / Desperado (Reprise)

Exact Audio Copy V1.3 from 2. September 2016

EAC extraction logfile from 1. December 2018, 11:46

Eagles / Desperado

Used drive : PLEXTOR BD-R PX-B950SA Adapter: 1 ID: 1

Read mode : Secure
Utilize accurate stream : Yes
Defeat audio cache : Yes
Make use of C2 pointers : No

Read offset correction : 6
Overread into Lead-In and Lead-Out : No
Fill up missing offset samples with silence : Yes
Delete leading and trailing silent blocks : No
Null samples used in CRC calculations : Yes
Used interface : Native Win32 interface for Win NT & 2000

Used output format : Internal WAV Routines
Sample format : 44.100 Hz; 16 Bit; Stereo


TOC of the extracted CD

Track | Start | Length | Start sector | End sector
––––––––––––––––––––––––––––-
1 | 0:00.00 | 3:27.02 | 0 | 15526
2 | 3:27.02 | 2:09.72 | 15527 | 25273
3 | 5:36.74 | 3:04.40 | 25274 | 39113
4 | 8:41.39 | 2:53.03 | 39114 | 52091
5 | 11:34.42 | 3:33.52 | 52092 | 68118
6 | 15:08.19 | 3:01.57 | 68119 | 81750
7 | 18:10.01 | 0:47.61 | 81751 | 85336
8 | 18:57.62 | 3:33.31 | 85337 | 101342
9 | 22:31.18 | 3:20.43 | 101343 | 116385
10 | 25:51.61 | 5:01.03 | 116386 | 138963
11 | 30:52.64 | 4:51.03 | 138964 | 160791


Range status and errors

Selected range

Filename C:\Users\Alex\Desktop\ALLexxess\Eagles\2018 Legacy (14-Disc Box Set Rhino Records)\1973 Desperado\Eagles - Desperado.wav

Peak level 100.0 %
Extraction speed 6.4 X
Range quality 100.0 %
Test CRC ADF11DB0
Copy CRC ADF11DB0
Copy OK

No errors occurred


AccurateRip summary

Track 1 not present in database
Track 2 not present in database
Track 3 not present in database
Track 4 not present in database
Track 5 not present in database
Track 6 not present in database
Track 7 not present in database
Track 8 not present in database
Track 9 not present in database
Track 10 not present in database
Track 11 not present in database

None of the tracks are present in the AccurateRip database

End of status report

–– CUETools DB Plugin V2.1.6

[CTDB TOCID: 3AtxnQ.V8k7dIM2y3SX0l81pgco-] disk not present in database
Submit result: 3AtxnQ.V8k7dIM2y3SX0l81pgco- has been uploaded


==== Log checksum B26CB679BB949BBE70DF7D86CAE6D995503EB83FEE96E9E5067142830AFAC1AA ====


[CUETools log; Date: 05.12.2018 12:56:56; Version: 2.1.4]
[AccurateRip ID: 000d7fdb-0075d22b-8a085f0b] disk not present in database.

Track Peak [ CRC32 ] [W/O NULL] [ LOG ]
– 100,0 [ADF11DB0] [BDA6D958] CRC32
01 96,0 [C44E8500] [EA0EEF9C]
02 94,9 [A993ECD9] [AD95DDF1]
03 95,5 [679EC2CD] [3B29F6ED]
04 93,8 [5C7CDFC2] [10C4A21D]
05 95,1 [35686B75] [53ECD281]
06 100,0 [9C44A6D6] [7778D322]
07 86,2 [8B2B6A86] [88A491EC]
08 97,1 [B2CE7460] [0744C5E0]
09 82,3 [A86E5B46] [86431360]
10 94,8 [EC8ACF0E] [7938D13C]
11 97,4 [BD1CFF6B] [85CB4317]


Eagles - Legacy (2018) [14-Disc Box Set]

Tracklist CD03 - 1974 On The Border:

01 Already Gone
02 You Never Cry Like A Lover
03 Midnight Flyer
04 My Man
05 On The Border
06 James Dean
07 Ol' '55
08 Is It True?
09 Good Day In Hell
10 Best Of My Love

Exact Audio Copy V1.3 from 2. September 2016

EAC extraction logfile from 1. December 2018, 11:23

Eagles / On The Border

Used drive : PLEXTOR BD-R PX-B950SA Adapter: 1 ID: 1

Read mode : Secure
Utilize accurate stream : Yes
Defeat audio cache : Yes
Make use of C2 pointers : No

Read offset correction : 6
Overread into Lead-In and Lead-Out : No
Fill up missing offset samples with silence : Yes
Delete leading and trailing silent blocks : No
Null samples used in CRC calculations : Yes
Used interface : Native Win32 interface for Win NT & 2000

Used output format : Internal WAV Routines
Sample format : 44.100 Hz; 16 Bit; Stereo


TOC of the extracted CD

Track | Start | Length | Start sector | End sector
––––––––––––––––––––––––––––-
1 | 0:00.00 | 4:15.24 | 0 | 19148
2 | 4:15.24 | 4:00.73 | 19149 | 37221
3 | 8:16.22 | 3:58.11 | 37222 | 55082
4 | 12:14.33 | 3:29.55 | 55083 | 70812
5 | 15:44.13 | 4:23.33 | 70813 | 90570
6 | 20:07.46 | 3:38.19 | 90571 | 106939
7 | 23:45.65 | 4:21.16 | 106940 | 126530
8 | 28:07.06 | 3:14.46 | 126531 | 141126
9 | 31:21.52 | 4:25.28 | 141127 | 161029
10 | 35:47.05 | 4:34.68 | 161030 | 181647


Range status and errors

Selected range

Filename C:\Users\Alex\Desktop\ALLexxess\Eagles\2018 Legacy (14-Disc Box Set Rhino Records)\1974 On The Border\Eagles - On The Border.wav

Peak level 100.0 %
Extraction speed 2.9 X
Range quality 99.9 %
Test CRC 313A2B0D
Copy CRC 313A2B0D
Copy OK

No errors occurred


AccurateRip summary

Track 1 not present in database
Track 2 not present in database
Track 3 not present in database
Track 4 not present in database
Track 5 not present in database
Track 6 not present in database
Track 7 not present in database
Track 8 not present in database
Track 9 not present in database
Track 10 not present in database

None of the tracks are present in the AccurateRip database

End of status report

–– CUETools DB Plugin V2.1.6

[CTDB TOCID: .OJL1s9GB2oCEUqGtAFeUwkTGQg-] disk not present in database
Submit result: .OJL1s9GB2oCEUqGtAFeUwkTGQg- has been uploaded


==== Log checksum 68C030E84AED313CE8A0BAFBFED5E71A7BE0860C3DD2B3C2E5AABE4AE976406C ====


[CUETools log; Date: 05.12.2018 12:58:29; Version: 2.1.4]
[AccurateRip ID: 000f1ba2-0078a773-9e09750a] disk not present in database.

Track Peak [ CRC32 ] [W/O NULL] [ LOG ]
– 100,0 [313A2B0D] [BE1FDCCD] CRC32
01 97,5 [130F1923] [46680339]
02 96,3 [BF39FEB8] [761E2361]
03 99,0 [D90B7A15] [38CFDF7E]
04 98,2 [3D0D3F80] [0F0C6070]
05 99,5 [9ED16981] [CD77DB14]
06 99,4 [C6A37C19] [0F982869]
07 98,4 [0AF0F9F3] [7F7FB34F]
08 96,0 [3EFAF1AB] [9421ED00]
09 96,4 [22BFAD7C] [529AFF57]
10 100,0 [D6C782A6] [40F1F8E0]


Eagles - Legacy (2018) [14-Disc Box Set]

Tracklist CD04 - 1975 One Of These Nights:

01 One Of These Nights
02 Too Many Hands
03 Hollywood Waltz
04 Journey Of The Sorcerer
05 Lyin' Eyes
06 Take It To The Limit
07 Visions
08 After The Thrill Is Gone
09 I Wish You Peace

Exact Audio Copy V1.3 from 2. September 2016

EAC extraction logfile from 1. December 2018, 10:41

Eagles / One Of These Nights

Used drive : PLEXTOR BD-R PX-B950SA Adapter: 1 ID: 1

Read mode : Secure
Utilize accurate stream : Yes
Defeat audio cache : Yes
Make use of C2 pointers : No

Read offset correction : 6
Overread into Lead-In and Lead-Out : No
Fill up missing offset samples with silence : Yes
Delete leading and trailing silent blocks : No
Null samples used in CRC calculations : Yes
Used interface : Native Win32 interface for Win NT & 2000

Used output format : Internal WAV Routines
Sample format : 44.100 Hz; 16 Bit; Stereo


TOC of the extracted CD

Track | Start | Length | Start sector | End sector
––––––––––––––––––––––––––––-
1 | 0:00.00 | 4:51.49 | 0 | 21873
2 | 4:51.49 | 4:40.73 | 21874 | 42946
3 | 9:32.47 | 4:01.48 | 42947 | 61069
4 | 13:34.20 | 6:37.10 | 61070 | 90854
5 | 20:11.30 | 6:21.73 | 90855 | 119502
6 | 26:33.28 | 4:47.05 | 119503 | 141032
7 | 31:20.33 | 3:58.48 | 141033 | 158930
8 | 35:19.06 | 3:56.49 | 158931 | 176679
9 | 39:15.55 | 3:45.48 | 176680 | 193602


Range status and errors

Selected range

Filename C:\Users\Alex\Desktop\ALLexxess\Eagles\2018 Legacy (14-Disc Box Set Rhino Records)\1975 One Of These Nights\Eagles - One Of These Nights.wav

Peak level 99.5 %
Extraction speed 6.7 X
Range quality 100.0 %
Test CRC 64E8A0DB
Copy CRC 64E8A0DB
Copy OK

No errors occurred


AccurateRip summary

Track 1 not present in database
Track 2 not present in database
Track 3 not present in database
Track 4 not present in database
Track 5 not present in database
Track 6 not present in database
Track 7 not present in database
Track 8 not present in database
Track 9 not present in database

None of the tracks are present in the AccurateRip database

End of status report

–– CUETools DB Plugin V2.1.6

[CTDB TOCID: Vh8jgyarRwqmjWY8OCjuAZ60g7I-] disk not present in database
Submit result: Vh8jgyarRwqmjWY8OCjuAZ60g7I- has been uploaded


==== Log checksum 8540E6B08D81783F5A9728E61813885A1803F2D54712F0867FC0C843C41D471B ====


[CUETools log; Date: 05.12.2018 13:00:29; Version: 2.1.4]
[AccurateRip ID: 000f5ba0-007080c0-740a1509] disk not present in database.

Track Peak [ CRC32 ] [W/O NULL] [ LOG ]
– 99,5 [64E8A0DB] [4BA21335] CRC32
01 98,2 [C5EFD2CB] [DD36F445]
02 95,7 [687BE634] [74D838FF]
03 99,0 [98B88856] [12C181EB]
04 99,5 [EEC61ED0] [C093A667]
05 97,0 [5DFDC354] [BB3540A4]
06 99,5 [08D36109] [A700AE0E]
07 99,1 [54CDA0BA] [2B453D88]
08 96,2 [4F501EDF] [C7F34D0A]
09 97,4 [E4622FD5] [63D6E757]


Eagles - Legacy (2018) [14-Disc Box Set]

Tracklist CD05 - 1976 Hotel California:

01 Hotel California
02 New Kid In Town
03 Life In The Fast Lane
04 Wasted Time
05 Wasted Time (Reprise)
06 Victim Of Love
07 Pretty Maids All In A Row
08 Try And Love Again
09 The Last Resort

Exact Audio Copy V1.3 from 2. September 2016

EAC extraction logfile from 1. December 2018, 10:13

Eagles / Hotel California

Used drive : PLEXTOR BD-R PX-B950SA Adapter: 1 ID: 1

Read mode : Secure
Utilize accurate stream : Yes
Defeat audio cache : Yes
Make use of C2 pointers : No

Read offset correction : 6
Overread into Lead-In and Lead-Out : No
Fill up missing offset samples with silence : Yes
Delete leading and trailing silent blocks : No
Null samples used in CRC calculations : Yes
Used interface : Native Win32 interface for Win NT & 2000

Used output format : Internal WAV Routines
Sample format : 44.100 Hz; 16 Bit; Stereo


TOC of the extracted CD

Track | Start | Length | Start sector | End sector
––––––––––––––––––––––––––––-
1 | 0:00.00 | 6:31.26 | 0 | 29350
2 | 6:31.26 | 5:04.68 | 29351 | 52218
3 | 11:36.19 | 4:46.15 | 52219 | 73683
4 | 16:22.34 | 4:56.12 | 73684 | 95895
5 | 21:18.46 | 1:23.30 | 95896 | 102150
6 | 22:42.01 | 4:10.06 | 102151 | 120906
7 | 26:52.07 | 3:59.35 | 120907 | 138866
8 | 30:51.42 | 5:11.03 | 138867 | 162194
9 | 36:02.45 | 7:24.70 | 162195 | 195564


Range status and errors

Selected range

Filename C:\Users\Alex\Desktop\ALLexxess\Eagles\2018 Legacy (14-Disc Box Set Rhino Records)\1976 Hotel California\Eagles - Hotel California.wav

Peak level 100.0 %
Extraction speed 6.5 X
Range quality 99.9 %
Test CRC 79078348
Copy CRC 79078348
Copy OK

No errors occurred


AccurateRip summary

Track 1 not present in database
Track 2 not present in database
Track 3 not present in database
Track 4 not present in database
Track 5 not present in database
Track 6 not present in database
Track 7 not present in database
Track 8 not present in database
Track 9 not present in database

None of the tracks are present in the AccurateRip database

End of status report

–– CUETools DB Plugin V2.1.6

[CTDB TOCID: oFueLv4vA9SBzOLCALJOJd_PYsc-] disk not present in database
Submit result: oFueLv4vA9SBzOLCALJOJd_PYsc- has been uploaded


==== Log checksum EB28F4889C6E8607FB968202E45DF442FE045D94BEFE296C37B143D067BAA78A ====


[CUETools log; Date: 05.12.2018 13:02:26; Version: 2.1.4]
[AccurateRip ID: 000ed053-006a6ec4-800a2f09] disk not present in database.

Track Peak [ CRC32 ] [W/O NULL] [ LOG ]
– 100,0 [79078348] [D7B7BC41] CRC32
01 100,0 [47107E04] [08021C73]
02 100,0 [014107AD] [90C943AA]
03 100,0 [7BBC9A5D] [2C5C42A3]
04 100,0 [8E9A8C49] [F61B60C4]
05 95,4 [974010DB] [0D046563]
06 100,0 [6A050CE7] [9056839D]
07 99,9 [5D849F40] [42126AA6]
08 100,0 [5CB3E5E1] [C360FA45]
09 99,7 [382A54C6] [3ABB188F]


Eagles - Legacy (2018) [14-Disc Box Set]

Tracklist CD06 - 1979 The Long Run:

01 The Long Run
02 I Can't Tell You Why
03 In The City
04 The Disco Strangler
05 King Of Hollywood
06 Heartache Tonight
07 Those Shoes
08 Teenage Jail
09 The Greeks Don't Want No Freaks
10 The Sad Cafe

Exact Audio Copy V1.3 from 2. September 2016

EAC extraction logfile from 1. December 2018, 9:48

Eagles / The Long Run

Used drive : PLEXTOR BD-R PX-B950SA Adapter: 1 ID: 1

Read mode : Secure
Utilize accurate stream : Yes
Defeat audio cache : Yes
Make use of C2 pointers : No

Read offset correction : 6
Overread into Lead-In and Lead-Out : No
Fill up missing offset samples with silence : Yes
Delete leading and trailing silent blocks : No
Null samples used in CRC calculations : Yes
Used interface : Native Win32 interface for Win NT & 2000

Used output format : Internal WAV Routines
Sample format : 44.100 Hz; 16 Bit; Stereo


TOC of the extracted CD

Track | Start | Length | Start sector | End sector
––––––––––––––––––––––––––––-
1 | 0:00.00 | 3:41.16 | 0 | 16590
2 | 3:41.16 | 4:55.02 | 16591 | 38717
3 | 8:36.18 | 3:44.40 | 38718 | 55557
4 | 12:20.58 | 2:44.40 | 55558 | 67897
5 | 15:05.23 | 6:27.53 | 67898 | 96975
6 | 21:33.01 | 4:25.50 | 96976 | 116900
7 | 25:58.51 | 4:54.61 | 116901 | 139011
8 | 30:53.37 | 3:43.72 | 139012 | 155808
9 | 34:37.34 | 2:18.29 | 155809 | 166187
10 | 36:55.63 | 5:32.72 | 166188 | 191159


Range status and errors

Selected range

Filename C:\Users\Alex\Desktop\ALLexxess\Eagles\2018 Legacy (14-Disc Box Set Rhino Records)\1979 The Long Run\Eagles - The Long Run.wav

Peak level 100.0 %
Extraction speed 6.5 X
Range quality 99.9 %
Test CRC 4BD4EF57
Copy CRC 4BD4EF57
Copy OK

No errors occurred


AccurateRip summary

Track 1 not present in database
Track 2 not present in database
Track 3 not present in database
Track 4 not present in database
Track 5 not present in database
Track 6 not present in database
Track 7 not present in database
Track 8 not present in database
Track 9 not present in database
Track 10 not present in database

None of the tracks are present in the AccurateRip database

End of status report

–– CUETools DB Plugin V2.1.6

[CTDB TOCID: BUDC.UWKBJ0ROoBVJbTw0ukVlFE-] found
Submit result: BUDC.UWKBJ0ROoBVJbTw0ukVlFE- has been confirmed
Track | CTDB Status
1 | (3/3) Accurately ripped
2 | (3/3) Accurately ripped
3 | (3/3) Accurately ripped
4 | (3/3) Accurately ripped
5 | (3/3) Accurately ripped
6 | (3/3) Accurately ripped
7 | (3/3) Accurately ripped
8 | (3/3) Accurately ripped
9 | (3/3) Accurately ripped
10 | (3/3) Accurately ripped


==== Log checksum E953F2BB6A67C27BEF7581207A97F908F73B7A69E8B6A7612C0DEA55C6A35101 ====


[CUETools log; Date: 05.12.2018 13:04:36; Version: 2.1.4]
[AccurateRip ID: 000ff14b-0080065f-8209f40a] disk not present in database.

Track Peak [ CRC32 ] [W/O NULL] [ LOG ]
– 100,0 [4BD4EF57] [DDF9F5E8] CRC32
01 100,0 [BD85FE13] [FB3B2272]
02 99,9 [FD3F64B0] [BA5B9511]
03 100,0 [54CDB401] [67676842]
04 97,9 [9DDCC4CE] [6A6383BF]
05 100,0 [67874C46] [958D660C]
06 99,9 [0F92A5E1] [5483DA4E]
07 99,9 [59753E76] [DD3D9781]
08 99,5 [D20CE70C] [54A51B04]
09 99,6 [02FF00BE] [EA428607]
10 99,6 [D6CEA3D8] [4EBCCD85]


Eagles - Legacy (2018) [14-Disc Box Set]

Tracklist CD07 - 2007 Long Road Out Of Eden CD1:

01 No More Walks In The Wood
02 How Long
03 Busy Being Fabulous
04 What Do I Do With My Heart
05 Guilty Of The Crime
06 I Don't Want To Hear Any More
07 Waiting In The Weeds
08 No More Cloudy Days
09 Fast Company
10 Do Something
11 You Are Not Alone

Exact Audio Copy V1.3 from 2. September 2016

EAC extraction logfile from 1. December 2018, 9:23

Eagles / Long Road Out Of Eden CD1

Used drive : PLEXTOR BD-R PX-B950SA Adapter: 1 ID: 1

Read mode : Secure
Utilize accurate stream : Yes
Defeat audio cache : Yes
Make use of C2 pointers : No

Read offset correction : 6
Overread into Lead-In and Lead-Out : No
Fill up missing offset samples with silence : Yes
Delete leading and trailing silent blocks : No
Null samples used in CRC calculations : Yes
Used interface : Native Win32 interface for Win NT & 2000

Used output format : Internal WAV Routines
Sample format : 44.100 Hz; 16 Bit; Stereo


TOC of the extracted CD

Track | Start | Length | Start sector | End sector
––––––––––––––––––––––––––––-
1 | 0:00.00 | 2:00.65 | 0 | 9064
2 | 2:00.65 | 3:16.04 | 9065 | 23768
3 | 5:16.69 | 4:20.70 | 23769 | 43338
4 | 9:37.64 | 3:54.25 | 43339 | 60913
5 | 13:32.14 | 3:43.65 | 60914 | 77703
6 | 17:16.04 | 4:21.10 | 77704 | 97288
7 | 21:37.14 | 7:46.40 | 97289 | 132278
8 | 29:23.54 | 4:03.23 | 132279 | 150526
9 | 33:27.02 | 4:00.52 | 150527 | 168578
10 | 37:27.54 | 5:12.34 | 168579 | 192012
11 | 42:40.13 | 2:24.16 | 192013 | 202828


Range status and errors

Selected range

Filename C:\Users\Alex\Desktop\ALLexxess\Eagles\2018 Legacy (14-Disc Box Set Rhino Records)\2007 Long Road Out Of Eden 2CD\CD1\Eagles - Long Road Out Of Eden CD1.wav

Peak level 100.0 %
Extraction speed 6.7 X
Range quality 100.0 %
Test CRC 534AE815
Copy CRC 534AE815
Copy OK

No errors occurred


AccurateRip summary

Track 1 not present in database
Track 2 not present in database
Track 3 not present in database
Track 4 not present in database
Track 5 not present in database
Track 6 not present in database
Track 7 not present in database
Track 8 not present in database
Track 9 not present in database
Track 10 not present in database
Track 11 not present in database

None of the tracks are present in the AccurateRip database

End of status report

–– CUETools DB Plugin V2.1.6

[CTDB TOCID: Xe2m.Ae8ts1PfHyx97Z2IfxwYC4-] disk not present in database
Submit result: Xe2m.Ae8ts1PfHyx97Z2IfxwYC4- has been uploaded


==== Log checksum FF2AF349D9D576792F38023E84F9F46D3E569F2352018B7B57F3B70D97FC3EDC ====


[CUETools log; Date: 05.12.2018 13:06:37; Version: 2.1.4]
[AccurateRip ID: 0011aca3-009e12ab-940a900b] disk not present in database.

Track Peak [ CRC32 ] [W/O NULL] [ LOG ]
– 100,0 [534AE815] [85F6F725] CRC32
01 79,4 [5DE9BCB6] [C3242C04]
02 100,0 [E9EF43EF] [8EBDDAC8]
03 100,0 [BFE91814] [4F507E63]
04 100,0 [F5D9F0E0] [7E5F42C3]
05 100,0 [3D26BCB5] [D6D2224F]
06 100,0 [942B0A32] [A2E2DD7B]
07 100,0 [E70A5802] [3C0FCE18]
08 100,0 [A4771F94] [57FE3DC6]
09 100,0 [1428321C] [3C93FF73]
10 100,0 [885673EA] [346922E0]
11 99,0 [72E73F6C] [03B84776]


Eagles - Legacy (2018) [14-Disc Box Set]

Tracklist CD08 - 2007 Long Road Out Of Eden CD2:

01 Long Road Out Of Eden
02 I Dreamed There Was No War
03 Somebody
04 Frail Grasp On The Big Picture
05 Last Good Time In Town
06 I Love To Watch A Woman Dance
07 Business As Usual
08 Center Of The Universe
09 It's Your World Now

Exact Audio Copy V1.3 from 2. September 2016

EAC extraction logfile from 30. November 2018, 21:01

Eagles / Long Road Out Of Eden CD2

Used drive : PLEXTOR BD-R PX-B950SA Adapter: 1 ID: 1

Read mode : Secure
Utilize accurate stream : Yes
Defeat audio cache : Yes
Make use of C2 pointers : No

Read offset correction : 6
Overread into Lead-In and Lead-Out : No
Fill up missing offset samples with silence : Yes
Delete leading and trailing silent blocks : No
Null samples used in CRC calculations : Yes
Used interface : Native Win32 interface for Win NT & 2000

Used output format : Internal WAV Routines
Sample format : 44.100 Hz; 16 Bit; Stereo


TOC of the extracted CD

Track | Start | Length | Start sector | End sector
––––––––––––––––––––––––––––-
1 | 0:00.00 | 10:17.06 | 0 | 46280
2 | 10:17.06 | 1:37.71 | 46281 | 53626
3 | 11:55.02 | 4:09.38 | 53627 | 72339
4 | 16:04.40 | 5:46.15 | 72340 | 98304
5 | 21:50.55 | 7:07.30 | 98305 | 130359
6 | 28:58.10 | 3:16.08 | 130360 | 145067
7 | 32:14.18 | 5:31.32 | 145068 | 169924
8 | 37:45.50 | 3:42.10 | 169925 | 186584
9 | 41:27.60 | 4:22.10 | 186585 | 206244


Range status and errors

Selected range

Filename C:\Users\Alex\Desktop\ALLexxess\Eagles\2018 Legacy (14-Disc Box Set Rhino Records)\2007 Long Road Out Of Eden 2CD\CD2\Eagles - Long Road Out Of Eden CD2.wav

Peak level 100.0 %
Extraction speed 6.6 X
Range quality 99.9 %
Test CRC 239C17AF
Copy CRC 239C17AF
Copy OK

No errors occurred


AccurateRip summary

Track 1 cannot be verified as accurate (confidence 200) [1ED3AC3B], AccurateRip returned [659A2A17] (AR v2)
Track 2 cannot be verified as accurate (confidence 200) [0267672A], AccurateRip returned [45F19856] (AR v2)
Track 3 cannot be verified as accurate (confidence 200) [DA59F1DD], AccurateRip returned [8C3F45AD] (AR v2)
Track 4 cannot be verified as accurate (confidence 200) [F195381A], AccurateRip returned [B6A4127E] (AR v2)
Track 5 cannot be verified as accurate (confidence 200) [704D0A99], AccurateRip returned [7090CD43] (AR v2)
Track 6 cannot be verified as accurate (confidence 200) [1432A50B], AccurateRip returned [59AAFC20] (AR v2)
Track 7 cannot be verified as accurate (confidence 200) [D685C239], AccurateRip returned [793835F3] (AR v2)
Track 8 cannot be verified as accurate (confidence 200) [08385B78], AccurateRip returned [94157B8E] (AR v2)
Track 9 cannot be verified as accurate (confidence 200) [DED0CC09], AccurateRip returned [FE4C4040] (AR v2)

No tracks could be verified as accurate
You may have a different pressing from the one(s) in the database

End of status report

–– CUETools DB Plugin V2.1.6

[CTDB TOCID: uAgr.St98oNq.TvjNRDMPZhnw3I-] found
Submit result: uAgr.St98oNq.TvjNRDMPZhnw3I- has been submitted
Track | CTDB Status
1 | ( 0/1829) No match
2 | ( 0/1829) No match
3 | ( 0/1829) No match
4 | ( 0/1829) No match
5 | ( 0/1829) No match
6 | ( 0/1829) No match
7 | ( 0/1829) No match
8 | ( 0/1829) No match
9 | ( 0/1829) No match


==== Log checksum 4C4B3EA361C57607B7E1B8BDFC634B239E53E31C3478C3470B73477511D263A3 ====


[CUETools log; Date: 05.12.2018 13:08:47; Version: 2.1.4]
[AccurateRip ID: 0010eb00-00790c98-840abd09] found.
Track [ CRC | V2 ] Status
01 [7710f6a9|1ed3ac3b] (000+000/1514) No match
02 [319852ff|0267672a] (000+000/1532) No match
03 [a4938d28|da59f1dd] (000+000/1529) No match
04 [d5a12ca1|f195381a] (000+000/1529) No match
05 [b554159f|704d0a99] (000+000/1516) No match
06 [f05512f5|1432a50b] (000+000/1522) No match
07 [6bfffe9e|d685c239] (000+000/1514) No match
08 [5f069382|08385b78] (000+000/1516) No match
09 [a1ec5792|ded0cc09] (000+000/1498) No match

Track Peak [ CRC32 ] [W/O NULL] [ LOG ]
– 100,0 [239C17AF] [EB9C6B63] CRC32
01 100,0 [A755C056] [072A3D6C]
02 91,3 [A952CE01] [8E9273E2]
03 100,0 [7DD39383] [3B48E85C]
04 100,0 [06B9A8A2] [638D2DC6]
05 100,0 [B6A47687] [B6B0A156]
06 98,9 [EDEC8ACE] [A5BF43E1]
07 100,0 [763CE56F] [FC6C30A8]
08 99,5 [768BC8EC] [B5DFA1F0]
09 100,0 [1F046409] [621F24AA]


Eagles - Legacy (2018) [14-Disc Box Set]

Tracklist CD09 - 1980 Eagles Live:

Live In Santa Monica, 7/29/1980
01 Hotel California
02 Heartache Tonight
03 I Can't Tell You Why
04 The Long Run
05 New Kid In Town
06 Life's Been Good
07 Seven Bridges Road
08 Wasted Time
09 Take It To The Limit
10 Doolin-Dalton (Reprise II)
11 Desperado
12 Saturday Night
13 All Night Long
14 Life In The Fast Lane
15 Take It Easy

Exact Audio Copy V1.3 from 2. September 2016

EAC extraction logfile from 30. November 2018, 20:28

Eagles / Eagles Live

Used drive : PLEXTOR BD-R PX-B950SA Adapter: 1 ID: 1

Read mode : Secure
Utilize accurate stream : Yes
Defeat audio cache : Yes
Make use of C2 pointers : No

Read offset correction : 6
Overread into Lead-In and Lead-Out : No
Fill up missing offset samples with silence : Yes
Delete leading and trailing silent blocks : No
Null samples used in CRC calculations : Yes
Used interface : Native Win32 interface for Win NT & 2000

Used output format : Internal WAV Routines
Sample format : 44.100 Hz; 16 Bit; Stereo


TOC of the extracted CD

Track | Start | Length | Start sector | End sector
––––––––––––––––––––––––––––-
1 | 0:00.00 | 7:02.11 | 0 | 31660
2 | 7:02.11 | 4:34.42 | 31661 | 52252
3 | 11:36.53 | 5:18.51 | 52253 | 76153
4 | 16:55.29 | 5:52.21 | 76154 | 102574
5 | 22:47.50 | 5:54.18 | 102575 | 129142
6 | 28:41.68 | 8:58.38 | 129143 | 169530
7 | 37:40.31 | 3:40.31 | 169531 | 186061
8 | 41:20.62 | 5:21.63 | 186062 | 210199
9 | 46:42.50 | 5:14.54 | 210200 | 233803
10 | 51:57.29 | 0:42.08 | 233804 | 236961
11 | 52:39.37 | 3:58.19 | 236962 | 254830
12 | 56:37.56 | 3:47.43 | 254831 | 271898
13 | 60:25.24 | 5:35.58 | 271899 | 297081
14 | 66:01.07 | 5:10.19 | 297082 | 320350
15 | 71:11.26 | 5:19.14 | 320351 | 344289


Range status and errors

Selected range

Filename C:\Users\Alex\Desktop\ALLexxess\Eagles\2018 Legacy (14-Disc Box Set Rhino Records)\1980 Eagles Live\Eagles - Eagles Live.wav

Peak level 100.0 %
Extraction speed 6.8 X
Range quality 99.9 %
Test CRC 46F3D051
Copy CRC 46F3D051
Copy OK

No errors occurred


AccurateRip summary

Track 1 not present in database
Track 2 not present in database
Track 3 not present in database
Track 4 not present in database
Track 5 not present in database
Track 6 not present in database
Track 7 not present in database
Track 8 not present in database
Track 9 not present in database
Track 10 not present in database
Track 11 not present in database
Track 12 not present in database
Track 13 not present in database
Track 14 not present in database
Track 15 not present in database

None of the tracks are present in the AccurateRip database

End of status report

–– CUETools DB Plugin V2.1.6

[CTDB TOCID: Gixg.64i3vAYXITAI_9f14QM_Ls-] found
Submit result: Gixg.64i3vAYXITAI_9f14QM_Ls- has been uploaded
Track | CTDB Status
1 | (1/1) Accurately ripped
2 | (1/1) Accurately ripped
3 | (1/1) Accurately ripped
4 | (1/1) Accurately ripped
5 | (1/1) Accurately ripped
6 | (1/1) Accurately ripped
7 | (1/1) Accurately ripped
8 | (1/1) Accurately ripped
9 | (1/1) Accurately ripped
10 | (1/1) Accurately ripped
11 | (1/1) Accurately ripped
12 | (1/1) Accurately ripped
13 | (1/1) Accurately ripped
14 | (1/1) Accurately ripped
15 | (0/1) No match


==== Log checksum C26871C1202C54C738CB8AC459CBA575339DFA6E1F651FE2EE352705AADEC54F ====


[CUETools log; Date: 05.12.2018 12:45:38; Version: 2.1.4]
[AccurateRip ID: 002c81be-01ee3a92-de11ee0f] disk not present in database.

Track Peak [ CRC32 ] [W/O NULL] [ LOG ]
– 100,0 [46F3D051] [DD76BADE] CRC32
01 100,0 [A856DB50] [DE2102D4]
02 100,0 [EF70E9A9] [BF2607DA]
03 100,0 [7B990E88] [A2D320C1]
04 100,0 [F749C701] [4C9DA3AF]
05 99,6 [07AFA42E] [1139EE9D]
06 100,0 [6AAD87C4] [433CD8B2]
07 87,5 [116D3238] [6B251B9C]
08 98,9 [42C924B0] [F951F762]
09 98,9 [33EBC761] [5B6962F4]
10 32,0 [E056AB8F] [A315EA68]
11 100,0 [A3E209BF] [6FAEF919]
12 99,0 [73E6CABD] [18A44344]
13 100,0 [D227887C] [96A3DBCD]
14 100,0 [BB5E06B5] [C159EB8A]
15 100,0 [A7DBB0B2] [C5A231EE]


Eagles - Legacy (2018) [14-Disc Box Set]

Tracklist CD10 - 1994 Hell Freezes Over:

01 Get Over It
02 Love Will Keep Us Alive
03 The Girl From Yesterday
04 Learn To Be Still
05 Tequila Sunrise
06 Hotel California
07 Wasted Time
08 Pretty Maids All In A Row
09 I Can't Tell You Why
10 New York Minute
11 The Last Resort
12 Take It Easy
13 In The City
14 Life In The Fast Lane
15 Desperado

Exact Audio Copy V1.3 from 2. September 2016

EAC extraction logfile from 30. November 2018, 19:50

Eagles / Hell Freezes Over

Used drive : PLEXTOR BD-R PX-B950SA Adapter: 1 ID: 1

Read mode : Secure
Utilize accurate stream : Yes
Defeat audio cache : Yes
Make use of C2 pointers : No

Read offset correction : 6
Overread into Lead-In and Lead-Out : No
Fill up missing offset samples with silence : Yes
Delete leading and trailing silent blocks : No
Null samples used in CRC calculations : Yes
Used interface : Native Win32 interface for Win NT & 2000

Used output format : Internal WAV Routines
Sample format : 44.100 Hz; 16 Bit; Stereo


TOC of the extracted CD

Track | Start | Length | Start sector | End sector
––––––––––––––––––––––––––––-
1 | 0:00.00 | 3:31.54 | 0 | 15878
2 | 3:31.54 | 4:03.34 | 15879 | 34137
3 | 7:35.13 | 3:23.66 | 34138 | 49428
4 | 10:59.04 | 4:28.66 | 49429 | 69594
5 | 15:27.70 | 3:27.74 | 69595 | 85193
6 | 18:55.69 | 7:12.03 | 85194 | 117596
7 | 26:07.72 | 5:19.42 | 117597 | 141563
8 | 31:27.39 | 4:26.72 | 141564 | 161585
9 | 35:54.36 | 5:11.28 | 161586 | 184938
10 | 41:05.64 | 6:37.50 | 184939 | 214763
11 | 47:43.39 | 7:24.31 | 214764 | 248094
12 | 55:07.70 | 4:36.29 | 248095 | 268823
13 | 59:44.24 | 4:07.67 | 268824 | 287415
14 | 63:52.16 | 6:01.17 | 287416 | 314507
15 | 69:53.33 | 4:17.59 | 314508 | 333841


Range status and errors

Selected range

Filename C:\Users\Alex\Desktop\ALLexxess\Eagles\2018 Legacy (14-Disc Box Set Rhino Records)\1994 Hell Freezes Over\Eagles - Hell Freezes Over.wav

Peak level 99.8 %
Extraction speed 8.2 X
Range quality 100.0 %
Test CRC 8698A7C2
Copy CRC 8698A7C2
Copy OK

No errors occurred


AccurateRip summary

Track 1 not present in database
Track 2 not present in database
Track 3 not present in database
Track 4 not present in database
Track 5 not present in database
Track 6 not present in database
Track 7 not present in database
Track 8 not present in database
Track 9 not present in database
Track 10 not present in database
Track 11 not present in database
Track 12 not present in database
Track 13 not present in database
Track 14 not present in database
Track 15 not present in database

None of the tracks are present in the AccurateRip database

End of status report

–– CUETools DB Plugin V2.1.6

[CTDB TOCID: 4PDb4dM2cOjCPDjEuvxAu8r2Cbw-] disk not present in database
Submit result: 4PDb4dM2cOjCPDjEuvxAu8r2Cbw- has been uploaded


==== Log checksum D11014B29E3FFE271100E27F974C23F5DF17FBCF73D60013668C970E9D8223B5 ====


[CUETools log; Date: 05.12.2018 12:48:59; Version: 2.1.4]
[AccurateRip ID: 0026908a-01c01d03-f411630f] disk not present in database.

Track Peak [ CRC32 ] [W/O NULL] [ LOG ]
– 99,8 [8698A7C2] [2D4BF028] CRC32
01 99,8 [B2222323] [054A4191]
02 99,8 [7552258E] [83726352]
03 99,8 [FEF44371] [155B2D56]
04 99,8 [E20ADD97] [16567399]
05 99,8 [48DBAC9D] [50533372]
06 99,8 [B3CF9926] [28C0CC9C]
07 99,8 [6C18DD6C] [3071DF0D]
08 99,8 [05B69775] [5F6B0436]
09 99,8 [02BB0370] [80485894]
10 99,8 [154A2004] [F1E73BCD]
11 99,8 [DD6E3D21] [64AA8E74]
12 99,8 [CA7F70EA] [388EBBC6]
13 99,8 [67B518B6] [FE5A5E15]
14 99,8 [D8CEBD18] [E4099774]
15 99,8 [7B6B8B38] [27BBA6C0]


Eagles - Legacy (2018) [14-Disc Box Set]

Tracklist CD11 - 2000 Millennium Concert:

Live At Staples Center, Los Angeles, CA, 12/31/1999
01 Hotel California
02 Victim Of Love
03 Peaceful Easy Feeling
04 Please Come Home For Christmas
05 Ol' '55
06 Take It To The Limit
07 Those Shoes
08 Funky New Year
09 Dirty Laundry
10 Funk 49
11 All She Wants To Do Is Dance
12 The Best Of My Love

Exact Audio Copy V1.3 from 2. September 2016

EAC extraction logfile from 29. November 2018, 20:22

Eagles / Millennium Concert

Used drive : PLEXTOR BD-R PX-B950SA Adapter: 1 ID: 1

Read mode : Secure
Utilize accurate stream : Yes
Defeat audio cache : Yes
Make use of C2 pointers : No

Read offset correction : 6
Overread into Lead-In and Lead-Out : No
Fill up missing offset samples with silence : Yes
Delete leading and trailing silent blocks : No
Null samples used in CRC calculations : Yes
Used interface : Native Win32 interface for Win NT & 2000

Used output format : Internal WAV Routines
Sample format : 44.100 Hz; 16 Bit; Stereo


TOC of the extracted CD

Track | Start | Length | Start sector | End sector
––––––––––––––––––––––––––––-
1 | 0:00.00 | 6:57.60 | 0 | 31334
2 | 6:57.60 | 5:01.31 | 31335 | 53940
3 | 11:59.16 | 4:32.11 | 53941 | 74351
4 | 16:31.27 | 3:53.70 | 74352 | 91896
5 | 20:25.22 | 5:19.65 | 91897 | 115886
6 | 25:45.12 | 4:02.21 | 115887 | 134057
7 | 29:47.33 | 6:12.49 | 134058 | 162006
8 | 36:00.07 | 3:45.59 | 162007 | 178940
9 | 39:45.66 | 5:54.34 | 178941 | 205524
10 | 45:40.25 | 3:47.58 | 205525 | 222607
11 | 49:28.08 | 5:21.11 | 222608 | 246693
12 | 54:49.19 | 5:06.56 | 246694 | 269699


Range status and errors

Selected range

Filename C:\Users\Alex\Desktop\ALLexxess\Eagles\2018 Legacy (14-Disc Box Set Rhino Records)\2000 Millennium Concert\Eagles - Millennium Concert.wav

Peak level 84.0 %
Extraction speed 7.2 X
Range quality 100.0 %
Test CRC A2764AD7
Copy CRC A2764AD7
Copy OK

No errors occurred


AccurateRip summary

Track 1 not present in database
Track 2 not present in database
Track 3 not present in database
Track 4 not present in database
Track 5 not present in database
Track 6 not present in database
Track 7 not present in database
Track 8 not present in database
Track 9 not present in database
Track 10 not present in database
Track 11 not present in database
Track 12 not present in database

None of the tracks are present in the AccurateRip database

End of status report

–– CUETools DB Plugin V2.1.6

[CTDB TOCID: Z7wye3iWL5ryIVULX5Kx33H7RjI-] disk not present in database
Submit result: Z7wye3iWL5ryIVULX5Kx33H7RjI- has been uploaded


==== Log checksum 805A4D61E9B2E498CB8B1766C88AF17A637F57C4ACC6DD226CF8F7C09B281D20 ====


[CUETools log; Date: 05.12.2018 12:51:40; Version: 2.1.4]
[AccurateRip ID: 001b4441-00fba5e6-b40e0c0c] disk not present in database.

Track Peak [ CRC32 ] [W/O NULL] [ LOG ]
– 84,0 [A2764AD7] [36746296] CRC32
01 84,0 [7B552260] [2DC574A7]
02 84,0 [94494D68] [1A67A59E]
03 84,0 [36253951] [0C5DA52F]
04 84,0 [CD21DE5C] [E08E9130]
05 84,0 [ADEF7A52] [DDE7803E]
06 84,0 [E60677F7] [3534120D]
07 84,0 [BE7E218C] [CC8D9FCA]
08 84,0 [8AAF0C91] [DA850920]
09 84,0 [EFFF7669] [2EBD8250]
10 84,0 [8C8D28DD] [CCAB1174]
11 84,0 [10B27853] [07198C84]
12 84,0 [B363DF1C] [9E201607]


Eagles - Legacy (2018) [14-Disc Box Set]

Tracklist CD12 - 2018 Single And B-Sides:

01 Take It Easy (Single Version)
02 Get You In The Mood (Non-LP B Side)
03 Outlaw Man (Single Version)
04 Best Of My Love (Single Version)
05 One Of These Nights (Single Edit)
06 Lyin’ Eyes (Single Edit)
07 Take It To The Limit (Single Edit)
08 Please Come Home For Christmas
09 Funky New Year
10 Hole In The World

Exact Audio Copy V1.3 from 2. September 2016

EAC extraction logfile from 29. November 2018, 19:53

Eagles / Single And B-Sides

Used drive : PLEXTOR BD-R PX-B950SA Adapter: 1 ID: 1

Read mode : Secure
Utilize accurate stream : Yes
Defeat audio cache : Yes
Make use of C2 pointers : No

Read offset correction : 6
Overread into Lead-In and Lead-Out : No
Fill up missing offset samples with silence : Yes
Delete leading and trailing silent blocks : No
Null samples used in CRC calculations : Yes
Used interface : Native Win32 interface for Win NT & 2000

Used output format : Internal WAV Routines
Sample format : 44.100 Hz; 16 Bit; Stereo


TOC of the extracted CD

Track | Start | Length | Start sector | End sector
––––––––––––––––––––––––––––-
1 | 0:00.00 | 3:26.37 | 0 | 15486
2 | 3:26.37 | 3:53.51 | 15487 | 33012
3 | 7:20.13 | 3:35.11 | 33013 | 49148
4 | 10:55.24 | 3:32.14 | 49149 | 65062
5 | 14:27.38 | 3:36.01 | 65063 | 81263
6 | 18:03.39 | 4:16.35 | 81264 | 100498
7 | 22:19.74 | 3:49.05 | 100499 | 117678
8 | 26:09.04 | 2:59.15 | 117679 | 131118
9 | 29:08.19 | 4:02.15 | 131119 | 149283
10 | 33:10.34 | 4:19.01 | 149284 | 168709


Range status and errors

Selected range

Filename C:\Users\Alex\Desktop\ALLexxess\Eagles\2018 Legacy (14-Disc Box Set Rhino Records)\2018 Single And B-Sides\Eagles - Single And B-Sides.wav

Peak level 100.0 %
Extraction speed 6.5 X
Range quality 100.0 %
Test CRC F226A12D
Copy CRC F226A12D
Copy OK

No errors occurred


AccurateRip summary

Track 1 not present in database
Track 2 not present in database
Track 3 not present in database
Track 4 not present in database
Track 5 not present in database
Track 6 not present in database
Track 7 not present in database
Track 8 not present in database
Track 9 not present in database
Track 10 not present in database

None of the tracks are present in the AccurateRip database

End of status report

–– CUETools DB Plugin V2.1.6

[CTDB TOCID: V3vMpj7Chnrd6l26DOQaiolgxRw-] disk not present in database
Submit result: V3vMpj7Chnrd6l26DOQaiolgxRw- has been uploaded


==== Log checksum AEFE5E99ED0FBBA3E0160C85DAFF9ACD3D75280FFE9A02F623228CB1B7172D72 ====


[CUETools log; Date: 05.12.2018 12:53:24; Version: 2.1.4]
[AccurateRip ID: 000de7a3-006f9703-8608c90a] disk not present in database.

Track Peak [ CRC32 ] [W/O NULL] [ LOG ]
– 100,0 [F226A12D] [00324E2A] CRC32
01 99,0 [3C6C3C97] [AA94268F]
02 94,8 [25BDA72E] [EA75D958]
03 98,8 [874291EF] [5C2C4735]
04 83,1 [81064F6D] [9B3EA26F]
05 98,8 [75E71254] [1A11E08A]
06 98,2 [9FBA45C6] [A75212DF]
07 98,7 [DF6CEBA8] [1E823903]
08 99,3 [B5CDCF3D] [E64B7A75]
09 99,4 [B2DF9992] [2F33F3B0]
10 100,0 [1F45AE78] [A8FB9DBD]


Eagles - Legacy (2018) [14-Disc Box Set]

Tracklist DVD - 1994 Hell Freezes Over:

01 Hotel California
02 Tequila Sunrise
03 Help Me Through The Night
04 The Heart Of The Matter
05 Love Will Keep Us Alive
06 Learn To Be Still
07 Pretty Maids All In A Row
08 The Girl From Yesterday
09 Wasted Time
10 I Can't Tell You Why
11 New York Minute
12 The Last Resort
13 Take It Easy
14 Life In The Fast Lane
15 In The City
16 Get Over It
17 Desperado
18 Seven Bridges Road (Bonus DTS Audio Only)

Title: DVD
Size: 5.54 Gb ( 5 804 154,00 KBytes ) - DVD-9
Enabled regions: 1, 2, 3, 4, 5, 6, 7, 8

VTS_01 :
Play Length: 01:38:33
Video: NTSC 4:3 (720x480) VBR
Audio:
English (LinearPCM, 2 ch)
English (Dolby AC3, 6 ch)
English (DTS, 6 ch)

VTS_02 :
Play Length: 00:00:19+00:03:14
Video: NTSC 4:3 (720x480) VBR
Audio:
English (Dolby AC3, 2 ch)
English (Dolby AC3, 2 ch)
English (DTS, 6 ch)


Eagles - Legacy (2018) [14-Disc Box Set]

Eagles - Legacy (2018) [14-Disc Box Set]

Eagles - Legacy (2018) [14-Disc Box Set]

Eagles - Legacy (2018) [14-Disc Box Set]

* * *

Eagles - Legacy (2018) [14-Disc Box Set]

Tracklist BD - 2005 Farewell Tour: Live From Melbourne:

01 The Long Run
02 New Kid In Town
03 Wasted Time
04 Peaceful Easy Feeling
05 I Can't Tell You Why
06 One Of These Nights
07 One Day At A Time
08 Lyin' Eyes
09 The Boys Of Summer
10 In The City
11 Already Gone
12 Silent Spring Intro
13 Tequila Sunrise
14 Love Will Keep Us Alive
15 No More Cloudy Days
16 Hole In The World
17 Take It To The Limit Live
18 You Belong To The City
19. Walk Away
20 Sunset Grill
21 Life's Been Good
22 Dirty Laundry
23 Funk 49
24 Heartache Tonight
25 Life In The Fast Lane
26 Hotel California
27 Rocky Mountain Way
28 All She Wants To Do Is Dance
29 Take It Easy
30 Desperado

Disc Title: The Eagles - Farewell 1 Tour -
Disc Size: 45 408 767 746 bytes
Protection: AACS
BD-Java: Yes
BDInfo: 0.7.3.3

Notes:

BDINFO HOME:
Cinema Squid
http://www.cinemasquid.com/blu-ray/tools/bdinfo

INCLUDES FORUMS REPORT FOR:
AVS Forum Blu-ray Audio and Video Specifications Thread
http://www.avsforum.com/avs-vb/showthread.php?t=1155731

WARNING: Report is incomplete because: Scan has not been run.

********************
PLAYLIST: 00000.MPLS
********************

<–- BEGIN FORUMS PASTE –->
                                                                                                                Total   Video                                             
Title                                                           Codec   Length  Movie Size      Disc Size       Bitrate Bitrate Main Audio Track                          Secondary Audio Track
-----                                                           ------  ------- --------------  --------------  ------- ------- ------------------                        ---------------------
00000.MPLS                                                      AVC     2:44:23 0               45 408 767 746  0,00    0,00    LPCM 2.0 2304Kbps (48kHz/24-bit)          DTS-HD Master 5.1 (48kHz/24-bit)


DISC INFO:

Disc Title:     The Eagles - Farewell 1 Tour -
Disc Size:      45 408 767 746 bytes
Protection:     AACS
BD-Java:        Yes
BDInfo:         0.7.3.3

PLAYLIST REPORT:

Name:                   00000.MPLS
Length:                 2:44:23.253 (h:m:s.ms)
Size:                   0 bytes
Total Bitrate:          0,00 Mbps

VIDEO:

Codec                   Bitrate             Description     
-----                   -------             -----------     
MPEG-4 AVC Video        0 kbps              1080i / 29,970 fps / 16:9 / High Profile 4.1

AUDIO:

Codec                           Language        Bitrate         Description     
-----                           --------        -------         -----------     
LPCM Audio                      English         2304 kbps       2.0 / 48 kHz / 2304 kbps / 24-bit
DTS-HD Master Audio             English         0 kbps          5.1 / 48 kHz / 24-bit (DTS Core: 5.1 / 48 kHz / 1509 kbps / 24-bit)

FILES:

Name            Time In         Length          Size            Total Bitrate   
----            -------         ------          ----            -------------   
00000.M2TS      0:00:00.000     2:44:23.253     0               0               

CHAPTERS:

Number          Time In         Length          Avg Video Rate  Max 1-Sec Rate  Max 1-Sec Time  Max 5-Sec Rate  Max 5-Sec Time  Max 10Sec Rate  Max 10Sec Time  Avg Frame Size  Max Frame Size  Max Frame Time  
------          -------         ------          --------------  --------------  --------------  --------------  --------------  --------------  --------------  --------------  --------------  --------------  
1               0:00:00.000     2:44:23.253     0 kbps          0 kbps          00:00:00.000    0 kbps          00:00:00.000    0 kbps          00:00:00.000    0 bytes         0 bytes         00:00:00.000    

STREAM DIAGNOSTICS:

File            PID             Type            Codec           Language                Seconds                 Bitrate                 Bytes           Packets         
----            ---             ----            -----           --------                --------------          --------------          -------------   -----           
00000.M2TS      4113 (0x1011)   0x1B            AVC                                     0,701                   0                       0               0               
00000.M2TS      4352 (0x1100)   0x80            LPCM            eng (English)           0,701                   0                       0               0               
00000.M2TS      4353 (0x1101)   0x86            DTS-HD MA       eng (English)           0,701                   0                       0               0               

<–– END FORUMS PASTE ––>

QUICK SUMMARY:

Disc Title: The Eagles - Farewell 1 Tour -
Disc Size: 45 408 767 746 bytes
Protection: AACS
BD-Java: Yes
Playlist: 00000.MPLS
Size: 0 bytes
Length: 2:44:23.253
Total Bitrate: 0,00 Mbps
Video: MPEG-4 AVC Video / 0 kbps / 1080i / 29,970 fps / 16:9 / High Profile 4.1
Audio: English / LPCM Audio / 2.0 / 48 kHz / 2304 kbps / 24-bit
Audio: English / DTS-HD Master Audio / 5.1 / 48 kHz / 24-bit (DTS Core: 5.1 / 48 kHz / 1509 kbps / 24-bit)


********************
PLAYLIST: 01000.MPLS
********************

<–- BEGIN FORUMS PASTE –->
                                                                                                                Total   Video                                             
Title                                                           Codec   Length  Movie Size      Disc Size       Bitrate Bitrate Main Audio Track                          Secondary Audio Track
-----                                                           ------  ------- --------------  --------------  ------- ------- ------------------                        ---------------------
01000.MPLS                                                      AVC     2:44:23 0               45 408 767 746  0,00    0,00    LPCM 2.0 2304Kbps (48kHz/24-bit)          DTS-HD Master 5.1 (48kHz/24-bit)


DISC INFO:

Disc Title:     The Eagles - Farewell 1 Tour -
Disc Size:      45 408 767 746 bytes
Protection:     AACS
BD-Java:        Yes
BDInfo:         0.7.3.3

PLAYLIST REPORT:

Name:                   01000.MPLS
Length:                 2:44:23.253 (h:m:s.ms)
Size:                   0 bytes
Total Bitrate:          0,00 Mbps

VIDEO:

Codec                   Bitrate             Description     
-----                   -------             -----------     
MPEG-4 AVC Video        0 kbps              1080i / 29,970 fps / 16:9 / High Profile 4.1

AUDIO:

Codec                           Language        Bitrate         Description     
-----                           --------        -------         -----------     
LPCM Audio                      English         2304 kbps       2.0 / 48 kHz / 2304 kbps / 24-bit
DTS-HD Master Audio             English         0 kbps          5.1 / 48 kHz / 24-bit (DTS Core: 5.1 / 48 kHz / 1509 kbps / 24-bit)

FILES:

Name            Time In         Length          Size            Total Bitrate   
----            -------         ------          ----            -------------   
00000.M2TS      0:00:00.000     2:44:23.253     0               0               

CHAPTERS:

Number          Time In         Length          Avg Video Rate  Max 1-Sec Rate  Max 1-Sec Time  Max 5-Sec Rate  Max 5-Sec Time  Max 10Sec Rate  Max 10Sec Time  Avg Frame Size  Max Frame Size  Max Frame Time  
------          -------         ------          --------------  --------------  --------------  --------------  --------------  --------------  --------------  --------------  --------------  --------------  
1               0:00:00.000     0:01:35.361     0 kbps          0 kbps          00:00:00.000    0 kbps          00:00:00.000    0 kbps          00:00:00.000    0 bytes         0 bytes         00:00:00.000    
2               0:01:35.361     0:04:51.357     0 kbps          0 kbps          00:00:00.000    0 kbps          00:00:00.000    0 kbps          00:00:00.000    0 bytes         0 bytes         00:00:00.000    
3               0:06:26.719     0:05:02.669     0 kbps          0 kbps          00:00:00.000    0 kbps          00:00:00.000    0 kbps          00:00:00.000    0 bytes         0 bytes         00:00:00.000    
4               0:11:29.388     0:06:12.105     0 kbps          0 kbps          00:00:00.000    0 kbps          00:00:00.000    0 kbps          00:00:00.000    0 bytes         0 bytes         00:00:00.000    
5               0:17:41.493     0:04:24.530     0 kbps          0 kbps          00:00:00.000    0 kbps          00:00:00.000    0 kbps          00:00:00.000    0 bytes         0 bytes         00:00:00.000    
6               0:22:06.024     0:04:59.799     0 kbps          0 kbps          00:00:00.000    0 kbps          00:00:00.000    0 kbps          00:00:00.000    0 bytes         0 bytes         00:00:00.000    
7               0:27:05.824     0:04:53.660     0 kbps          0 kbps          00:00:00.000    0 kbps          00:00:00.000    0 kbps          00:00:00.000    0 bytes         0 bytes         00:00:00.000    
8               0:31:59.484     0:04:20.360     0 kbps          0 kbps          00:00:00.000    0 kbps          00:00:00.000    0 kbps          00:00:00.000    0 bytes         0 bytes         00:00:00.000    
9               0:36:19.844     0:06:29.188     0 kbps          0 kbps          00:00:00.000    0 kbps          00:00:00.000    0 kbps          00:00:00.000    0 bytes         0 bytes         00:00:00.000    
10              0:42:49.033     0:05:05.638     0 kbps          0 kbps          00:00:00.000    0 kbps          00:00:00.000    0 kbps          00:00:00.000    0 bytes         0 bytes         00:00:00.000    
11              0:47:54.671     0:04:31.404     0 kbps          0 kbps          00:00:00.000    0 kbps          00:00:00.000    0 kbps          00:00:00.000    0 bytes         0 bytes         00:00:00.000    
12              0:52:26.076     0:04:35.041     0 kbps          0 kbps          00:00:00.000    0 kbps          00:00:00.000    0 kbps          00:00:00.000    0 bytes         0 bytes         00:00:00.000    
13              0:57:01.117     0:00:36.102     0 kbps          0 kbps          00:00:00.000    0 kbps          00:00:00.000    0 kbps          00:00:00.000    0 bytes         0 bytes         00:00:00.000    
14              0:57:37.220     0:03:30.510     0 kbps          0 kbps          00:00:00.000    0 kbps          00:00:00.000    0 kbps          00:00:00.000    0 bytes         0 bytes         00:00:00.000    
15              1:01:07.730     0:04:36.909     0 kbps          0 kbps          00:00:00.000    0 kbps          00:00:00.000    0 kbps          00:00:00.000    0 bytes         0 bytes         00:00:00.000    
16              1:05:44.640     0:05:00.166     0 kbps          0 kbps          00:00:00.000    0 kbps          00:00:00.000    0 kbps          00:00:00.000    0 bytes         0 bytes         00:00:00.000    
17              1:10:44.807     0:04:32.238     0 kbps          0 kbps          00:00:00.000    0 kbps          00:00:00.000    0 kbps          00:00:00.000    0 bytes         0 bytes         00:00:00.000    
18              1:15:17.045     0:04:00.206     0 kbps          0 kbps          00:00:00.000    0 kbps          00:00:00.000    0 kbps          00:00:00.000    0 bytes         0 bytes         00:00:00.000    
19              1:19:17.252     0:07:21.908     0 kbps          0 kbps          00:00:00.000    0 kbps          00:00:00.000    0 kbps          00:00:00.000    0 bytes         0 bytes         00:00:00.000    
20              1:26:39.160     0:03:55.868     0 kbps          0 kbps          00:00:00.000    0 kbps          00:00:00.000    0 kbps          00:00:00.000    0 bytes         0 bytes         00:00:00.000    
21              1:30:35.029     0:08:33.913     0 kbps          0 kbps          00:00:00.000    0 kbps          00:00:00.000    0 kbps          00:00:00.000    0 bytes         0 bytes         00:00:00.000    
22              1:39:08.943     0:00:22.489     0 kbps          0 kbps          00:00:00.000    0 kbps          00:00:00.000    0 kbps          00:00:00.000    0 bytes         0 bytes         00:00:00.000    
23              1:39:31.432     0:07:47.834     0 kbps          0 kbps          00:00:00.000    0 kbps          00:00:00.000    0 kbps          00:00:00.000    0 bytes         0 bytes         00:00:00.000    
24              1:47:19.266     0:06:17.043     0 kbps          0 kbps          00:00:00.000    0 kbps          00:00:00.000    0 kbps          00:00:00.000    0 bytes         0 bytes         00:00:00.000    
25              1:53:36.309     0:05:13.713     0 kbps          0 kbps          00:00:00.000    0 kbps          00:00:00.000    0 kbps          00:00:00.000    0 bytes         0 bytes         00:00:00.000    
26              1:58:50.022     0:05:07.273     0 kbps          0 kbps          00:00:00.000    0 kbps          00:00:00.000    0 kbps          00:00:00.000    0 bytes         0 bytes         00:00:00.000    
27              2:03:57.296     0:06:26.419     0 kbps          0 kbps          00:00:00.000    0 kbps          00:00:00.000    0 kbps          00:00:00.000    0 bytes         0 bytes         00:00:00.000    
28              2:10:23.715     0:09:00.940     0 kbps          0 kbps          00:00:00.000    0 kbps          00:00:00.000    0 kbps          00:00:00.000    0 bytes         0 bytes         00:00:00.000    
29              2:19:24.656     0:05:51.284     0 kbps          0 kbps          00:00:00.000    0 kbps          00:00:00.000    0 kbps          00:00:00.000    0 bytes         0 bytes         00:00:00.000    
30              2:25:15.940     0:06:26.152     0 kbps          0 kbps          00:00:00.000    0 kbps          00:00:00.000    0 kbps          00:00:00.000    0 bytes         0 bytes         00:00:00.000    
31              2:31:42.093     0:03:50.597     0 kbps          0 kbps          00:00:00.000    0 kbps          00:00:00.000    0 kbps          00:00:00.000    0 bytes         0 bytes         00:00:00.000    
32              2:35:32.690     0:04:32.705     0 kbps          0 kbps          00:00:00.000    0 kbps          00:00:00.000    0 kbps          00:00:00.000    0 bytes         0 bytes         00:00:00.000    
33              2:40:05.395     0:04:16.789     0 kbps          0 kbps          00:00:00.000    0 kbps          00:00:00.000    0 kbps          00:00:00.000    0 bytes         0 bytes         00:00:00.000    
34              2:44:22.185     0:00:01.067     0 kbps          0 kbps          00:00:00.000    0 kbps          00:00:00.000    0 kbps          00:00:00.000    0 bytes         0 bytes         00:00:00.000    

STREAM DIAGNOSTICS:

File            PID             Type            Codec           Language                Seconds                 Bitrate                 Bytes           Packets         
----            ---             ----            -----           --------                --------------          --------------          -------------   -----           
00000.M2TS      4113 (0x1011)   0x1B            AVC                                     0,701                   0                       0               0               
00000.M2TS      4352 (0x1100)   0x80            LPCM            eng (English)           0,701                   0                       0               0               
00000.M2TS      4353 (0x1101)   0x86            DTS-HD MA       eng (English)           0,701                   0                       0               0               

<–– END FORUMS PASTE ––>

QUICK SUMMARY:

Disc Title: The Eagles - Farewell 1 Tour -
Disc Size: 45 408 767 746 bytes
Protection: AACS
BD-Java: Yes
Playlist: 01000.MPLS
Size: 0 bytes
Length: 2:44:23.253
Total Bitrate: 0,00 Mbps
Video: MPEG-4 AVC Video / 0 kbps / 1080i / 29,970 fps / 16:9 / High Profile 4.1
Audio: English / LPCM Audio / 2.0 / 48 kHz / 2304 kbps / 24-bit
Audio: English / DTS-HD Master Audio / 5.1 / 48 kHz / 24-bit (DTS Core: 5.1 / 48 kHz / 1509 kbps / 24-bit)


********************
PLAYLIST: 01001.MPLS
********************

<–- BEGIN FORUMS PASTE –->
                                                                                                                Total   Video                                             
Title                                                           Codec   Length  Movie Size      Disc Size       Bitrate Bitrate Main Audio Track                          Secondary Audio Track
-----                                                           ------  ------- --------------  --------------  ------- ------- ------------------                        ---------------------
01001.MPLS                                                      AVC     2:44:23 0               45 408 767 746  0,00    0,00    LPCM 2.0 2304Kbps (48kHz/24-bit)          DTS-HD Master 5.1 (48kHz/24-bit)


DISC INFO:

Disc Title:     The Eagles - Farewell 1 Tour -
Disc Size:      45 408 767 746 bytes
Protection:     AACS
BD-Java:        Yes
BDInfo:         0.7.3.3

PLAYLIST REPORT:

Name:                   01001.MPLS
Length:                 2:44:23.253 (h:m:s.ms)
Size:                   0 bytes
Total Bitrate:          0,00 Mbps

VIDEO:

Codec                   Bitrate             Description     
-----                   -------             -----------     
MPEG-4 AVC Video        0 kbps              1080i / 29,970 fps / 16:9 / High Profile 4.1

AUDIO:

Codec                           Language        Bitrate         Description     
-----                           --------        -------         -----------     
LPCM Audio                      English         2304 kbps       2.0 / 48 kHz / 2304 kbps / 24-bit
DTS-HD Master Audio             English         0 kbps          5.1 / 48 kHz / 24-bit (DTS Core: 5.1 / 48 kHz / 1509 kbps / 24-bit)

FILES:

Name            Time In         Length          Size            Total Bitrate   
----            -------         ------          ----            -------------   
00000.M2TS      0:00:00.000     2:44:23.253     0               0               

CHAPTERS:

Number          Time In         Length          Avg Video Rate  Max 1-Sec Rate  Max 1-Sec Time  Max 5-Sec Rate  Max 5-Sec Time  Max 10Sec Rate  Max 10Sec Time  Avg Frame Size  Max Frame Size  Max Frame Time  
------          -------         ------          --------------  --------------  --------------  --------------  --------------  --------------  --------------  --------------  --------------  --------------  
1               0:00:00.000     0:01:35.361     0 kbps          0 kbps          00:00:00.000    0 kbps          00:00:00.000    0 kbps          00:00:00.000    0 bytes         0 bytes         00:00:00.000    
2               0:01:35.361     0:04:51.357     0 kbps          0 kbps          00:00:00.000    0 kbps          00:00:00.000    0 kbps          00:00:00.000    0 bytes         0 bytes         00:00:00.000    
3               0:06:26.719     0:05:02.669     0 kbps          0 kbps          00:00:00.000    0 kbps          00:00:00.000    0 kbps          00:00:00.000    0 bytes         0 bytes         			  		  		  	 			   			     		      	 			   		 		   		      	 			   		  	   		 	    			   			 00:00:00.000    
4               0:11:29.388     0:06:12.105     0 kbps          0 kbps          00:00:00.000    0 kbps          00:00:00.000    0 kbps          00:00:00.000    0 bytes         0 bytes         00:00:00.000    
5               0:17:41.493     0:04:24.530     0 kbps          0 kbps          00:00:00.000    0 kbps          00:00:00.000    0 kbps          00:00:00.000    0 bytes         0 bytes         00:00:00.000    
6               0:22:06.024     0:04:59.799     0 kbps          0 kbps          00:00:00.000    0 kbps          00:00:00.000    0 kbps          00:00:00.000    0 bytes         0 bytes         00:00:00.000    
7               0:27:05.824     0:04:53.660     0 kbps          0 kbps          00:00:00.000    0 kbps          00:00:00.000    0 kbps          00:00:00.000    0 bytes         0 bytes         00:00:00.000    
8               0:31:59.484     0:04:20.360     0 kbps          0 kbps          00:00:00.000    0 kbps          00:00:00.000    0 kbps          00:00:00.000    0 bytes         0 bytes         00:00:00.000    
9               0:36:19.844     0:06:29.188     0 kbps          0 kbps          00:00:00.000    0 kbps          00:00:00.000    0 kbps          00:00:00.000    0 bytes         0 bytes         00:00:00.000    
10              0:42:49.033     0:05:05.638     0 kbps          0 kbps          00:00:00.000    0 kbps          00:00:00.000    0 kbps          00:00:00.000    0 bytes         0 bytes         00:00:00.000    
11              0:47:54.671     0:04:31.404     0 kbps          0 kbps          00:00:00.000    0 kbps          00:00:00.000    0 kbps          00:00:00.000    0 bytes         0 bytes         00:00:00.000    
12              0:52:26.076     0:04:35.041     0 kbps          0 kbps          00:00:00.000    0 kbps          00:00:00.000    0 kbps          00:00:00.000    0 bytes         0 bytes         00:00:00.000    
13              0:57:01.117     0:00:36.102     0 kbps          0 kbps          00:00:00.000    0 kbps          00:00:00.000    0 kbps          00:00:00.000    0 bytes         0 bytes         00:00:00.000    
14              0:57:37.220     0:03:30.510     0 kbps          0 kbps          00:00:00.000    0 kbps          00:00:00.000    0 kbps          00:00:00.000    0 bytes         0 bytes         00:00:00.000    
15              1:01:07.730     0:04:36.909     0 kbps          0 kbps          00:00:00.000    0 kbps          00:00:00.000    0 kbps          00:00:00.000    0 bytes         0 bytes         00:00:00.000    
16              1:05:44.640     0:05:00.166     0 kbps          0 kbps          00:00:00.000    0 kbps          00:00:00.000    0 kbps          00:00:00.000    0 bytes         0 bytes         00:00:00.000    
17              1:10:44.807     0:04:32.238     0 kbps          0 kbps          00:00:00.000    0 kbps          00:00:00.000    0 kbps          00:00:00.000    0 bytes         0 bytes         00:00:00.000    
18              1:15:17.045     0:04:00.206     0 kbps          0 kbps          00:00:00.000    0 kbps          00:00:00.000    0 kbps          00:00:00.000    0 bytes         0 bytes         00:00:00.000    
19              1:19:17.252     0:07:21.908     0 kbps          0 kbps          00:00:00.000    0 kbps          00:00:00.000    0 kbps          00:00:00.000    0 bytes         0 bytes         00:00:00.000    
20              1:26:39.160     0:03:55.868     0 kbps          0 kbps          00:00:00.000    0 kbps          00:00:00.000    0 kbps          00:00:00.000    0 bytes         0 bytes         00:00:00.000    
21              1:30:35.029     0:08:33.913     0 kbps          0 kbps          00:00:00.000    0 kbps          00:00:00.000    0 kbps          00:00:00.000    0 bytes         0 bytes         00:00:00.000    
22              1:39:08.943     0:00:22.489     0 kbps          0 kbps          00:00:00.000    0 kbps          00:00:00.000    0 kbps          00:00:00.000    0 bytes         0 bytes         00:00:00.000    
23              1:39:31.432     0:07:47.834     0 kbps          0 kbps          00:00:00.000    0 kbps          00:00:00.000    0 kbps          00:00:00.000    0 bytes         0 bytes         00:00:00.000    
24              1:47:19.266     0:06:17.043     0 kbps          0 kbps          00:00:00.000    0 kbps          00:00:00.000    0 kbps          00:00:00.000    0 bytes         0 bytes         00:00:00.000    
25              1:53:36.309     0:05:13.713     0 kbps          0 kbps          00:00:00.000    0 kbps          00:00:00.000    0 kbps          00:00:00.000    0 bytes         0 bytes         00:00:00.000    
26              1:58:50.022     0:05:07.273     0 kbps          0 kbps          00:00:00.000    0 kbps          00:00:00.000    0 kbps          00:00:00.000    0 bytes         0 bytes         00:00:00.000    
27              2:03:57.296     0:06:26.419     0 kbps          0 kbps          00:00:00.000    0 kbps          00:00:00.000    0 kbps          00:00:00.000    0 bytes         0 bytes         00:00:00.000    
28              2:10:23.715     0:09:00.940     0 kbps          0 kbps          00:00:00.000    0 kbps          00:00:00.000    0 kbps          00:00:00.000    0 bytes         0 bytes         00:00:00.000    
29              2:19:24.656     0:05:51.284     0 kbps          0 kbps          00:00:00.000    0 kbps          00:00:00.000    0 kbps          00:00:00.000    0 bytes         0 bytes         00:00:00.000    
30              2:25:15.940     0:06:26.152     0 kbps          0 kbps          00:00:00.000    0 kbps          00:00:00.000    0 kbps          00:00:00.000    0 bytes         0 bytes         00:00:00.000    
31              2:31:42.093     0:03:50.597     0 kbps          0 kbps          00:00:00.000    0 kbps          00:00:00.000    0 kbps          00:00:00.000    0 bytes         0 bytes         00:00:00.000    
32              2:35:32.690     0:04:32.705     0 kbps          0 kbps          00:00:00.000    0 kbps          00:00:00.000    0 kbps          00:00:00.000    0 bytes         0 bytes         00:00:00.000    
33              2:40:05.395     0:04:16.789     0 kbps          0 kbps          00:00:00.000    0 kbps          00:00:00.000    0 kbps          00:00:00.000    0 bytes         0 bytes         00:00:00.000    
34              2:44:22.185     0:00:01.067     0 kbps          0 kbps          00:00:00.000    0 kbps          00:00:00.000    0 kbps          00:00:00.000    0 bytes         0 bytes         00:00:00.000    

STREAM DIAGNOSTICS:

File            PID             Type            Codec           Language                Seconds                 Bitrate                 Bytes           Packets         
----            ---             ----            -----           --------                --------------          --------------          -------------   -----           
00000.M2TS      4113 (0x1011)   0x1B            AVC                                     0,701                   0                       0               0               
00000.M2TS      4352 (0x1100)   0x80            LPCM            eng (English)           0,701                   0                       0               0               
00000.M2TS      4353 (0x1101)   0x86            DTS-HD MA       eng (English)           0,701                   0                       0               0               

<–– END FORUMS PASTE ––>

QUICK SUMMARY:

Disc Title: The Eagles - Farewell 1 Tour -
Disc Size: 45 408 767 746 bytes
Protection: AACS
BD-Java: Yes
Playlist: 01001.MPLS
Size: 0 bytes
Length: 2:44:23.253
Total Bitrate: 0,00 Mbps
Video: MPEG-4 AVC Video / 0 kbps / 1080i / 29,970 fps / 16:9 / High Profile 4.1
Audio: English / LPCM Audio / 2.0 / 48 kHz / 2304 kbps / 24-bit
Audio: English / DTS-HD Master Audio / 5.1 / 48 kHz / 24-bit (DTS Core: 5.1 / 48 kHz / 1509 kbps / 24-bit)


********************
PLAYLIST: 00001.MPLS
********************

<–- BEGIN FORUMS PASTE –->
                                                                                                                Total   Video                                             
Title                                                           Codec   Length  Movie Size      Disc Size       Bitrate Bitrate Main Audio Track                          Secondary Audio Track
-----                                                           ------  ------- --------------  --------------  ------- ------- ------------------                        ---------------------
00001.MPLS                                                      AVC     0:11:14 0               45 408 767 746  0,00    0,00    LPCM 2.0 2304Kbps (48kHz/24-bit)          DTS-HD Master 5.1 (48kHz/24-bit)


DISC INFO:

Disc Title:     The Eagles - Farewell 1 Tour -
Disc Size:      45 408 767 746 bytes
Protection:     AACS
BD-Java:        Yes
BDInfo:         0.7.3.3

PLAYLIST REPORT:

Name:                   00001.MPLS
Length:                 0:11:14.073 (h:m:s.ms)
Size:                   0 bytes
Total Bitrate:          0,00 Mbps

VIDEO:

Codec                   Bitrate             Description     
-----                   -------             -----------     
MPEG-4 AVC Video        0 kbps              1080i / 29,970 fps / 16:9 / High Profile 4.1

AUDIO:

Codec                           Language        Bitrate         Description     
-----                           --------        -------         -----------     
LPCM Audio                      English         2304 kbps       2.0 / 48 kHz / 2304 kbps / 24-bit
DTS-HD Master Audio             English         0 kbps          5.1 / 48 kHz / 24-bit (DTS Core: 5.1 / 48 kHz / 1509 kbps / 24-bit)

FILES:

Name            Time In         Length          Size            Total Bitrate   
----            -------         ------          ----            -------------   
00001.M2TS      0:00:00.000     0:11:14.073     0               0               

CHAPTERS:

Number          Time In         Length          Avg Video Rate  Max 1-Sec Rate  Max 1-Sec Time  Max 5-Sec Rate  Max 5-Sec Time  Max 10Sec Rate  Max 10Sec Time  Avg Frame Size  Max Frame Size  Max Frame Time  
------          -------         ------          --------------  --------------  --------------  --------------  --------------  --------------  --------------  --------------  --------------  --------------  
1               0:00:00.000     0:11:14.073     0 kbps          0 kbps          00:00:00.000    0 kbps          00:00:00.000    0 kbps          00:00:00.000    0 bytes         0 bytes         00:00:00.000    

STREAM DIAGNOSTICS:

File            PID             Type            Codec           Language                Seconds                 Bitrate                 Bytes           Packets         
----            ---             ----            -----           --------                --------------          --------------          -------------   -----           
00001.M2TS      4113 (0x1011)   0x1B            AVC                                     0,701                   0                       0               0               
00001.M2TS      4352 (0x1100)   0x80            LPCM            eng (English)           0,701                   0                       0               0               
00001.M2TS      4353 (0x1101)   0x86            DTS-HD MA       eng (English)           0,701                   0                       0               0               

<–– END FORUMS PASTE ––>

QUICK SUMMARY:

Disc Title: The Eagles - Farewell 1 Tour -
Disc Size: 45 408 767 746 bytes
Protection: AACS
BD-Java: Yes
Playlist: 00001.MPLS
Size: 0 bytes
Length: 0:11:14.073
Total Bitrate: 0,00 Mbps
Video: MPEG-4 AVC Video / 0 kbps / 1080i / 29,970 fps / 16:9 / High Profile 4.1
Audio: English / LPCM Audio / 2.0 / 48 kHz / 2304 kbps / 24-bit
Audio: English / DTS-HD Master Audio / 5.1 / 48 kHz / 24-bit (DTS Core: 5.1 / 48 kHz / 1509 kbps / 24-bit)


********************
PLAYLIST: 01002.MPLS
********************

<–- BEGIN FORUMS PASTE –->
                                                                                                                Total   Video                                             
Title                                                           Codec   Length  Movie Size      Disc Size       Bitrate Bitrate Main Audio Track                          Secondary Audio Track
-----                                                           ------  ------- --------------  --------------  ------- ------- ------------------                        ---------------------
01002.MPLS                                                      AVC     0:11:14 0               45 408 767 746  0,00    0,00    LPCM 2.0 2304Kbps (48kHz/24-bit)          DTS-HD Master 5.1 (48kHz/24-bit)


DISC INFO:

Disc Title:     The Eagles - Farewell 1 Tour -
Disc Size:      45 408 767 746 bytes
Protection:     AACS
BD-Java:        Yes
BDInfo:         0.7.3.3

PLAYLIST REPORT:

Name:                   01002.MPLS
Length:                 0:11:14.073 (h:m:s.ms)
Size:                   0 bytes
Total Bitrate:          0,00 Mbps

VIDEO:

Codec                   Bitrate             Description     
-----                   -------             -----------     
MPEG-4 AVC Video        0 kbps              1080i / 29,970 fps / 16:9 / High Profile 4.1

AUDIO:

Codec                           Language        Bitrate         Description     
-----                           --------        -------         -----------     
LPCM Audio                      English         2304 kbps       2.0 / 48 kHz / 2304 kbps / 24-bit
DTS-HD Master Audio             English         0 kbps          5.1 / 48 kHz / 24-bit (DTS Core: 5.1 / 48 kHz / 1509 kbps / 24-bit)

FILES:

Name            Time In         Length          Size            Total Bitrate   
----            -------         ------          ----            -------------   
00001.M2TS      0:00:00.000     0:11:14.073     0               0               

CHAPTERS:

Number          Time In         Length          Avg Video Rate  Max 1-Sec Rate  Max 1-Sec Time  Max 5-Sec Rate  Max 5-Sec Time  Max 10Sec Rate  Max 10Sec Time  Avg Frame Size  Max Frame Size  Max Frame Time  
------          -------         ------          --------------  --------------  --------------  --------------  --------------  --------------  --------------  --------------  --------------  --------------  
1               0:00:00.000     0:11:13.005     0 kbps          0 kbps          00:00:00.000    0 kbps          00:00:00.000    0 kbps          00:00:00.000    0 bytes         0 bytes         00:00:00.000    
2               0:11:13.005     0:00:01.067     0 kbps          0 kbps          00:00:00.000    0 kbps          00:00:00.000    0 kbps          00:00:00.000    0 bytes         0 bytes         00:00:00.000    

STREAM DIAGNOSTICS:

File            PID             Type            Codec           Language                Seconds                 Bitrate                 Bytes           Packets         
----            ---             ----            -----           --------                --------------          --------------          -------------   -----           
00001.M2TS      4113 (0x1011)   0x1B            AVC                                     0,701                   0                       0               0               
00001.M2TS      4352 (0x1100)   0x80            LPCM            eng (English)           0,701                   0                       0               0               
00001.M2TS      4353 (0x1101)   0x86            DTS-HD MA       eng (English)           0,701                   0                       0               0               

<–– END FORUMS PASTE ––>

QUICK SUMMARY:

Disc Title: The Eagles - Farewell 1 Tour -
Disc Size: 45 408 767 746 bytes
Protection: AACS
BD-Java: Yes
Playlist: 01002.MPLS
Size: 0 bytes
Length: 0:11:14.073
Total Bitrate: 0,00 Mbps
Video: MPEG-4 AVC Video / 0 kbps / 1080i / 29,970 fps / 16:9 / High Profile 4.1
Audio: English / LPCM Audio / 2.0 / 48 kHz / 2304 kbps / 24-bit
Audio: English / DTS-HD Master Audio / 5.1 / 48 kHz / 24-bit (DTS Core: 5.1 / 48 kHz / 1509 kbps / 24-bit)


********************
PLAYLIST: 00002.MPLS
********************

<–- BEGIN FORUMS PASTE –->
                                                                                                                Total   Video                                             
Title                                                           Codec   Length  Movie Size      Disc Size       Bitrate Bitrate Main Audio Track                          Secondary Audio Track
-----                                                           ------  ------- --------------  --------------  ------- ------- ------------------                        ---------------------
00002.MPLS                                                      AVC     0:01:10 0               45 408 767 746  0,00    0,00    LPCM 2.0 2304Kbps (48kHz/24-bit)          LPCM 2.0 2304Kbps (48kHz/24-bit)


DISC INFO:

Disc Title:     The Eagles - Farewell 1 Tour -
Disc Size:      45 408 767 746 bytes
Protection:     AACS
BD-Java:        Yes
BDInfo:         0.7.3.3

PLAYLIST REPORT:

Name:                   00002.MPLS
Length:                 0:01:10.837 (h:m:s.ms)
Size:                   0 bytes
Total Bitrate:          0,00 Mbps

VIDEO:

Codec                   Bitrate             Description     
-----                   -------             -----------     
MPEG-4 AVC Video        0 kbps              1080i / 29,970 fps / 16:9 / High Profile 4.1

AUDIO:

Codec                           Language        Bitrate         Description     
-----                           --------        -------         -----------     
LPCM Audio                      English         2304 kbps       2.0 / 48 kHz / 2304 kbps / 24-bit
LPCM Audio                      English         2304 kbps       2.0 / 48 kHz / 2304 kbps / 24-bit

FILES:

Name            Time In         Length          Size            Total Bitrate   
----            -------         ------          ----            -------------   
00002.M2TS      0:00:00.000     0:01:10.837     0               0               

CHAPTERS:

Number          Time In         Length          Avg Video Rate  Max 1-Sec Rate  Max 1-Sec Time  Max 5-Sec Rate  Max 5-Sec Time  Max 10Sec Rate  Max 10Sec Time  Avg Frame Size  Max Frame Size  Max Frame Time  
------          -------         ------          --------------  --------------  --------------  --------------  --------------  --------------  --------------  --------------  --------------  --------------  
1               0:00:00.000     0:01:10.837     0 kbps          0 kbps          00:00:00.000    0 kbps          00:00:00.000    0 kbps          00:00:00.000    0 bytes         0 bytes         00:00:00.000    

STREAM DIAGNOSTICS:

File            PID             Type            Codec           Language                Seconds                 Bitrate                 Bytes           Packets         
----            ---             ----            -----           --------                --------------          --------------          -------------   -----           
00002.M2TS      4113 (0x1011)   0x1B            AVC                                     0,501                   0                       0               0               
00002.M2TS      4352 (0x1100)   0x80            LPCM            eng (English)           0,501                   0                       0               0               
00002.M2TS      4353 (0x1101)   0x80            LPCM            eng (English)           0,501                   0                       0               0               

<–– END FORUMS PASTE ––>

QUICK SUMMARY:

Disc Title: The Eagles - Farewell 1 Tour -
Disc Size: 45 408 767 746 bytes
Protection: AACS
BD-Java: Yes
Playlist: 00002.MPLS
Size: 0 bytes
Length: 0:01:10.837
Total Bitrate: 0,00 Mbps
Video: MPEG-4 AVC Video / 0 kbps / 1080i / 29,970 fps / 16:9 / High Profile 4.1
Audio: English / LPCM Audio / 2.0 / 48 kHz / 2304 kbps / 24-bit
Audio: English / LPCM Audio / 2.0 / 48 kHz / 2304 kbps / 24-bit


********************
PLAYLIST: 01003.MPLS
********************

<–- BEGIN FORUMS PASTE –->
                                                                                                                Total   Video                                             
Title                                                           Codec   Length  Movie Size      Disc Size       Bitrate Bitrate Main Audio Track                          Secondary Audio Track
-----                                                           ------  ------- --------------  --------------  ------- ------- ------------------                        ---------------------
01003.MPLS                                                      AVC     0:01:10 0               45 408 767 746  0,00    0,00    LPCM 2.0 2304Kbps (48kHz/24-bit)          LPCM 2.0 2304Kbps (48kHz/24-bit)


DISC INFO:

Disc Title:     The Eagles - Farewell 1 Tour -
Disc Size:      45 408 767 746 bytes
Protection:     AACS
BD-Java:        Yes
BDInfo:         0.7.3.3

PLAYLIST REPORT:

Name:                   01003.MPLS
Length:                 0:01:10.837 (h:m:s.ms)
Size:                   0 bytes
Total Bitrate:          0,00 Mbps

VIDEO:

Codec                   Bitrate             Description     
-----                   -------             -----------     
MPEG-4 AVC Video        0 kbps              1080i / 29,970 fps / 16:9 / High Profile 4.1

AUDIO:

Codec                           Language        Bitrate         Description     
-----                           --------        -------         -----------     
LPCM Audio                      English         2304 kbps       2.0 / 48 kHz / 2304 kbps / 24-bit
LPCM Audio                      English         2304 kbps       2.0 / 48 kHz / 2304 kbps / 24-bit

FILES:

Name            Time In         Length          Size            Total Bitrate   
----            -------         ------          ----            -------------   
00002.M2TS      0:00:00.000     0:01:10.837     0               0               

CHAPTERS:

Number          Time In         Length          Avg Video Rate  Max 1-Sec Rate  Max 1-Sec Time  Max 5-Sec Rate  Max 5-Sec Time  Max 10Sec Rate  Max 10Sec Time  Avg Frame Size  Max Frame Size  Max Frame Time  
------          -------         ------          --------------  --------------  --------------  --------------  --------------  --------------  --------------  --------------  --------------  --------------  
1               0:00:00.000     0:00:09.476     0 kbps          0 kbps          00:00:00.000    0 kbps          00:00:00.000    0 kbps          00:00:00.000    0 bytes         0 bytes         00:00:00.000    
2               0:00:09.476     0:00:14.114     0 kbps          0 kbps          00:00:00.000    0 kbps          00:00:00.000    0 kbps          00:00:00.000    0 bytes         0 bytes         00:00:00.000    
3               0:00:23.590     0:00:46.179     0 kbps          0 kbps          00:00:00.000    0 kbps          00:00:00.000    0 kbps          00:00:00.000    0 bytes         0 bytes         00:00:00.000    
4               0:01:09.769     0:00:01.067     0 kbps          0 kbps          00:00:00.000    0 kbps          00:00:00.000    0 kbps          00:00:00.000    0 bytes         0 bytes         00:00:00.000    

STREAM DIAGNOSTICS:

File            PID             Type            Codec           Language                Seconds                 Bitrate                 Bytes           Packets         
----            ---             ----            -----           --------                --------------          --------------          -------------   -----           
00002.M2TS      4113 (0x1011)   0x1B            AVC                                     0,501                   0                       0               0               
00002.M2TS      4352 (0x1100)   0x80            LPCM            eng (English)           0,501                   0                       0               0               
00002.M2TS      4353 (0x1101)   0x80            LPCM            eng (English)           0,501                   0                       0               0               

<–– END FORUMS PASTE ––>

QUICK SUMMARY:

Disc Title: The Eagles - Farewell 1 Tour -
Disc Size: 45 408 767 746 bytes
Protection: AACS
BD-Java: Yes
Playlist: 01003.MPLS
Size: 0 bytes
Length: 0:01:10.837
Total Bitrate: 0,00 Mbps
Video: MPEG-4 AVC Video / 0 kbps / 1080i / 29,970 fps / 16:9 / High Profile 4.1
Audio: English / LPCM Audio / 2.0 / 48 kHz / 2304 kbps / 24-bit
Audio: English / LPCM Audio / 2.0 / 48 kHz / 2304 kbps / 24-bit



Eagles - Legacy (2018) [14-Disc Box Set]

Eagles - Legacy (2018) [14-Disc Box Set]

Eagles - Legacy (2018) [14-Disc Box Set]

Eagles - Legacy (2018) [14-Disc Box Set]

All thanks go to ALLexxess

Eagles or Eagles in my Blog

Download Eagles - Legacy (2018):