Subcategories

Earth, Wind And Fire Experience feat. Al McKay Allstars - beim SWR Familienfest in Ludwigsburg (2015) [HDTV, 720p]

Posted By: v3122
Earth, Wind And Fire Experience feat. Al McKay Allstars -  beim SWR Familienfest in Ludwigsburg (2015) [HDTV, 720p]

Earth, Wind And Fire Experience feat. Al McKay Allstars -
beim SWR Familienfest in Ludwigsburg (2015)

TS: MPEG4 Video (H264) 1280x720, 50fps | Dolby AC3, stereo, 448kbps
Funk, Jazz, Soul | 00:59:29 | ~ 6.52 Gb

Earth, Wind & Fire (EWF) is an American band that has spanned the musical genres of R&B, soul, funk, jazz, disco, pop, rock, Latin, and African. They were one of the most successful bands of the 1970s. Rolling Stone called them "innovative, precise yet sensual, calculated yet galvanizing" and declared that the band "changed the sound of black pop".

The band was founded in Chicago by Maurice White in 1970, having grown out of a previous band known as the Salty Peppers. Other members have included Philip Bailey, Verdine White, Fred White, Ralph Johnson, Larry Dunn, Al McKay and Andrew Woolfolk. The band has received 20 Grammy nominations; they won six as a group and two of its members, Maurice White and Bailey, won separate individual awards. Earth, Wind & Fire has 12 American Music Awards nominations and four awards. They have been inducted into the Rock and Roll Hall of Fame and the Vocal Group Hall of Fame, received a star on the Hollywood Walk of Fame, and have sold over 90 million records, making them one of the world's best-selling bands of all time.

Five members of Earth, Wind & Fire were also inducted into the Songwriters Hall of Fame: Maurice White, Philip Bailey, Verdine White, Larry Dunn, and Al McKay. The band received Lifetime Achievement awards from the American Society of Composers, Authors and Publishers (Rhythm & Soul Heritage Award – 2002), NAACP (Hall of Fame – 1994), and the BET Awards (Lifetime Achievement Award – 2002).

Earth, Wind & Fire is known for its horn section, energetic and elaborate stage shows, and the contrast between Philip Bailey's falsetto vocals and Maurice White's baritone. In the 1970s and early 1980s, the band's hits "Shining Star", "That's the Way of the World", "Devotion", "Reasons", "Sing a Song", "Can't Hide Love", "Getaway", "Fantasy", "Love's Holiday", "September", "Boogie Wonderland", "After the Love Has Gone", and "Let's Groove". Two songs have been inducted into the Grammy Hall of Fame: "That's the Way of the World" (2004) and "Shining Star" (2007).

Earth, Wind & Fire is the first African-American act to sell out Madison Square Garden and to receive the MSG Gold Ticket Award. President Barack Obama invited Earth, Wind & Fire to perform at the White House.

~ wiki
Earth, Wind And Fire Experience feat. Al McKay Allstars -
beim SWR Familienfest in Ludwigsburg (2015):

Tracklist:

1. Serpentine Fire
02. Got to Get You Into My Life (The Beatles cover)
03. Shining Star
04. Saturday Night
05. In the Stone
06. Jupiter
07. Magic Mind
08. Let Your Feelings Show
09. Sing a Song
10. Boogie Wonderland
11. Let's Groove

General
ID : 1 (0x1)
Complete name : W:\UP\Mix\Earth, Wind And Fire Experience feat. Al McKay\Earth, Wind And Fire Experience feat. Al McKay - beim SWR Familienfest in Ludwigsburg 2015.ts
Format : MPEG-TS
File size : 6.06 GiB
Duration : 59mn 28s
Overall bit rate mode : Variable
Overall bit rate : 14.6 Mbps

Video
ID : 6510 (0x196E)
Menu ID : 1 (0x1)
Format : AVC
Format/Info : Advanced Video Codec
Format profile : High@L4.0
Format settings, CABAC : Yes
Format settings, ReFrames : 6 frames
Codec ID : 27
Duration : 59mn 28s
Bit rate : 13.4 Mbps
Width : 1 280 pixels
Height : 720 pixels
Display aspect ratio : 16:9
Frame rate : 50.000 fps
Color space : YUV
Chroma subsampling : 4:2:0
Bit depth : 8 bits
Scan type : Progressive
Bits/(Pixel*Frame) : 0.291
Stream size : 5.57 GiB (92%)
Color primaries : BT.709
Transfer characteristics : BT.709
Matrix coefficients : BT.709

Audio
ID : 6522 (0x197A)
Menu ID : 1 (0x1)
Format : AC-3
Format/Info : Audio Coding 3
Mode extension : CM (complete main)
Format settings, Endianness : Big
Codec ID : 6
Duration : 59mn 28s
Bit rate mode : Constant
Bit rate : 448 Kbps
Channel(s) : 2 channels
Channel positions : Front: L R
Sampling rate : 48.0 KHz
Bit depth : 16 bits
Compression mode : Lossy
Delay relative to video : -20ms
Stream size : 191 MiB (3%)
Language : German

Text
ID : 6530 (0x1982)-100
Menu ID : 1 (0x1)
Format : Teletext
Language : German

Menu
ID : 256 (0x100)
Menu ID : 1 (0x1)
Duration : 59mn 28s
List : 6510 (0x196E) (AVC) / 6522 (0x197A) (AC-3, German) / 6530 (0x1982) ()
Language : / German



Earth, Wind And Fire Experience feat. Al McKay Allstars -  beim SWR Familienfest in Ludwigsburg (2015) [HDTV, 720p]

Earth, Wind And Fire Experience feat. Al McKay Allstars -  beim SWR Familienfest in Ludwigsburg (2015) [HDTV, 720p]

Earth, Wind And Fire Experience feat. Al McKay Allstars -  beim SWR Familienfest in Ludwigsburg (2015) [HDTV, 720p]

Earth, Wind And Fire Experience feat. Al McKay Allstars -  beim SWR Familienfest in Ludwigsburg (2015) [HDTV, 720p]

Earth, Wind And Fire Experience feat. Al McKay Allstars -  beim SWR Familienfest in Ludwigsburg (2015) [HDTV, 720p]

All thanks go to meloman67

Earth, Wind And Fire or Earth, Wind And Fire in my Blog

Download Earth, Wind And Fire Experience feat. Al McKay Allstars -
beim SWR Familienfest in Ludwigsburg (2015):