Subcategories

Earth And Fire - Memories (Complete Album Collection) [10CD Box Set] (2017)

Posted By: gribovar
Earth And Fire - Memories (Complete Album Collection) [10CD Box Set] (2017)

Earth And Fire - Memories (Complete Album Collection) [10CD Box Set] (2017)
EAC Rip | FLAC (tracks+.cue+log) - 2,66 GB | MP3 CBR 320 kbps (LAME 3.93) - 1 GB | Covers - 206 MB
Genre: Progressive Rock | RAR 3% Rec. | Label: Universal (572 578-2)

A 10 CD box set with all the albums of the legendary Dutch Prog Rock Formation Earth and Fire. The nine albums packed in a monumental box, some albums of which no longer available for years, specifically for this release packed into replicas of the original sleeves. Besides there is an extra bonus CD with non-album singles, special single releases, b-sides and more. The accompanying booklet includes rare photos and clippings from the private archive of singer Jerney Kaagman.

Earth And Fire - Memories (Complete Album Collection) [10CD Box Set] (2017)

CD 1: Earth and Fire - Earth and Fire (1970)
EAC Rip | FLAC (tracks+.cue+log) - 237 MB | MP3 CBR 320 kbps (LAME 3.93) - 94 MB
Genre: Progressive Rock | RAR 3% Rec. | Label: Universal (572 578-3)

Tracklist:
01. (She Is) Wild And Exciting
02. Twilight Dreamer
03. Ruby Is The One
04. You Know The Way
05. Vivid Shady Land
06. 21St Century Show
07. Seasons
08. Love Quiver
09. What’s Your Name

Total time: 40:05

Exact Audio Copy V1.1 from 23. June 2015

EAC extraction logfile from 14. March 2017, 9:29

Earth and Fire / Earth and Fire

Used drive : ATAPI iHBS112 2 Adapter: 2 ID: 0

Read mode : Secure
Utilize accurate stream : Yes
Defeat audio cache : Yes
Make use of C2 pointers : No

Read offset correction : 6
Overread into Lead-In and Lead-Out : No
Fill up missing offset samples with silence : Yes
Delete leading and trailing silent blocks : No
Null samples used in CRC calculations : Yes
Used interface : Installed external ASPI interface
Gap handling : Appended to previous track

Used output format : User Defined Encoder
Selected bitrate : 128 kBit/s
Quality : High
Add ID3 tag : No
Command line compressor : C:\Program Files (x86)\Exact Audio Copy\Flac\flac.exe
Additional command line options : -8 -V -T "ARTIST=%artist%" -T "TITLE=%title%" -T "ALBUM=%albumtitle%" -T "DATE=%year%" -T "TRACKNUMBER=%tracknr%" -T "TOTALTRACKS=%numtracks%" -T "GENRE=%genre%" -T "ALBUMARTIST=%albumartist%" -T "ALBUM ARTIST=%albumartist%" -T "COMMENT=EAC Secure Mode, Test & Copy, AccurateRip, FLAC -8" %source%


TOC of the extracted CD

Track | Start | Length | Start sector | End sector
––––––––––––––––––––––––––––-
1 | 0:00.00 | 4:30.13 | 0 | 20262
2 | 4:30.13 | 4:17.59 | 20263 | 39596
3 | 8:47.72 | 3:28.07 | 39597 | 55203
4 | 12:16.04 | 3:49.66 | 55204 | 72444
5 | 16:05.70 | 4:14.00 | 72445 | 91494
6 | 20:19.70 | 4:16.15 | 91495 | 110709
7 | 24:36.10 | 4:15.53 | 110710 | 129887
8 | 28:51.63 | 7:37.28 | 129888 | 164190
9 | 36:29.16 | 3:36.00 | 164191 | 180390


Track 1

Filename Z:\mnt\EVO840\EAC-RIPS\Earth and Fire - Memories (2017) [FLAC] (10CD BOX)\CD01\01 - Wild and Exciting.wav

Pre-gap length 0:00:02.00

Peak level 100.0 %
Extraction speed 5.3 X
Track quality 100.0 %
Test CRC 7C3054E4
Copy CRC 7C3054E4
Accurately ripped (confidence 1) [A3B40152] (AR v2)
Copy OK

Track 2

Filename Z:\mnt\EVO840\EAC-RIPS\Earth and Fire - Memories (2017) [FLAC] (10CD BOX)\CD01\02 - Twighlight Dreamer.wav

Pre-gap length 0:00:02.00

Peak level 100.0 %
Extraction speed 5.9 X
Track quality 100.0 %
Test CRC 6CE8B294
Copy CRC 6CE8B294
Accurately ripped (confidence 1) [0986220A] (AR v2)
Copy OK

Track 3

Filename Z:\mnt\EVO840\EAC-RIPS\Earth and Fire - Memories (2017) [FLAC] (10CD BOX)\CD01\03 - Ruby Is The One.wav

Pre-gap length 0:00:02.00

Peak level 100.0 %
Extraction speed 6.3 X
Track quality 100.0 %
Test CRC B6A11950
Copy CRC B6A11950
Accurately ripped (confidence 1) [B975CEB5] (AR v2)
Copy OK

Track 4

Filename Z:\mnt\EVO840\EAC-RIPS\Earth and Fire - Memories (2017) [FLAC] (10CD BOX)\CD01\04 - You Know The Way.wav

Pre-gap length 0:00:02.00

Peak level 100.0 %
Extraction speed 6.8 X
Track quality 100.0 %
Test CRC 637E7545
Copy CRC 637E7545
Accurately ripped (confidence 1) [EA1F601A] (AR v2)
Copy OK

Track 5

Filename Z:\mnt\EVO840\EAC-RIPS\Earth and Fire - Memories (2017) [FLAC] (10CD BOX)\CD01\05 - Vivid Shady Land.wav

Pre-gap length 0:00:02.00

Peak level 99.9 %
Extraction speed 7.3 X
Track quality 100.0 %
Test CRC 9E76D8C4
Copy CRC 9E76D8C4
Accurately ripped (confidence 1) [A69C8F1E] (AR v2)
Copy OK

Track 6

Filename Z:\mnt\EVO840\EAC-RIPS\Earth and Fire - Memories (2017) [FLAC] (10CD BOX)\CD01\06 - 21st Century Show.wav

Pre-gap length 0:00:02.00

Peak level 99.9 %
Extraction speed 7.8 X
Track quality 100.0 %
Test CRC C410432A
Copy CRC C410432A
Accurately ripped (confidence 1) [17F3CF04] (AR v2)
Copy OK

Track 7

Filename Z:\mnt\EVO840\EAC-RIPS\Earth and Fire - Memories (2017) [FLAC] (10CD BOX)\CD01\07 - Seasons.wav

Pre-gap length 0:00:02.00

Peak level 99.3 %
Extraction speed 8.2 X
Track quality 100.0 %
Test CRC C3E5572B
Copy CRC C3E5572B
Accurately ripped (confidence 1) [5709F310] (AR v2)
Copy OK

Track 8

Filename Z:\mnt\EVO840\EAC-RIPS\Earth and Fire - Memories (2017) [FLAC] (10CD BOX)\CD01\08 - Love Quiver.wav

Pre-gap length 0:00:02.00

Peak level 100.0 %
Extraction speed 9.3 X
Track quality 100.0 %
Test CRC BE94A421
Copy CRC BE94A421
Accurately ripped (confidence 1) [92E91778] (AR v2)
Copy OK

Track 9

Filename Z:\mnt\EVO840\EAC-RIPS\Earth and Fire - Memories (2017) [FLAC] (10CD BOX)\CD01\09 - What's Your Name.wav

Pre-gap length 0:00:02.00

Peak level 99.9 %
Extraction speed 9.0 X
Track quality 100.0 %
Test CRC F3C1977B
Copy CRC F3C1977B
Accurately ripped (confidence 1) [9BB7975F] (AR v2)
Copy OK


All tracks accurately ripped

No errors occurred

End of status report

==== Log checksum AD1CAEBE473E774FA2752880298E128CFC590D1F5A1C213CB7625440D4B29AC1 ====

[CUETools log; Date: 29.08.2017 20:11:29; Version: 2.1.4]
[CTDB TOCID: NSqzvY2NMQUx6GPCO7dSnqhTJuk-] found.
Track | CTDB Status
1 | (9/9) Accurately ripped
2 | (9/9) Accurately ripped
3 | (9/9) Accurately ripped
4 | (9/9) Accurately ripped
5 | (9/9) Accurately ripped
6 | (9/9) Accurately ripped
7 | (9/9) Accurately ripped
8 | (9/9) Accurately ripped
9 | (9/9) Accurately ripped
[AccurateRip ID: 000d2fb8-00617558-7a096509] found.
Track [ CRC | V2 ] Status
01 [19bffca6|a3b40152] (0+3/3) Accurately ripped
02 [9b7bfd49|0986220a] (0+3/3) Accurately ripped
03 [ce1d8768|b975ceb5] (0+3/3) Accurately ripped
04 [b1a74f6f|ea1f601a] (0+3/3) Accurately ripped
05 [3d76d0ae|a69c8f1e] (0+3/3) Accurately ripped
06 [dddeb382|17f3cf04] (0+3/3) Accurately ripped
07 [b219b660|5709f310] (0+3/3) Accurately ripped
08 [46a630a5|92e91778] (0+3/3) Accurately ripped
09 [9eacbc83|9bb7975f] (0+3/3) Accurately ripped

Track Peak [ CRC32 ] [W/O NULL] [ LOG ]
– 100,0 [86009498] [8BCD865F]
01 100,0 [7C3054E4] [E84F0911] CRC32
02 100,0 [6CE8B294] [40EFB7AA] CRC32
03 100,0 [B6A11950] [7D44DFFF] CRC32
04 100,0 [637E7545] [E5977EDC] CRC32
05 99,9 [9E76D8C4] [1F70FC20] CRC32
06 99,9 [C410432A] [B3376997] CRC32
07 99,3 [C3E5572B] [A553A8EF] CRC32
08 100,0 [BE94A421] [98421C5F] CRC32
09 99,9 [F3C1977B] [44F96469] CRC32

Earth And Fire - Memories (Complete Album Collection) [10CD Box Set] (2017)

CD 2: Earth and Fire - Song of the Marching Children (1971)
EAC Rip | FLAC (tracks+.cue+log) - 167 MB | MP3 CBR 320 kbps (LAME 3.93) - 79 MB
Genre: Progressive Rock | RAR 3% Rec. | Label: Universal (572 578-4)

Tracklist:
01. Carnaval Of The Animals
02. Ebbtide
03. Storm And Thunder - Album Version
04. In The Mountains
05. Song Of The Marching Children - Album Version

Total time: 33:49

Exact Audio Copy V1.1 from 23. June 2015

EAC extraction logfile from 14. March 2017, 10:02

Earth and Fire / Song of the Marching Children

Used drive : ATAPI iHBS112 2 Adapter: 2 ID: 0

Read mode : Secure
Utilize accurate stream : Yes
Defeat audio cache : Yes
Make use of C2 pointers : No

Read offset correction : 6
Overread into Lead-In and Lead-Out : No
Fill up missing offset samples with silence : Yes
Delete leading and trailing silent blocks : No
Null samples used in CRC calculations : Yes
Used interface : Installed external ASPI interface
Gap handling : Appended to previous track

Used output format : User Defined Encoder
Selected bitrate : 128 kBit/s
Quality : High
Add ID3 tag : No
Command line compressor : C:\Program Files (x86)\Exact Audio Copy\Flac\flac.exe
Additional command line options : -8 -V -T "ARTIST=%artist%" -T "TITLE=%title%" -T "ALBUM=%albumtitle%" -T "DATE=%year%" -T "TRACKNUMBER=%tracknr%" -T "TOTALTRACKS=%numtracks%" -T "GENRE=%genre%" -T "ALBUMARTIST=%albumartist%" -T "ALBUM ARTIST=%albumartist%" -T "COMMENT=EAC Secure Mode, Test & Copy, AccurateRip, FLAC -8" %source%


TOC of the extracted CD

Track | Start | Length | Start sector | End sector
––––––––––––––––––––––––––––-
1 | 0:00.00 | 2:44.61 | 0 | 12360
2 | 2:44.61 | 3:09.45 | 12361 | 26580
3 | 5:54.31 | 6:27.46 | 26581 | 55651
4 | 12:22.02 | 3:04.22 | 55652 | 69473
5 | 15:26.24 | 18:23.04 | 69474 | 152202


Track 1

Filename Z:\mnt\EVO840\EAC-RIPS\Earth and Fire - Memories (2017) [FLAC] (10CD BOX)\CD02\01 - Carnival Of The Animals.wav

Pre-gap length 0:00:02.00

Peak level 99.9 %
Extraction speed 1.8 X
Track quality 100.0 %
Test CRC 6AC31F9F
Copy CRC 6AC31F9F
Accurately ripped (confidence 1) [AA6FC747] (AR v2)
Copy OK

Track 2

Filename Z:\mnt\EVO840\EAC-RIPS\Earth and Fire - Memories (2017) [FLAC] (10CD BOX)\CD02\02 - Ebbtide.wav

Pre-gap length 0:00:02.00

Peak level 100.0 %
Extraction speed 2.0 X
Track quality 100.0 %
Test CRC 63A0CF86
Copy CRC 63A0CF86
Accurately ripped (confidence 1) [C603CB6C] (AR v2)
Copy OK

Track 3

Filename Z:\mnt\EVO840\EAC-RIPS\Earth and Fire - Memories (2017) [FLAC] (10CD BOX)\CD02\03 - Storm And Thunder.wav

Pre-gap length 0:00:02.00

Peak level 99.9 %
Extraction speed 2.5 X
Track quality 100.0 %
Test CRC 3BDF988C
Copy CRC 3BDF988C
Accurately ripped (confidence 1) [A5FB3192] (AR v2)
Copy OK

Track 4

Filename Z:\mnt\EVO840\EAC-RIPS\Earth and Fire - Memories (2017) [FLAC] (10CD BOX)\CD02\04 - In The Mountains.wav

Pre-gap length 0:00:02.00

Peak level 99.9 %
Extraction speed 2.5 X
Track quality 100.0 %
Test CRC D99A27F7
Copy CRC D99A27F7
Accurately ripped (confidence 1) [BF9ABE9A] (AR v2)
Copy OK

Track 5

Filename Z:\mnt\EVO840\EAC-RIPS\Earth and Fire - Memories (2017) [FLAC] (10CD BOX)\CD02\05 - Song Of The Marching Children.wav

Pre-gap length 0:00:02.00

Peak level 100.0 %
Extraction speed 3.4 X
Track quality 100.0 %
Test CRC 2A7BED8B
Copy CRC 2A7BED8B
Accurately ripped (confidence 1) [94ACEEB4] (AR v2)
Copy OK


All tracks accurately ripped

No errors occurred

End of status report

==== Log checksum 26D7D719721C82BF16CB73CA36A77D6E3BF9EADBEFAA591D37E90AC66EE172B2 ====

[CUETools log; Date: 29.08.2017 20:12:33; Version: 2.1.4]
[CTDB TOCID: cfmwcNSHJO6Ctw3stS9cM8R4FZU-] found.
Track | CTDB Status
1 | (10/10) Accurately ripped
2 | (10/10) Accurately ripped
3 | (10/10) Accurately ripped
4 | (10/10) Accurately ripped
5 | ( 9/10) Accurately ripped
[AccurateRip ID: 0004d36f-001839ce-3f07ed05] found.
Track [ CRC | V2 ] Status
01 [472fb76e|aa6fc747] (0+3/3) Accurately ripped
02 [4150012f|c603cb6c] (0+3/3) Accurately ripped
03 [96ea3ff9|a5fb3192] (0+3/3) Accurately ripped
04 [95363c5e|bf9abe9a] (0+3/3) Accurately ripped
05 [62dcc59c|94aceeb4] (0+2/2) Accurately ripped

Track Peak [ CRC32 ] [W/O NULL] [ LOG ]
– 100,0 [C57C943A] [571FA97D]
01 99,9 [6AC31F9F] [B8433FF7] CRC32
02 100,0 [63A0CF86] [B27CA38D] CRC32
03 99,9 [3BDF988C] [D7E2E8FE] CRC32
04 99,9 [D99A27F7] [F71709B9] CRC32
05 100,0 [2A7BED8B] [A6663BD4] CRC32

Earth And Fire - Memories (Complete Album Collection) [10CD Box Set] (2017)

CD 3: Earth and Fire - Atlantis (1973)
EAC Rip | FLAC (tracks+.cue+log) - 190 MB | MP3 CBR 320 kbps (LAME 3.93) - 79 MB
Genre: Progressive Rock | RAR 3% Rec. | Label: Universal (572 578-5)

Tracklist:
01. Atlantis
02. Maybe Tomorrow, Maybe Tonight
03. Interlude
04. Fanfare
05. Theme From Atlantis
06. Love, Please Close The Door

Total time: 33:38

Exact Audio Copy V1.1 from 23. June 2015

EAC extraction logfile from 14. March 2017, 10:29

Earth and Fire / Atlantis

Used drive : ATAPI iHBS112 2 Adapter: 2 ID: 0

Read mode : Secure
Utilize accurate stream : Yes
Defeat audio cache : Yes
Make use of C2 pointers : No

Read offset correction : 6
Overread into Lead-In and Lead-Out : No
Fill up missing offset samples with silence : Yes
Delete leading and trailing silent blocks : No
Null samples used in CRC calculations : Yes
Used interface : Installed external ASPI interface
Gap handling : Appended to previous track

Used output format : User Defined Encoder
Selected bitrate : 128 kBit/s
Quality : High
Add ID3 tag : No
Command line compressor : C:\Program Files (x86)\Exact Audio Copy\Flac\flac.exe
Additional command line options : -8 -V -T "ARTIST=%artist%" -T "TITLE=%title%" -T "ALBUM=%albumtitle%" -T "DATE=%year%" -T "TRACKNUMBER=%tracknr%" -T "TOTALTRACKS=%numtracks%" -T "GENRE=%genre%" -T "ALBUMARTIST=%albumartist%" -T "ALBUM ARTIST=%albumartist%" -T "COMMENT=EAC Secure Mode, Test & Copy, AccurateRip, FLAC -8" %source%


TOC of the extracted CD

Track | Start | Length | Start sector | End sector
––––––––––––––––––––––––––––-
1 | 0:00.00 | 16:22.04 | 0 | 73653
2 | 16:22.04 | 3:10.70 | 73654 | 87973
3 | 19:32.74 | 1:59.55 | 87974 | 96953
4 | 21:32.54 | 6:04.51 | 96954 | 124304
5 | 27:37.30 | 1:51.13 | 124305 | 132642
6 | 29:28.43 | 4:09.63 | 132643 | 151380


Track 1

Filename Z:\mnt\EVO840\EAC-RIPS\Earth and Fire - Memories (2017) [FLAC] (10CD BOX)\CD03\01 - Atlantis.wav

Pre-gap length 0:00:02.00

Peak level 100.0 %
Extraction speed 2.3 X
Track quality 99.9 %
Test CRC 5F3406BC
Copy CRC 5F3406BC
Accurately ripped (confidence 1) [0568CD49] (AR v2)
Copy OK

Track 2

Filename Z:\mnt\EVO840\EAC-RIPS\Earth and Fire - Memories (2017) [FLAC] (10CD BOX)\CD03\02 - Maybe Tomorrow, Maybe Tonight.wav

Pre-gap length 0:00:02.00

Peak level 100.0 %
Extraction speed 2.7 X
Track quality 100.0 %
Test CRC 58EA3543
Copy CRC 58EA3543
Accurately ripped (confidence 1) [8011FE64] (AR v2)
Copy OK

Track 3

Filename Z:\mnt\EVO840\EAC-RIPS\Earth and Fire - Memories (2017) [FLAC] (10CD BOX)\CD03\03 - Interlude.wav

Peak level 60.4 %
Extraction speed 2.6 X
Track quality 100.0 %
Test CRC B476BF2B
Copy CRC B476BF2B
Accurately ripped (confidence 1) [CA8CBFFF] (AR v2)
Copy OK

Track 4

Filename Z:\mnt\EVO840\EAC-RIPS\Earth and Fire - Memories (2017) [FLAC] (10CD BOX)\CD03\04 - Fanfare.wav

Peak level 100.0 %
Extraction speed 3.2 X
Track quality 100.0 %
Test CRC F8929435
Copy CRC F8929435
Accurately ripped (confidence 1) [F0BA6E4E] (AR v2)
Copy OK

Track 5

Filename Z:\mnt\EVO840\EAC-RIPS\Earth and Fire - Memories (2017) [FLAC] (10CD BOX)\CD03\05 - Theme From Atlantis.wav

Pre-gap length 0:00:02.00

Peak level 99.9 %
Extraction speed 2.7 X
Track quality 100.0 %
Test CRC 42C1E285
Copy CRC 42C1E285
Accurately ripped (confidence 1) [40580389] (AR v2)
Copy OK

Track 6

Filename Z:\mnt\EVO840\EAC-RIPS\Earth and Fire - Memories (2017) [FLAC] (10CD BOX)\CD03\06 - Love, Please Close The Door.wav

Pre-gap length 0:00:02.00

Peak level 99.9 %
Extraction speed 3.3 X
Track quality 100.0 %
Test CRC DBB2B3CF
Copy CRC DBB2B3CF
Accurately ripped (confidence 1) [74E1A060] (AR v2)
Copy OK


All tracks accurately ripped

No errors occurred

End of status report

==== Log checksum 327346691F8D0DFF310CE58717CE78F7E778D4BA2CB8DF8E88A7B3E777037F87 ====

[CUETools log; Date: 29.08.2017 20:13:38; Version: 2.1.4]
[CTDB TOCID: GONTaHlAZti2GmjR5iCy7wOu28Q-] found.
Track | CTDB Status
1 | (10/10) Accurately ripped
2 | (10/10) Accurately ripped
3 | (10/10) Accurately ripped
4 | (10/10) Accurately ripped
5 | (10/10) Accurately ripped
6 | (10/10) Accurately ripped
[AccurateRip ID: 000a2d1f-0031fd41-5807e206] found.
Track [ CRC | V2 ] Status
01 [e4a36449|0568cd49] (0+3/3) Accurately ripped
02 [72be87a3|8011fe64] (0+3/3) Accurately ripped
03 [e3c1ebcb|ca8cbfff] (0+3/3) Accurately ripped
04 [ef257b19|f0ba6e4e] (0+3/3) Accurately ripped
05 [cb91fafb|40580389] (0+3/3) Accurately ripped
06 [b5196fd8|74e1a060] (0+3/3) Accurately ripped

Track Peak [ CRC32 ] [W/O NULL] [ LOG ]
– 100,0 [05083E97] [68BBD066]
01 100,0 [5F3406BC] [D4611DCA] CRC32
02 100,0 [58EA3543] [3D0AD4F0] CRC32
03 60,4 [B476BF2B] [976446B0] CRC32
04 100,0 [F8929435] [28F2C346] CRC32
05 99,9 [42C1E285] [34C63CC1] CRC32
06 99,9 [DBB2B3CF] [765DEC03] CRC32

Earth And Fire - Memories (Complete Album Collection) [10CD Box Set] (2017)

CD 4: Earth and Fire - To The World Of The Future (1975)
EAC Rip | FLAC (tracks+.cue+log) - 274 MB | MP3 CBR 320 kbps (LAME 3.93) - 100 MB
Genre: Progressive Rock | RAR 3% Rec. | Label: Universal (572 578-6)

Tracklist:
01. To The World Of The Future
02. How Time Flies
03. The Last Seagull
04. Only Time Will Tell
05. Voice From Yonder
06. Love Of Life

Total time: 42:26

Exact Audio Copy V1.1 from 23. June 2015

EAC extraction logfile from 14. March 2017, 11:03

Earth and Fire / To The World Of The Future

Used drive : ATAPI iHBS112 2 Adapter: 2 ID: 0

Read mode : Secure
Utilize accurate stream : Yes
Defeat audio cache : Yes
Make use of C2 pointers : No

Read offset correction : 6
Overread into Lead-In and Lead-Out : No
Fill up missing offset samples with silence : Yes
Delete leading and trailing silent blocks : No
Null samples used in CRC calculations : Yes
Used interface : Installed external ASPI interface
Gap handling : Appended to previous track

Used output format : User Defined Encoder
Selected bitrate : 128 kBit/s
Quality : High
Add ID3 tag : No
Command line compressor : C:\Program Files (x86)\Exact Audio Copy\Flac\flac.exe
Additional command line options : -8 -V -T "ARTIST=%artist%" -T "TITLE=%title%" -T "ALBUM=%albumtitle%" -T "DATE=%year%" -T "TRACKNUMBER=%tracknr%" -T "TOTALTRACKS=%numtracks%" -T "GENRE=%genre%" -T "ALBUMARTIST=%albumartist%" -T "ALBUM ARTIST=%albumartist%" -T "COMMENT=EAC Secure Mode, Test & Copy, AccurateRip, FLAC -8" %source%


TOC of the extracted CD

Track | Start | Length | Start sector | End sector
––––––––––––––––––––––––––––-
1 | 0:00.00 | 11:31.28 | 0 | 51852
2 | 11:31.28 | 3:18.31 | 51853 | 66733
3 | 14:49.59 | 7:32.00 | 66734 | 100633
4 | 22:21.59 | 3:40.47 | 100634 | 117180
5 | 26:02.31 | 7:01.05 | 117181 | 148760
6 | 33:03.36 | 3:09.46 | 148761 | 162981
7 | 36:13.07 | 6:13.31 | 162982 | 190987


Track 1

Filename Z:\mnt\EVO840\EAC-RIPS\Earth and Fire - Memories (2017) [FLAC] (10CD BOX)\CD04\01 - To The World Of The Future.wav

Pre-gap length 0:00:02.00

Peak level 100.0 %
Extraction speed 2.4 X
Track quality 100.0 %
Test CRC F9AD1610
Copy CRC F9AD1610
Accurately ripped (confidence 1) [C1D0C636] (AR v2)
Copy OK

Track 2

Filename Z:\mnt\EVO840\EAC-RIPS\Earth and Fire - Memories (2017) [FLAC] (10CD BOX)\CD04\02 - How Time Flies.wav

Pre-gap length 0:00:02.00

Peak level 99.9 %
Extraction speed 2.5 X
Track quality 100.0 %
Test CRC D1E9F4DF
Copy CRC D1E9F4DF
Accurately ripped (confidence 1) [64D082AE] (AR v2)
Copy OK

Track 3

Filename Z:\mnt\EVO840\EAC-RIPS\Earth and Fire - Memories (2017) [FLAC] (10CD BOX)\CD04\03 - The Last Seagull.wav

Pre-gap length 0:00:02.00

Peak level 100.0 %
Extraction speed 3.0 X
Track quality 100.0 %
Test CRC C8CF5F5B
Copy CRC C8CF5F5B
Accurately ripped (confidence 1) [751E9442] (AR v2)
Copy OK

Track 4

Filename Z:\mnt\EVO840\EAC-RIPS\Earth and Fire - Memories (2017) [FLAC] (10CD BOX)\CD04\04 - Only Time Will Tell.wav

Pre-gap length 0:00:02.00

Peak level 100.0 %
Extraction speed 3.0 X
Track quality 100.0 %
Test CRC 768631AA
Copy CRC 768631AA
Accurately ripped (confidence 1) [F9072B6F] (AR v2)
Copy OK

Track 5

Filename Z:\mnt\EVO840\EAC-RIPS\Earth and Fire - Memories (2017) [FLAC] (10CD BOX)\CD04\05 - Voice From Yonder.wav

Pre-gap length 0:00:02.00

Peak level 100.0 %
Extraction speed 3.4 X
Track quality 100.0 %
Test CRC 18E14940
Copy CRC 18E14940
Accurately ripped (confidence 1) [14925D63] (AR v2)
Copy OK

Track 6

Filename Z:\mnt\EVO840\EAC-RIPS\Earth and Fire - Memories (2017) [FLAC] (10CD BOX)\CD04\06 - Love Of Life.wav

Pre-gap length 0:00:02.00

Peak level 100.0 %
Extraction speed 3.3 X
Track quality 100.0 %
Test CRC A517B743
Copy CRC A517B743
Accurately ripped (confidence 1) [DBEA8A0B] (AR v2)
Copy OK

Track 7

Filename Z:\mnt\EVO840\EAC-RIPS\Earth and Fire - Memories (2017) [FLAC] (10CD BOX)\CD04\07 - Circus.wav

Pre-gap length 0:00:02.00

Peak level 100.0 %
Extraction speed 3.7 X
Track quality 100.0 %
Test CRC 9B51E93F
Copy CRC 9B51E93F
Accurately ripped (confidence 1) [20C3EC0E] (AR v2)
Copy OK


All tracks accurately ripped

No errors occurred

End of status report

==== Log checksum 8685B50064CB3AD7E085E78C5809DB1DFE6057084B35DA33E8B4F99330605C11 ====

[CUETools log; Date: 29.08.2017 20:14:08; Version: 2.1.4]
[CTDB TOCID: Qux4kKmfyeChX2X99YOCQLzV2f8-] found.
Track | CTDB Status
1 | (10/10) Accurately ripped
2 | (10/10) Accurately ripped
3 | (10/10) Accurately ripped
4 | (10/10) Accurately ripped
5 | (10/10) Accurately ripped
6 | (10/10) Accurately ripped
7 | (10/10) Accurately ripped
[AccurateRip ID: 000ccddd-004a0fbe-6709f207] found.
Track [ CRC | V2 ] Status
01 [f9a572b3|c1d0c636] (0+3/3) Accurately ripped
02 [cf591f91|64d082ae] (0+3/3) Accurately ripped
03 [1c04bf1d|751e9442] (0+3/3) Accurately ripped
04 [dbf9cb42|f9072b6f] (0+3/3) Accurately ripped
05 [d091bb98|14925d63] (0+3/3) Accurately ripped
06 [ffaaac16|dbea8a0b] (0+3/3) Accurately ripped
07 [9756dbd6|20c3ec0e] (0+3/3) Accurately ripped

Track Peak [ CRC32 ] [W/O NULL] [ LOG ]
– 100,0 [7017BE44] [807F38CC]
01 100,0 [F9AD1610] [C324A71D] CRC32
02 99,9 [D1E9F4DF] [414EC577] CRC32
03 100,0 [C8CF5F5B] [D1474219] CRC32
04 100,0 [768631AA] [A5418496] CRC32
05 100,0 [18E14940] [99D22ADA] CRC32
06 100,0 [A517B743] [19FA512D] CRC32
07 100,0 [9B51E93F] [100574CB] CRC32

Earth And Fire - Memories (Complete Album Collection) [10CD Box Set] (2017)

CD 5: Earth & Fire - Gate To Infinity (1977)
EAC Rip | FLAC (tracks+.cue+log) - 243 MB | MP3 CBR 320 kbps (LAME 3.93) - 84 MB
Genre: Progressive Rock | RAR 3% Rec. | Label: Universal (572 578-7)

Tracklist:
01. Recognition?
02. A Princess In Egypt
03. The Joyous Untruth
04. Infinity
05. A Life Time Before
06. 78th Avenue
07. Smile
08. Green Park Station
09. Dizzy Raptures
10. Driftin’

Total time: 35:52

Exact Audio Copy V1.1 from 23. June 2015

EAC extraction logfile from 14. March 2017, 12:49

Earth & Fire / Gate To Infinity

Used drive : ATAPI iHBS112 2 Adapter: 2 ID: 0

Read mode : Secure
Utilize accurate stream : Yes
Defeat audio cache : Yes
Make use of C2 pointers : No

Read offset correction : 6
Overread into Lead-In and Lead-Out : No
Fill up missing offset samples with silence : Yes
Delete leading and trailing silent blocks : No
Null samples used in CRC calculations : Yes
Used interface : Installed external ASPI interface
Gap handling : Appended to previous track

Used output format : User Defined Encoder
Selected bitrate : 128 kBit/s
Quality : High
Add ID3 tag : No
Command line compressor : C:\Program Files (x86)\Exact Audio Copy\Flac\flac.exe
Additional command line options : -8 -V -T "ARTIST=%artist%" -T "TITLE=%title%" -T "ALBUM=%albumtitle%" -T "DATE=%year%" -T "TRACKNUMBER=%tracknr%" -T "TOTALTRACKS=%numtracks%" -T "GENRE=%genre%" -T "ALBUMARTIST=%albumartist%" -T "ALBUM ARTIST=%albumartist%" -T "COMMENT=EAC Secure Mode, Test & Copy, AccurateRip, FLAC -8" %source%


TOC of the extracted CD

Track | Start | Length | Start sector | End sector
––––––––––––––––––––––––––––-
1 | 0:00.00 | 5:29.69 | 0 | 24743
2 | 5:29.69 | 2:01.28 | 24744 | 33846
3 | 7:31.22 | 2:06.08 | 33847 | 43304
4 | 9:37.30 | 5:13.71 | 43305 | 66850
5 | 14:51.26 | 2:45.18 | 66851 | 79243
6 | 17:36.44 | 3:03.00 | 79244 | 92968
7 | 20:39.44 | 3:12.17 | 92969 | 107385
8 | 23:51.61 | 3:02.39 | 107386 | 121074
9 | 26:54.25 | 3:21.41 | 121075 | 136190
10 | 30:15.66 | 5:36.40 | 136191 | 161430


Track 1

Filename Z:\mnt\EVO840\EAC-RIPS\Earth and Fire - Memories (2017) [FLAC] (10CD BOX)\CD05\01 - Recognition.wav

Pre-gap length 0:00:02.00

Peak level 100.0 %
Extraction speed 2.1 X
Track quality 100.0 %
Test CRC 5B344CEB
Copy CRC 5B344CEB
Accurately ripped (confidence 1) [18A7FC13] (AR v2)
Copy OK

Track 2

Filename Z:\mnt\EVO840\EAC-RIPS\Earth and Fire - Memories (2017) [FLAC] (10CD BOX)\CD05\02 - A Princess In Egypt.wav

Peak level 99.3 %
Extraction speed 2.0 X
Track quality 100.0 %
Test CRC C770020B
Copy CRC C770020B
Accurately ripped (confidence 1) [FF46C037] (AR v2)
Copy OK

Track 3

Filename Z:\mnt\EVO840\EAC-RIPS\Earth and Fire - Memories (2017) [FLAC] (10CD BOX)\CD05\03 - The Joyous Untruth.wav

Peak level 100.0 %
Extraction speed 2.1 X
Track quality 100.0 %
Test CRC 86702A9E
Copy CRC 86702A9E
Accurately ripped (confidence 1) [C8436DB9] (AR v2)
Copy OK

Track 4

Filename Z:\mnt\EVO840\EAC-RIPS\Earth and Fire - Memories (2017) [FLAC] (10CD BOX)\CD05\04 - Infinity.wav

Peak level 99.8 %
Extraction speed 2.6 X
Track quality 100.0 %
Test CRC 0948EEAA
Copy CRC 0948EEAA
Accurately ripped (confidence 1) [C8FB6513] (AR v2)
Copy OK

Track 5

Filename Z:\mnt\EVO840\EAC-RIPS\Earth and Fire - Memories (2017) [FLAC] (10CD BOX)\CD05\05 - A Life - Time Before.wav

Peak level 99.9 %
Extraction speed 2.5 X
Track quality 100.0 %
Test CRC B29CF35E
Copy CRC B29CF35E
Accurately ripped (confidence 1) [8814FAAD] (AR v2)
Copy OK

Track 6

Filename Z:\mnt\EVO840\EAC-RIPS\Earth and Fire - Memories (2017) [FLAC] (10CD BOX)\CD05\06 - 78th Avenue.wav

Pre-gap length 0:00:02.00

Peak level 99.9 %
Extraction speed 2.7 X
Track quality 100.0 %
Test CRC A41F26A5
Copy CRC A41F26A5
Accurately ripped (confidence 1) [7DC7FF6C] (AR v2)
Copy OK

Track 7

Filename Z:\mnt\EVO840\EAC-RIPS\Earth and Fire - Memories (2017) [FLAC] (10CD BOX)\CD05\07 - Smile.wav

Pre-gap length 0:00:02.00

Peak level 99.6 %
Extraction speed 2.0 X
Track quality 99.9 %
Test CRC D4C922A8
Copy CRC D4C922A8
Accurately ripped (confidence 1) [26ED821B] (AR v2)
Copy OK

Track 8

Filename Z:\mnt\EVO840\EAC-RIPS\Earth and Fire - Memories (2017) [FLAC] (10CD BOX)\CD05\08 - Green Park Station.wav

Pre-gap length 0:00:02.00

Peak level 100.0 %
Extraction speed 2.9 X
Track quality 100.0 %
Test CRC 59066C72
Copy CRC 59066C72
Accurately ripped (confidence 1) [C65DDBE0] (AR v2)
Copy OK

Track 9

Filename Z:\mnt\EVO840\EAC-RIPS\Earth and Fire - Memories (2017) [FLAC] (10CD BOX)\CD05\09 - Dizzy Raptures.wav

Pre-gap length 0:00:02.00

Peak level 100.0 %
Extraction speed 3.1 X
Track quality 100.0 %
Test CRC EB29FB5F
Copy CRC EB29FB5F
Accurately ripped (confidence 1) [310482E9] (AR v2)
Copy OK

Track 10

Filename Z:\mnt\EVO840\EAC-RIPS\Earth and Fire - Memories (2017) [FLAC] (10CD BOX)\CD05\10 - Driftin'.wav

Pre-gap length 0:00:02.00

Peak level 100.0 %
Extraction speed 3.5 X
Track quality 100.0 %
Test CRC EC3331E5
Copy CRC EC3331E5
Accurately ripped (confidence 1) [C0E91696] (AR v2)
Copy OK


All tracks accurately ripped

No errors occurred

End of status report

==== Log checksum 48991633380AEE37D6B7D797280E20FDAA6FD968AFF229EFCB0438D78410A898 ====

[CUETools log; Date: 29.08.2017 20:14:39; Version: 2.1.4]
[CTDB TOCID: axIPhTuuecryhXwCqYOo30repeo-] found.
Track | CTDB Status
1 | (10/10) Accurately ripped
2 | (10/10) Accurately ripped
3 | (10/10) Accurately ripped
4 | (10/10) Accurately ripped
5 | (10/10) Accurately ripped
6 | (10/10) Accurately ripped
7 | (10/10) Accurately ripped
8 | (10/10) Accurately ripped
9 | (10/10) Accurately ripped
10 | (10/10) Accurately ripped
[AccurateRip ID: 000d3ae3-0068d87e-7e08680a] found.
Track [ CRC | V2 ] Status
01 [8142d4b1|18a7fc13] (0+3/3) Accurately ripped
02 [35532dc6|ff46c037] (0+3/3) Accurately ripped
03 [69693aaf|c8436db9] (0+3/3) Accurately ripped
04 [a76c2d89|c8fb6513] (0+3/3) Accurately ripped
05 [39260d95|8814faad] (0+3/3) Accurately ripped
06 [082eb261|7dc7ff6c] (0+3/3) Accurately ripped
07 [a08b4686|26ed821b] (0+3/3) Accurately ripped
08 [792bbe56|c65ddbe0] (0+3/3) Accurately ripped
09 [68c98eb2|310482e9] (0+3/3) Accurately ripped
10 [723f801b|c0e91696] (0+3/3) Accurately ripped

Track Peak [ CRC32 ] [W/O NULL] [ LOG ]
– 100,0 [968CC9B1] [E807A626]
01 99,9 [5B344CEB] [AB32801C] CRC32
02 99,3 [C770020B] [0AA71099] CRC32
03 99,9 [86702A9E] [0C7B9046] CRC32
04 99,8 [0948EEAA] [FB55515D] CRC32
05 99,9 [B29CF35E] [2813AC99] CRC32
06 99,9 [A41F26A5] [B1D15B9A] CRC32
07 99,6 [D4C922A8] [2A90877C] CRC32
08 100,0 [59066C72] [175B2F25] CRC32
09 99,9 [EB29FB5F] [B3006AE6] CRC32
10 100,0 [EC3331E5] [417B4807] CRC32

Earth And Fire - Memories (Complete Album Collection) [10CD Box Set] (2017)

CD 6: Earth and Fire - Reality Fills Fantasy (1979)
EAC Rip | FLAC (tracks+.cue+log) - 250 MB | MP3 CBR 320 kbps (LAME 3.93) - 87 MB
Genre: Progressive Rock, Pop Rock | RAR 3% Rec. | Label: Universal (572 578-8)

Tracklist:
01. People Come People Go
02. Fire Of Love
03. Weekend
04. Can’t Live Without It Anymore
05. Where Were You
06. Season Of The Falling Leaves
07. Answer Me
08. Reprise (People Come People Go)

Total time: 37:05

Exact Audio Copy V1.1 from 23. June 2015

EAC extraction logfile from 14. March 2017, 13:22

Earth and Fire / Reality Fills Fantasy

Used drive : ATAPI iHBS112 2 Adapter: 2 ID: 0

Read mode : Secure
Utilize accurate stream : Yes
Defeat audio cache : Yes
Make use of C2 pointers : No

Read offset correction : 6
Overread into Lead-In and Lead-Out : No
Fill up missing offset samples with silence : Yes
Delete leading and trailing silent blocks : No
Null samples used in CRC calculations : Yes
Used interface : Installed external ASPI interface
Gap handling : Appended to previous track

Used output format : User Defined Encoder
Selected bitrate : 128 kBit/s
Quality : High
Add ID3 tag : No
Command line compressor : C:\Program Files (x86)\Exact Audio Copy\Flac\flac.exe
Additional command line options : -8 -V -T "ARTIST=%artist%" -T "TITLE=%title%" -T "ALBUM=%albumtitle%" -T "DATE=%year%" -T "TRACKNUMBER=%tracknr%" -T "TOTALTRACKS=%numtracks%" -T "GENRE=%genre%" -T "ALBUMARTIST=%albumartist%" -T "ALBUM ARTIST=%albumartist%" -T "COMMENT=EAC Secure Mode, Test & Copy, AccurateRip, FLAC -8" %source%


TOC of the extracted CD

Track | Start | Length | Start sector | End sector
––––––––––––––––––––––––––––-
1 | 0:00.00 | 11:12.00 | 0 | 50399
2 | 11:12.00 | 3:49.27 | 50400 | 67601
3 | 15:01.27 | 3:33.61 | 67602 | 83637
4 | 18:35.13 | 4:30.13 | 83638 | 103900
5 | 23:05.26 | 4:30.41 | 103901 | 124191
6 | 27:35.67 | 3:25.60 | 124192 | 139626
7 | 31:01.52 | 5:17.74 | 139627 | 163475
8 | 36:19.51 | 0:45.59 | 163476 | 166909


Track 1

Filename Z:\mnt\EVO840\EAC-RIPS\Earth and Fire - Memories (2017) [FLAC] (10CD BOX)\CD06\01 - People Come, People Go.wav

Pre-gap length 0:00:02.00

Peak level 100.0 %
Extraction speed 2.4 X
Track quality 100.0 %
Test CRC 65E01335
Copy CRC 65E01335
Accurately ripped (confidence 1) [12822E64] (AR v2)
Copy OK

Track 2

Filename Z:\mnt\EVO840\EAC-RIPS\Earth and Fire - Memories (2017) [FLAC] (10CD BOX)\CD06\02 - Fire Of Love.wav

Pre-gap length 0:00:02.00

Peak level 99.9 %
Extraction speed 2.5 X
Track quality 100.0 %
Test CRC 9EABD721
Copy CRC 9EABD721
Accurately ripped (confidence 1) [25310290] (AR v2)
Copy OK

Track 3

Filename Z:\mnt\EVO840\EAC-RIPS\Earth and Fire - Memories (2017) [FLAC] (10CD BOX)\CD06\03 - Weekend.wav

Pre-gap length 0:00:02.00

Peak level 99.9 %
Extraction speed 1.9 X
Track quality 99.9 %
Test CRC 0A4A14F0
Copy CRC 0A4A14F0
Accurately ripped (confidence 1) [2EA734A2] (AR v2)
Copy OK

Track 4

Filename Z:\mnt\EVO840\EAC-RIPS\Earth and Fire - Memories (2017) [FLAC] (10CD BOX)\CD06\04 - Can't Live Without It Anymore.wav

Pre-gap length 0:00:02.00

Peak level 99.9 %
Extraction speed 2.9 X
Track quality 100.0 %
Test CRC 6F76C590
Copy CRC 6F76C590
Accurately ripped (confidence 1) [98D03B7A] (AR v2)
Copy OK

Track 5

Filename Z:\mnt\EVO840\EAC-RIPS\Earth and Fire - Memories (2017) [FLAC] (10CD BOX)\CD06\05 - Where Were You.wav

Pre-gap length 0:00:02.00

Peak level 100.0 %
Extraction speed 2.4 X
Track quality 99.9 %
Test CRC 6D07DC7A
Copy CRC 6D07DC7A
Accurately ripped (confidence 1) [29B8EB9D] (AR v2)
Copy OK

Track 6

Filename Z:\mnt\EVO840\EAC-RIPS\Earth and Fire - Memories (2017) [FLAC] (10CD BOX)\CD06\06 - Season Of The Falling Leaves.wav

Pre-gap length 0:00:02.00

Peak level 99.9 %
Extraction speed 3.2 X
Track quality 100.0 %
Test CRC BB015ABD
Copy CRC BB015ABD
Accurately ripped (confidence 1) [AA39CAA1] (AR v2)
Copy OK

Track 7

Filename Z:\mnt\EVO840\EAC-RIPS\Earth and Fire - Memories (2017) [FLAC] (10CD BOX)\CD06\07 - Answer Me.wav

Pre-gap length 0:00:01.73

Peak level 100.0 %
Extraction speed 3.5 X
Track quality 100.0 %
Test CRC FC6E90DF
Copy CRC FC6E90DF
Accurately ripped (confidence 1) [0693D53E] (AR v2)
Copy OK

Track 8

Filename Z:\mnt\EVO840\EAC-RIPS\Earth and Fire - Memories (2017) [FLAC] (10CD BOX)\CD06\08 - Reprise.wav

Pre-gap length 0:00:02.00

Peak level 87.9 %
Extraction speed 2.2 X
Track quality 100.0 %
Test CRC C0A07C98
Copy CRC C0A07C98
Accurately ripped (confidence 1) [AA4CB93A] (AR v2)
Copy OK


All tracks accurately ripped

No errors occurred

End of status report

==== Log checksum 2A264ABE193898589DEC9A2A4039D20179C265B463695B6587547011BBA05255 ====

[CUETools log; Date: 29.08.2017 20:15:14; Version: 2.1.4]
[CTDB TOCID: QRHqHVNVbA_2UhWDu54SYZEzGCo-] found.
Track | CTDB Status
1 | (10/10) Accurately ripped
2 | (10/10) Accurately ripped
3 | (10/10) Accurately ripped
4 | (10/10) Accurately ripped
5 | (10/10) Accurately ripped
6 | (10/10) Accurately ripped
7 | (10/10) Accurately ripped
8 | (10/10) Accurately ripped
[AccurateRip ID: 000dbaa2-0056d35b-6d08b108] found.
Track [ CRC | V2 ] Status
01 [bc70820a|12822e64] (0+3/3) Accurately ripped
02 [1d585d37|25310290] (0+3/3) Accurately ripped
03 [4406a96a|2ea734a2] (0+3/3) Accurately ripped
04 [8a3f1846|98d03b7a] (0+3/3) Accurately ripped
05 [d805c4e6|29b8eb9d] (0+3/3) Accurately ripped
06 [331f999d|aa39caa1] (0+3/3) Accurately ripped
07 [aa9c84ea|0693d53e] (0+3/3) Accurately ripped
08 [659a9be6|aa4cb93a] (0+3/3) Accurately ripped

Track Peak [ CRC32 ] [W/O NULL] [ LOG ]
– 100,0 [C34848B0] [EBD8DD27]
01 100,0 [65E01335] [28DB6FD0] CRC32
02 99,9 [9EABD721] [E3F4296C] CRC32
03 99,9 [0A4A14F0] [6FA57A8E] CRC32
04 99,9 [6F76C590] [C51845C2] CRC32
05 100,0 [6D07DC7A] [19BC3C5A] CRC32
06 99,9 [BB015ABD] [6AED2327] CRC32
07 99,9 [FC6E90DF] [42CF19C6] CRC32
08 87,9 [C0A07C98] [9037B111] CRC32

Earth And Fire - Memories (Complete Album Collection) [10CD Box Set] (2017)

CD 7: Earth and Fire - Andromeda Girl (1981)
EAC Rip | FLAC (tracks+.cue+log) - 274 MB | MP3 CBR 320 kbps (LAME 3.93) - 96 MB
Genre: Progressive Rock, Pop Rock | RAR 3% Rec. | Label: Universal (572 578-9)

Tracklist:
01. Dream
02. Singer In The Rain
03. Andromeda Girl
04. What More Could You Desire
05. Tell Me Why
06. Love Is An Ocean
07. You
08. From Shore To Shore
09. Just One Chance

Total time: 40:59

Exact Audio Copy V1.1 from 23. June 2015

EAC extraction logfile from 14. March 2017, 13:59

Earth and Fire / Andromeda Girl

Used drive : ATAPI iHBS112 2 Adapter: 2 ID: 0

Read mode : Secure
Utilize accurate stream : Yes
Defeat audio cache : Yes
Make use of C2 pointers : No

Read offset correction : 6
Overread into Lead-In and Lead-Out : No
Fill up missing offset samples with silence : Yes
Delete leading and trailing silent blocks : No
Null samples used in CRC calculations : Yes
Used interface : Installed external ASPI interface
Gap handling : Appended to previous track

Used output format : User Defined Encoder
Selected bitrate : 128 kBit/s
Quality : High
Add ID3 tag : No
Command line compressor : C:\Program Files (x86)\Exact Audio Copy\Flac\flac.exe
Additional command line options : -8 -V -T "ARTIST=%artist%" -T "TITLE=%title%" -T "ALBUM=%albumtitle%" -T "DATE=%year%" -T "TRACKNUMBER=%tracknr%" -T "TOTALTRACKS=%numtracks%" -T "GENRE=%genre%" -T "ALBUMARTIST=%albumartist%" -T "ALBUM ARTIST=%albumartist%" -T "COMMENT=EAC Secure Mode, Test & Copy, AccurateRip, FLAC -8" %source%


TOC of the extracted CD

Track | Start | Length | Start sector | End sector
––––––––––––––––––––––––––––-
1 | 0:00.00 | 3:05.60 | 0 | 13934
2 | 3:05.60 | 3:11.47 | 13935 | 28306
3 | 6:17.32 | 12:03.35 | 28307 | 82566
4 | 18:20.67 | 3:06.04 | 82567 | 96520
5 | 21:26.71 | 3:12.33 | 96521 | 110953
6 | 24:39.29 | 4:01.27 | 110954 | 129055
7 | 28:40.56 | 4:36.36 | 129056 | 149791
8 | 33:17.17 | 3:24.50 | 149792 | 165141
9 | 36:41.67 | 4:17.60 | 165142 | 184476


Track 1

Filename Z:\mnt\EVO840\EAC-RIPS\Earth and Fire - Memories (2017) [FLAC] (10CD BOX)\CD07\01 - Dream.wav

Pre-gap length 0:00:02.00

Peak level 100.0 %
Extraction speed 1.9 X
Track quality 100.0 %
Test CRC 482A341B
Copy CRC 482A341B
Accurately ripped (confidence 1) [1795C0FA] (AR v2)
Copy OK

Track 2

Filename Z:\mnt\EVO840\EAC-RIPS\Earth and Fire - Memories (2017) [FLAC] (10CD BOX)\CD07\02 - Singer in the rain.wav

Pre-gap length 0:00:02.00

Peak level 100.0 %
Extraction speed 2.1 X
Track quality 100.0 %
Test CRC 382C73A0
Copy CRC 382C73A0
Accurately ripped (confidence 1) [5CEB1000] (AR v2)
Copy OK

Track 3

Filename Z:\mnt\EVO840\EAC-RIPS\Earth and Fire - Memories (2017) [FLAC] (10CD BOX)\CD07\03 - Andromeda girl.wav

Pre-gap length 0:00:02.00

Peak level 100.0 %
Extraction speed 2.8 X
Track quality 100.0 %
Test CRC 5FC35FB9
Copy CRC 5FC35FB9
Accurately ripped (confidence 1) [E7A9DA9B] (AR v2)
Copy OK

Track 4

Filename Z:\mnt\EVO840\EAC-RIPS\Earth and Fire - Memories (2017) [FLAC] (10CD BOX)\CD07\04 - What more could you desire.wav

Pre-gap length 0:00:02.00

Peak level 100.0 %
Extraction speed 2.8 X
Track quality 100.0 %
Test CRC 068EB308
Copy CRC 068EB308
Accurately ripped (confidence 1) [704CFEF2] (AR v2)
Copy OK

Track 5

Filename Z:\mnt\EVO840\EAC-RIPS\Earth and Fire - Memories (2017) [FLAC] (10CD BOX)\CD07\05 - Tell me why.wav

Pre-gap length 0:00:02.00

Peak level 100.0 %
Extraction speed 2.9 X
Track quality 100.0 %
Test CRC 2CCDB302
Copy CRC 2CCDB302
Accurately ripped (confidence 1) [7646BA29] (AR v2)
Copy OK

Track 6

Filename Z:\mnt\EVO840\EAC-RIPS\Earth and Fire - Memories (2017) [FLAC] (10CD BOX)\CD07\06 - Love is an ocean.wav

Pre-gap length 0:00:02.00

Peak level 100.0 %
Extraction speed 2.3 X
Track quality 99.9 %
Test CRC E14E11E1
Copy CRC E14E11E1
Accurately ripped (confidence 1) [1C16B51D] (AR v2)
Copy OK

Track 7

Filename Z:\mnt\EVO840\EAC-RIPS\Earth and Fire - Memories (2017) [FLAC] (10CD BOX)\CD07\07 - You.wav

Pre-gap length 0:00:02.00

Peak level 100.0 %
Extraction speed 3.3 X
Track quality 100.0 %
Test CRC 3ABB2003
Copy CRC 3ABB2003
Accurately ripped (confidence 1) [DC82BDFB] (AR v2)
Copy OK

Track 8

Filename Z:\mnt\EVO840\EAC-RIPS\Earth and Fire - Memories (2017) [FLAC] (10CD BOX)\CD07\08 - From shore to shore.wav

Pre-gap length 0:00:02.00

Peak level 100.0 %
Extraction speed 3.2 X
Track quality 100.0 %
Test CRC 7F64A96B
Copy CRC 7F64A96B
Accurately ripped (confidence 1) [6ECA5700] (AR v2)
Copy OK

Track 9

Filename Z:\mnt\EVO840\EAC-RIPS\Earth and Fire - Memories (2017) [FLAC] (10CD BOX)\CD07\09 - Just one chance.wav

Pre-gap length 0:00:02.00

Peak level 100.0 %
Extraction speed 3.6 X
Track quality 100.0 %
Test CRC C8949EC6
Copy CRC C8949EC6
Accurately ripped (confidence 1) [BFB12E4E] (AR v2)
Copy OK


All tracks accurately ripped

No errors occurred

End of status report

==== Log checksum 4CDB578EDACD32118E1CE786359F68A7047B6D49F6EA6D5A22334415C41D2019 ====

[CUETools log; Date: 29.08.2017 20:16:08; Version: 2.1.4]
[CTDB TOCID: JUi3f2TlxQGCouv.ErkXqSVuZgI-] found.
Track | CTDB Status
1 | (10/10) Accurately ripped
2 | (10/10) Accurately ripped
3 | (10/10) Accurately ripped
4 | (10/10) Accurately ripped
5 | (10/10) Accurately ripped
6 | (10/10) Accurately ripped
7 | (10/10) Accurately ripped
8 | (10/10) Accurately ripped
9 | (10/10) Accurately ripped
[AccurateRip ID: 000ea8ef-006b2e25-79099b09] found.
Track [ CRC | V2 ] Status
01 [acb2b83a|1795c0fa] (0+3/3) Accurately ripped
02 [a1f91238|5ceb1000] (0+3/3) Accurately ripped
03 [48539e51|e7a9da9b] (0+3/3) Accurately ripped
04 [98ff4a9f|704cfef2] (0+3/3) Accurately ripped
05 [aed4a56d|7646ba29] (0+3/3) Accurately ripped
06 [b4fe81a5|1c16b51d] (0+3/3) Accurately ripped
07 [fc1edd5d|dc82bdfb] (0+3/3) Accurately ripped
08 [2faed096|6eca5700] (0+3/3) Accurately ripped
09 [df19b8bf|bfb12e4e] (0+3/3) Accurately ripped

Track Peak [ CRC32 ] [W/O NULL] [ LOG ]
– 100,0 [3B986334] [D461EEB7]
01 100,0 [482A341B] [F4B25858] CRC32
02 100,0 [382C73A0] [1C96E1BB] CRC32
03 100,0 [5FC35FB9] [F24EFC46] CRC32
04 100,0 [068EB308] [ADF34340] CRC32
05 100,0 [2CCDB302] [35A700D8] CRC32
06 100,0 [E14E11E1] [FD8928D8] CRC32
07 100,0 [3ABB2003] [333888A5] CRC32
08 100,0 [7F64A96B] [A0ABB977] CRC32
09 100,0 [C8949EC6] [25985FA8] CRC32

Earth And Fire - Memories (Complete Album Collection) [10CD Box Set] (2017)

CD 8: Earth & Fire - In A State Of Flux (1982)
EAC Rip | FLAC (tracks+.cue+log) - 269 MB | MP3 CBR 320 kbps (LAME 3.93) - 96 MB
Genre: Progressive Rock, Pop Rock | RAR 3% Rec. | Label: Universal (572 579-0)

Tracklist:
01. Twenty-Four Hours
02. Jack Is Back
03. The Two Of Us
04. Wish You Were Here
05. Strange Town
06. Love Is To Give Away
07. I Don’t Know Why
08. Hide Away
09. In A State Of Flux
10. Dona Nobis Pacem

Total time: 40:54

Exact Audio Copy V1.1 from 23. June 2015

EAC extraction logfile from 14. March 2017, 14:34

Earth & Fire / In A State Of Flux

Used drive : ATAPI iHBS112 2 Adapter: 2 ID: 0

Read mode : Secure
Utilize accurate stream : Yes
Defeat audio cache : Yes
Make use of C2 pointers : No

Read offset correction : 6
Overread into Lead-In and Lead-Out : No
Fill up missing offset samples with silence : Yes
Delete leading and trailing silent blocks : No
Null samples used in CRC calculations : Yes
Used interface : Installed external ASPI interface
Gap handling : Appended to previous track

Used output format : User Defined Encoder
Selected bitrate : 128 kBit/s
Quality : High
Add ID3 tag : No
Command line compressor : C:\Program Files (x86)\Exact Audio Copy\Flac\flac.exe
Additional command line options : -8 -V -T "ARTIST=%artist%" -T "TITLE=%title%" -T "ALBUM=%albumtitle%" -T "DATE=%year%" -T "TRACKNUMBER=%tracknr%" -T "TOTALTRACKS=%numtracks%" -T "GENRE=%genre%" -T "ALBUMARTIST=%albumartist%" -T "ALBUM ARTIST=%albumartist%" -T "COMMENT=EAC Secure Mode, Test & Copy, AccurateRip, FLAC -8" %source%


TOC of the extracted CD

Track | Start | Length | Start sector | End sector
––––––––––––––––––––––––––––-
1 | 0:00.00 | 3:42.32 | 0 | 16681
2 | 3:42.32 | 3:13.63 | 16682 | 31219
3 | 6:56.20 | 3:59.48 | 31220 | 49192
4 | 10:55.68 | 3:20.63 | 49193 | 64255
5 | 14:16.56 | 3:44.26 | 64256 | 81081
6 | 18:01.07 | 3:15.11 | 81082 | 95717
7 | 21:16.18 | 7:15.32 | 95718 | 128374
8 | 28:31.50 | 4:25.16 | 128375 | 148265
9 | 32:56.66 | 3:54.65 | 148266 | 165880
10 | 36:51.56 | 4:02.34 | 165881 | 184064


Track 1

Filename Z:\mnt\EVO840\EAC-RIPS\Earth and Fire - Memories (2017) [FLAC] (10CD BOX)\CD08\01 - Twenty-Four Hours.wav

Pre-gap length 0:00:02.00

Peak level 100.0 %
Extraction speed 1.4 X
Track quality 99.9 %
Test CRC 31BDA1CD
Copy CRC 31BDA1CD
Accurately ripped (confidence 1) [07F78668] (AR v2)
Copy OK

Track 2

Filename Z:\mnt\EVO840\EAC-RIPS\Earth and Fire - Memories (2017) [FLAC] (10CD BOX)\CD08\02 - Jack Is Back.wav

Pre-gap length 0:00:02.00

Peak level 99.9 %
Extraction speed 1.5 X
Track quality 99.9 %
Test CRC 8B5DB45D
Copy CRC 8B5DB45D
Accurately ripped (confidence 1) [EEE3DF9D] (AR v2)
Copy OK

Track 3

Filename Z:\mnt\EVO840\EAC-RIPS\Earth and Fire - Memories (2017) [FLAC] (10CD BOX)\CD08\03 - The Two Of Us.wav

Pre-gap length 0:00:02.00

Peak level 100.0 %
Extraction speed 2.3 X
Track quality 100.0 %
Test CRC 06DBE104
Copy CRC 06DBE104
Accurately ripped (confidence 1) [071C275F] (AR v2)
Copy OK

Track 4

Filename Z:\mnt\EVO840\EAC-RIPS\Earth and Fire - Memories (2017) [FLAC] (10CD BOX)\CD08\04 - Wish You Were Here.wav

Pre-gap length 0:00:02.00

Peak level 97.5 %
Extraction speed 1.8 X
Track quality 99.9 %
Test CRC 00382EDC
Copy CRC 00382EDC
Accurately ripped (confidence 1) [84DADCB3] (AR v2)
Copy OK

Track 5

Filename Z:\mnt\EVO840\EAC-RIPS\Earth and Fire - Memories (2017) [FLAC] (10CD BOX)\CD08\05 - Strange Town.wav

Pre-gap length 0:00:02.00

Peak level 97.9 %
Extraction speed 2.7 X
Track quality 100.0 %
Test CRC 2F2681C9
Copy CRC 2F2681C9
Accurately ripped (confidence 1) [104FA876] (AR v2)
Copy OK

Track 6

Filename Z:\mnt\EVO840\EAC-RIPS\Earth and Fire - Memories (2017) [FLAC] (10CD BOX)\CD08\06 - Love Is To Give Away.wav

Pre-gap length 0:00:02.00

Peak level 99.7 %
Extraction speed 2.8 X
Track quality 100.0 %
Test CRC 0881129C
Copy CRC 0881129C
Accurately ripped (confidence 1) [106A5696] (AR v2)
Copy OK

Track 7

Filename Z:\mnt\EVO840\EAC-RIPS\Earth and Fire - Memories (2017) [FLAC] (10CD BOX)\CD08\07 - I Don't Know Why.wav

Pre-gap length 0:00:02.00

Peak level 100.0 %
Extraction speed 3.2 X
Track quality 100.0 %
Test CRC 4F044B86
Copy CRC 4F044B86
Accurately ripped (confidence 1) [3E5D85B5] (AR v2)
Copy OK

Track 8

Filename Z:\mnt\EVO840\EAC-RIPS\Earth and Fire - Memories (2017) [FLAC] (10CD BOX)\CD08\08 - Hide Away.wav

Peak level 98.9 %
Extraction speed 3.3 X
Track quality 100.0 %
Test CRC 9E6F5D58
Copy CRC 9E6F5D58
Accurately ripped (confidence 1) [E4584F9A] (AR v2)
Copy OK

Track 9

Filename Z:\mnt\EVO840\EAC-RIPS\Earth and Fire - Memories (2017) [FLAC] (10CD BOX)\CD08\09 - In A State Of Flux.wav

Pre-gap length 0:00:02.00

Peak level 100.0 %
Extraction speed 3.4 X
Track quality 100.0 %
Test CRC 53FAB5AE
Copy CRC 53FAB5AE
Accurately ripped (confidence 1) [4D5D3C73] (AR v2)
Copy OK

Track 10

Filename Z:\mnt\EVO840\EAC-RIPS\Earth and Fire - Memories (2017) [FLAC] (10CD BOX)\CD08\10 - Dona Nobis Pacem.wav

Pre-gap length 0:00:02.00

Peak level 99.6 %
Extraction speed 3.5 X
Track quality 100.0 %
Test CRC 7957ADCB
Copy CRC 7957ADCB
Accurately ripped (confidence 1) [A126D151] (AR v2)
Copy OK


All tracks accurately ripped

No errors occurred

End of status report

==== Log checksum 7BC40CA1A161165F9FCBC549389F9183082FD2F2B7772B436A6A7FC0D2CF93FC ====

[CUETools log; Date: 29.08.2017 20:16:55; Version: 2.1.4]
[CTDB TOCID: uUFAJzIyNvGeO1jxtcevbm2hYRw-] found.
Track | CTDB Status
1 | (9/9) Accurately ripped
2 | (9/9) Accurately ripped
3 | (9/9) Accurately ripped
4 | (9/9) Accurately ripped
5 | (9/9) Accurately ripped
6 | (9/9) Accurately ripped
7 | (9/9) Accurately ripped
8 | (9/9) Accurately ripped
9 | (9/9) Accurately ripped
10 | (9/9) Accurately ripped
[AccurateRip ID: 000eb882-0077ba72-8909960a] found.
Track [ CRC | V2 ] Status
01 [4753397e|07f78668] (0+3/3) Accurately ripped
02 [ab576fe1|eee3df9d] (0+3/3) Accurately ripped
03 [c09c4881|071c275f] (0+3/3) Accurately ripped
04 [ed94a519|84dadcb3] (0+3/3) Accurately ripped
05 [f3fd6919|104fa876] (0+3/3) Accurately ripped
06 [335975d7|106a5696] (0+3/3) Accurately ripped
07 [98a3c875|3e5d85b5] (0+3/3) Accurately ripped
08 [d92984e1|e4584f9a] (0+3/3) Accurately ripped
09 [9c835280|4d5d3c73] (0+3/3) Accurately ripped
10 [8b638a31|a126d151] (0+3/3) Accurately ripped

Track Peak [ CRC32 ] [W/O NULL] [ LOG ]
– 100,0 [636122B3] [1D97B018]
01 100,0 [31BDA1CD] [5875DC7E] CRC32
02 99,9 [8B5DB45D] [E7C1EB10] CRC32
03 100,0 [06DBE104] [D3A7466E] CRC32
04 97,5 [00382EDC] [2C5BED62] CRC32
05 97,9 [2F2681C9] [6BE8581F] CRC32
06 99,7 [0881129C] [0EE92B6F] CRC32
07 100,0 [4F044B86] [0BA10428] CRC32
08 98,9 [9E6F5D58] [51529127] CRC32
09 100,0 [53FAB5AE] [5DF3736F] CRC32
10 99,6 [7957ADCB] [0C580340] CRC32

Earth And Fire - Memories (Complete Album Collection) [10CD Box Set] (2017)

CD 9: Earth & Fire - Phoenix (1989)
EAC Rip | FLAC (tracks+.cue+log) - 350 MB | MP3 CBR 320 kbps (LAME 3.93) - 118 MB
Genre: Progressive Rock, Pop Rock | RAR 3% Rec. | Label: Universal (572 579-1)

Tracklist:
01. Good Enough
02. Keep On Missing You
03. Walls Of Jericho
04. Streets Of Shame
05. Winds Of Change
06. Bombay Calling
07. No Stone Unturned
08. Dreaming
09. French Word For Love
10. Gemini
11. Incognito
12. Under A Burning Sky

Total time: 50:16

Exact Audio Copy V1.1 from 23. June 2015

EAC extraction logfile from 14. March 2017, 15:52

Earth & Fire / Phoenix

Used drive : ATAPI iHBS112 2 Adapter: 2 ID: 0

Read mode : Secure
Utilize accurate stream : Yes
Defeat audio cache : Yes
Make use of C2 pointers : No

Read offset correction : 6
Overread into Lead-In and Lead-Out : No
Fill up missing offset samples with silence : Yes
Delete leading and trailing silent blocks : No
Null samples used in CRC calculations : Yes
Used interface : Installed external ASPI interface
Gap handling : Appended to previous track

Used output format : User Defined Encoder
Selected bitrate : 128 kBit/s
Quality : High
Add ID3 tag : No
Command line compressor : C:\Program Files (x86)\Exact Audio Copy\Flac\flac.exe
Additional command line options : -8 -V -T "ARTIST=%artist%" -T "TITLE=%title%" -T "ALBUM=%albumtitle%" -T "DATE=%year%" -T "TRACKNUMBER=%tracknr%" -T "TOTALTRACKS=%numtracks%" -T "GENRE=%genre%" -T "ALBUMARTIST=%albumartist%" -T "ALBUM ARTIST=%albumartist%" -T "COMMENT=EAC Secure Mode, Test & Copy, AccurateRip, FLAC -8" %source%


TOC of the extracted CD

Track | Start | Length | Start sector | End sector
––––––––––––––––––––––––––––-
1 | 0:00.00 | 3:52.37 | 0 | 17436
2 | 3:52.37 | 6:30.00 | 17437 | 46686
3 | 10:22.37 | 4:09.62 | 46687 | 65423
4 | 14:32.24 | 6:28.08 | 65424 | 94531
5 | 21:00.32 | 4:00.00 | 94532 | 112531
6 | 25:00.32 | 3:44.42 | 112532 | 129373
7 | 28:44.74 | 3:55.55 | 129374 | 147053
8 | 32:40.54 | 4:09.56 | 147054 | 165784
9 | 36:50.35 | 3:15.72 | 165785 | 180481
10 | 40:06.32 | 3:45.31 | 180482 | 197387
11 | 43:51.63 | 3:15.30 | 197388 | 212042
12 | 47:07.18 | 3:09.05 | 212043 | 226222


Track 1

Filename Z:\mnt\EVO840\EAC-RIPS\Earth and Fire - Memories (2017) [FLAC] (10CD BOX)\CD09\01 - Good Enough.wav

Pre-gap length 0:00:02.00

Peak level 100.0 %
Extraction speed 2.0 X
Track quality 100.0 %
Test CRC 6F3250D4
Copy CRC 6F3250D4
Accurately ripped (confidence 1) [FD01EBE5] (AR v2)
Copy OK

Track 2

Filename Z:\mnt\EVO840\EAC-RIPS\Earth and Fire - Memories (2017) [FLAC] (10CD BOX)\CD09\02 - Keep On Missing You.wav

Pre-gap length 0:00:02.00

Peak level 100.0 %
Extraction speed 2.4 X
Track quality 100.0 %
Test CRC 66D3BDA4
Copy CRC 66D3BDA4
Accurately ripped (confidence 1) [A4D296B5] (AR v2)
Copy OK

Track 3

Filename Z:\mnt\EVO840\EAC-RIPS\Earth and Fire - Memories (2017) [FLAC] (10CD BOX)\CD09\03 - Walls Of Jericho.wav

Pre-gap length 0:00:02.00

Peak level 100.0 %
Extraction speed 2.5 X
Track quality 100.0 %
Test CRC 7089B42B
Copy CRC 7089B42B
Accurately ripped (confidence 1) [9F952F5A] (AR v2)
Copy OK

Track 4

Filename Z:\mnt\EVO840\EAC-RIPS\Earth and Fire - Memories (2017) [FLAC] (10CD BOX)\CD09\04 - Streets Of Shame.wav

Pre-gap length 0:00:02.00

Peak level 99.9 %
Extraction speed 2.4 X
Track quality 99.9 %
Test CRC C538CC27
Copy CRC C538CC27
Accurately ripped (confidence 1) [A9DC06C6] (AR v2)
Copy OK

Track 5

Filename Z:\mnt\EVO840\EAC-RIPS\Earth and Fire - Memories (2017) [FLAC] (10CD BOX)\CD09\05 - Winds Of Change.wav

Pre-gap length 0:00:02.00

Peak level 99.9 %
Extraction speed 2.2 X
Track quality 99.9 %
Test CRC 88D1F4B6
Copy CRC 88D1F4B6
Accurately ripped (confidence 1) [894C030B] (AR v2)
Copy OK

Track 6

Filename Z:\mnt\EVO840\EAC-RIPS\Earth and Fire - Memories (2017) [FLAC] (10CD BOX)\CD09\06 - Bombay Calling.wav

Pre-gap length 0:00:02.00

Peak level 100.0 %
Extraction speed 3.1 X
Track quality 100.0 %
Test CRC 6923E414
Copy CRC 6923E414
Accurately ripped (confidence 1) [0229CF5E] (AR v2)
Copy OK

Track 7

Filename Z:\mnt\EVO840\EAC-RIPS\Earth and Fire - Memories (2017) [FLAC] (10CD BOX)\CD09\07 - No Stone Unturned.wav

Pre-gap length 0:00:02.00

Peak level 100.0 %
Extraction speed 2.4 X
Track quality 99.9 %
Test CRC 8E283132
Copy CRC 8E283132
Accurately ripped (confidence 1) [0CB2EA94] (AR v2)
Copy OK

Track 8

Filename Z:\mnt\EVO840\EAC-RIPS\Earth and Fire - Memories (2017) [FLAC] (10CD BOX)\CD09\08 - Dreaming.wav

Pre-gap length 0:00:02.00

Peak level 100.0 %
Extraction speed 3.4 X
Track quality 100.0 %
Test CRC 3786CFAD
Copy CRC 3786CFAD
Accurately ripped (confidence 1) [82C58301] (AR v2)
Copy OK

Track 9

Filename Z:\mnt\EVO840\EAC-RIPS\Earth and Fire - Memories (2017) [FLAC] (10CD BOX)\CD09\09 - French Word For Love.wav

Pre-gap length 0:00:02.00

Peak level 100.0 %
Extraction speed 3.3 X
Track quality 100.0 %
Test CRC 8A691E5C
Copy CRC 8A691E5C
Accurately ripped (confidence 1) [A5EBB656] (AR v2)
Copy OK

Track 10

Filename Z:\mnt\EVO840\EAC-RIPS\Earth and Fire - Memories (2017) [FLAC] (10CD BOX)\CD09\10 - Gemini.wav

Pre-gap length 0:00:02.00

Peak level 100.0 %
Extraction speed 2.6 X
Track quality 99.9 %
Test CRC 231E7AA0
Copy CRC 231E7AA0
Accurately ripped (confidence 1) [E0B6E55B] (AR v2)
Copy OK

Track 11

Filename Z:\mnt\EVO840\EAC-RIPS\Earth and Fire - Memories (2017) [FLAC] (10CD BOX)\CD09\11 - Incognito.wav

Pre-gap length 0:00:02.00

Peak level 100.0 %
Extraction speed 3.6 X
Track quality 100.0 %
Test CRC CE38560B
Copy CRC CE38560B
Accurately ripped (confidence 1) [0C779F92] (AR v2)
Copy OK

Track 12

Filename Z:\mnt\EVO840\EAC-RIPS\Earth and Fire - Memories (2017) [FLAC] (10CD BOX)\CD09\12 - Under A Burning Sky.wav

Pre-gap length 0:00:02.00

Peak level 100.0 %
Extraction speed 3.7 X
Track quality 100.0 %
Test CRC D535D7BB
Copy CRC D535D7BB
Accurately ripped (confidence 1) [DF55D0B5] (AR v2)
Copy OK


All tracks accurately ripped

No errors occurred

End of status report

==== Log checksum 44DED925FF518CCAC977D8B764B8E239C9224D4F02DEB33585A669292EC12C6D ====

[CUETools log; Date: 29.08.2017 20:18:22; Version: 2.1.4]
[CTDB TOCID: n0RLNKyYkVI3gV88f3OsLRR.W0c-] found.
Track | CTDB Status
1 | (9/9) Accurately ripped
2 | (9/9) Accurately ripped
3 | (9/9) Accurately ripped
4 | (9/9) Accurately ripped
5 | (9/9) Accurately ripped
6 | (9/9) Accurately ripped
7 | (9/9) Accurately ripped
8 | (9/9) Accurately ripped
9 | (9/9) Accurately ripped
10 | (9/9) Accurately ripped
11 | (9/9) Accurately ripped
12 | (9/9) Accurately ripped
[AccurateRip ID: 00185651-00df15c6-970bc80c] found.
Track [ CRC | V2 ] Status
01 [d8f64382|fd01ebe5] (0+3/3) Accurately ripped
02 [034782a1|a4d296b5] (0+3/3) Accurately ripped
03 [d8f1b064|9f952f5a] (0+3/3) Accurately ripped
04 [27b472bf|a9dc06c6] (0+3/3) Accurately ripped
05 [96f007c0|894c030b] (0+3/3) Accurately ripped
06 [648554d9|0229cf5e] (0+3/3) Accurately ripped
07 [93bec3f6|0cb2ea94] (0+3/3) Accurately ripped
08 [c73f6a5f|82c58301] (0+3/3) Accurately ripped
09 [d3b03c4e|a5ebb656] (0+3/3) Accurately ripped
10 [d818f320|e0b6e55b] (0+3/3) Accurately ripped
11 [98faadf8|0c779f92] (0+3/3) Accurately ripped
12 [0883707a|df55d0b5] (0+3/3) Accurately ripped

Track Peak [ CRC32 ] [W/O NULL] [ LOG ]
– 100,0 [A2590C3F] [520D3EA6]
01 100,0 [6F3250D4] [25679028] CRC32
02 100,0 [66D3BDA4] [A16ED05D] CRC32
03 100,0 [7089B42B] [91B2DE1C] CRC32
04 99,9 [C538CC27] [DF63EBE8] CRC32
05 99,9 [88D1F4B6] [9E9C7268] CRC32
06 100,0 [6923E414] [1A7E73D5] CRC32
07 100,0 [8E283132] [A29397EC] CRC32
08 100,0 [3786CFAD] [3728FA7D] CRC32
09 100,0 [8A691E5C] [EA044B15] CRC32
10 100,0 [231E7AA0] [6451C8A1] CRC32
11 100,0 [CE38560B] [0DF2135D] CRC32
12 100,0 [D535D7BB] [5A2DD4E4] CRC32

Earth And Fire - Memories (Complete Album Collection) [10CD Box Set] (2017)

CD 10: Earth and Fire - More Earth and Fire (2017)
EAC Rip | FLAC (tracks+.cue+log) - 406 MB | MP3 CBR 320 kbps (LAME 3.93) - 168 MB
Genre: Progressive Rock | RAR 3% Rec. | Label: Universal (572 579-2)

Tracklist:
01. Hazy Paradise
02. Mechanical Lover
03. Invitation
04. Song Of The Marching Children - Single Version
05. Storm And Thunder - Single Version
06. Lost Forever
07. Memories
08. From The End Till The Beginning
09. Tuffy The Cat
10. Fun
11. Thanks For The Love
12. Excerpts From To The World Of The Future
13. What Difference Does It Make
14. What Difference Does It Make - Instrumental
15. De Tijd Zegt Niets
16. Love Is An Ocean (promo 12 inch version)
17. Love Is An Ocean - Instrumental
18. Jerney’s Day-Offpic

Total time: 01:11:20

Exact Audio Copy V1.1 from 23. June 2015

EAC extraction logfile from 14. March 2017, 16:41

Earth and Fire / More Earth and Fire

Used drive : ATAPI iHBS112 2 Adapter: 2 ID: 0

Read mode : Secure
Utilize accurate stream : Yes
Defeat audio cache : Yes
Make use of C2 pointers : No

Read offset correction : 6
Overread into Lead-In and Lead-Out : No
Fill up missing offset samples with silence : Yes
Delete leading and trailing silent blocks : No
Null samples used in CRC calculations : Yes
Used interface : Installed external ASPI interface
Gap handling : Appended to previous track

Used output format : User Defined Encoder
Selected bitrate : 128 kBit/s
Quality : High
Add ID3 tag : No
Command line compressor : C:\Program Files (x86)\Exact Audio Copy\Flac\flac.exe
Additional command line options : -8 -V -T "ARTIST=%artist%" -T "TITLE=%title%" -T "ALBUM=%albumtitle%" -T "DATE=%year%" -T "TRACKNUMBER=%tracknr%" -T "TOTALTRACKS=%numtracks%" -T "GENRE=%genre%" -T "ALBUMARTIST=%albumartist%" -T "ALBUM ARTIST=%albumartist%" -T "COMMENT=EAC Secure Mode, Test & Copy, AccurateRip, FLAC -8" %source%


TOC of the extracted CD

Track | Start | Length | Start sector | End sector
––––––––––––––––––––––––––––-
1 | 0:00.00 | 3:48.09 | 0 | 17108
2 | 3:48.09 | 2:18.00 | 17109 | 27458
3 | 6:06.09 | 3:53.25 | 27459 | 44958
4 | 9:59.34 | 4:11.26 | 44959 | 63809
5 | 14:10.60 | 4:51.24 | 63810 | 85658
6 | 19:02.09 | 2:48.53 | 85659 | 98311
7 | 21:50.62 | 3:22.65 | 98312 | 113526
8 | 25:13.52 | 4:56.00 | 113527 | 135726
9 | 30:09.52 | 3:15.02 | 135727 | 150353
10 | 33:24.54 | 3:42.00 | 150354 | 167003
11 | 37:06.54 | 3:41.07 | 167004 | 183585
12 | 40:47.61 | 5:36.53 | 183586 | 208838
13 | 46:24.39 | 3:11.49 | 208839 | 223212
14 | 49:36.13 | 2:54.49 | 223213 | 236311
15 | 52:30.62 | 3:18.21 | 236312 | 251182
16 | 55:49.08 | 6:21.42 | 251183 | 279799
17 | 62:10.50 | 6:10.17 | 279800 | 307566
18 | 68:20.67 | 2:59.64 | 307567 | 321055


Track 1

Filename Z:\mnt\EVO840\EAC-RIPS\Earth and Fire - Memories (2017) [FLAC] (10CD BOX)\CD10\01 - Hazy Paradise.wav

Pre-gap length 0:00:02.00

Peak level 96.1 %
Extraction speed 2.2 X
Track quality 100.0 %
Test CRC 2D2710CD
Copy CRC 2D2710CD
Accurately ripped (confidence 1) [28D8D2C0] (AR v2)
Copy OK

Track 2

Filename Z:\mnt\EVO840\EAC-RIPS\Earth and Fire - Memories (2017) [FLAC] (10CD BOX)\CD10\02 - Mechanical Lover.wav

Pre-gap length 0:00:02.00

Peak level 100.0 %
Extraction speed 2.1 X
Track quality 100.0 %
Test CRC FFE346D6
Copy CRC FFE346D6
Accurately ripped (confidence 1) [57367867] (AR v2)
Copy OK

Track 3

Filename Z:\mnt\EVO840\EAC-RIPS\Earth and Fire - Memories (2017) [FLAC] (10CD BOX)\CD10\03 - Invitation.wav

Pre-gap length 0:00:02.00

Peak level 95.5 %
Extraction speed 2.5 X
Track quality 100.0 %
Test CRC 2EECD1EC
Copy CRC 2EECD1EC
Accurately ripped (confidence 1) [45615C12] (AR v2)
Copy OK

Track 4

Filename Z:\mnt\EVO840\EAC-RIPS\Earth and Fire - Memories (2017) [FLAC] (10CD BOX)\CD10\04 - Song Of The Marching Children - single version.wav

Pre-gap length 0:00:02.00

Peak level 99.2 %
Extraction speed 2.0 X
Track quality 99.9 %
Test CRC 49FE21DE
Copy CRC 49FE21DE
Accurately ripped (confidence 1) [48CC6320] (AR v2)
Copy OK

Track 5

Filename Z:\mnt\EVO840\EAC-RIPS\Earth and Fire - Memories (2017) [FLAC] (10CD BOX)\CD10\05 - Storm And Thunder - single version.wav

Pre-gap length 0:00:02.00

Peak level 99.9 %
Extraction speed 3.0 X
Track quality 100.0 %
Test CRC 5C8BE7A2
Copy CRC 5C8BE7A2
Accurately ripped (confidence 1) [6E3AD60A] (AR v2)
Copy OK

Track 6

Filename Z:\mnt\EVO840\EAC-RIPS\Earth and Fire - Memories (2017) [FLAC] (10CD BOX)\CD10\06 - Lost Forever.wav

Pre-gap length 0:00:02.00

Peak level 100.0 %
Extraction speed 2.9 X
Track quality 100.0 %
Test CRC 3CD74C1E
Copy CRC 3CD74C1E
Accurately ripped (confidence 1) [9A6FE21B] (AR v2)
Copy OK

Track 7

Filename Z:\mnt\EVO840\EAC-RIPS\Earth and Fire - Memories (2017) [FLAC] (10CD BOX)\CD10\07 - Memories.wav

Pre-gap length 0:00:01.73

Peak level 100.0 %
Extraction speed 2.2 X
Track quality 99.9 %
Test CRC B2DFBD9A
Copy CRC B2DFBD9A
Accurately ripped (confidence 1) [079716E2] (AR v2)
Copy OK

Track 8

Filename Z:\mnt\EVO840\EAC-RIPS\Earth and Fire - Memories (2017) [FLAC] (10CD BOX)\CD10\08 - From The End Till The Beginning.wav

Pre-gap length 0:00:02.00

Peak level 100.0 %
Extraction speed 3.4 X
Track quality 100.0 %
Test CRC 8C084CC5
Copy CRC 8C084CC5
Accurately ripped (confidence 1) [53BA6ED5] (AR v2)
Copy OK

Track 9

Filename Z:\mnt\EVO840\EAC-RIPS\Earth and Fire - Memories (2017) [FLAC] (10CD BOX)\CD10\09 - Tuffy The Cat.wav

Pre-gap length 0:00:02.00

Peak level 99.2 %
Extraction speed 3.3 X
Track quality 100.0 %
Test CRC 4748ABE2
Copy CRC 4748ABE2
Accurately ripped (confidence 1) [41C579F6] (AR v2)
Copy OK

Track 10

Filename Z:\mnt\EVO840\EAC-RIPS\Earth and Fire - Memories (2017) [FLAC] (10CD BOX)\CD10\10 - Fun.wav

Pre-gap length 0:00:02.00

Peak level 96.6 %
Extraction speed 3.5 X
Track quality 100.0 %
Test CRC 5E18C88A
Copy CRC 5E18C88A
Accurately ripped (confidence 1) [A19FE3F6] (AR v2)
Copy OK

Track 11

Filename Z:\mnt\EVO840\EAC-RIPS\Earth and Fire - Memories (2017) [FLAC] (10CD BOX)\CD10\11 - Thanks For The Love.wav

Pre-gap length 0:00:02.00

Peak level 100.0 %
Extraction speed 2.7 X
Track quality 99.9 %
Test CRC 67FC428F
Copy CRC 67FC428F
Accurately ripped (confidence 1) [37AFBED1] (AR v2)
Copy OK

Track 12

Filename Z:\mnt\EVO840\EAC-RIPS\Earth and Fire - Memories (2017) [FLAC] (10CD BOX)\CD10\12 - Exerpts From To The World Of The Future.wav

Pre-gap length 0:00:02.00

Peak level 93.9 %
Extraction speed 4.0 X
Track quality 100.0 %
Test CRC E08EA458
Copy CRC E08EA458
Accurately ripped (confidence 1) [BD6A6333] (AR v2)
Copy OK

Track 13

Filename Z:\mnt\EVO840\EAC-RIPS\Earth and Fire - Memories (2017) [FLAC] (10CD BOX)\CD10\13 - What Difference Does It Make.wav

Pre-gap length 0:00:02.00

Peak level 96.6 %
Extraction speed 3.9 X
Track quality 100.0 %
Test CRC 962E669D
Copy CRC 962E669D
Accurately ripped (confidence 1) [330AF428] (AR v2)
Copy OK

Track 14

Filename Z:\mnt\EVO840\EAC-RIPS\Earth and Fire - Memories (2017) [FLAC] (10CD BOX)\CD10\14 - What Difference Does It Make - instrumental.wav

Pre-gap length 0:00:02.00

Peak level 92.2 %
Extraction speed 3.8 X
Track quality 100.0 %
Test CRC 017F0AF3
Copy CRC 017F0AF3
Accurately ripped (confidence 1) [C0016CB1] (AR v2)
Copy OK

Track 15

Filename Z:\mnt\EVO840\EAC-RIPS\Earth and Fire - Memories (2017) [FLAC] (10CD BOX)\CD10\15 - De Tijd Zegt Niets.wav

Pre-gap length 0:00:02.00

Peak level 84.1 %
Extraction speed 4.0 X
Track quality 100.0 %
Test CRC 694C9561
Copy CRC 694C9561
Accurately ripped (confidence 1) [8BB2D99C] (AR v2)
Copy OK

Track 16

Filename Z:\mnt\EVO840\EAC-RIPS\Earth and Fire - Memories (2017) [FLAC] (10CD BOX)\CD10\16 - Love Is An Ocean.wav

Pre-gap length 0:00:02.00

Peak level 99.9 %
Extraction speed 4.5 X
Track quality 100.0 %
Test CRC FA1B4B08
Copy CRC FA1B4B08
Accurately ripped (confidence 1) [794E079D] (AR v2)
Copy OK

Track 17

Filename Z:\mnt\EVO840\EAC-RIPS\Earth and Fire - Memories (2017) [FLAC] (10CD BOX)\CD10\17 - Love Is An Ocean - instrumental.wav

Pre-gap length 0:00:02.00

Peak level 99.9 %
Extraction speed 4.7 X
Track quality 100.0 %
Test CRC 91FCA4EB
Copy CRC 91FCA4EB
Accurately ripped (confidence 1) [27953D50] (AR v2)
Copy OK

Track 18

Filename Z:\mnt\EVO840\EAC-RIPS\Earth and Fire - Memories (2017) [FLAC] (10CD BOX)\CD10\18 - Jerney's Day-Off.wav

Pre-gap length 0:00:02.00

Peak level 94.8 %
Extraction speed 4.3 X
Track quality 100.0 %
Test CRC D0E2C83D
Copy CRC D0E2C83D
Accurately ripped (confidence 1) [C3C8425D] (AR v2)
Copy OK


All tracks accurately ripped

No errors occurred

End of status report

==== Log checksum D32F47904BB3831D4E9FE5B6072504171A73F78B50F485B83D5A189CAA518909 ====

[CUETools log; Date: 29.08.2017 20:19:07; Version: 2.1.4]
[CTDB TOCID: 2H5f_h01sdsR6YUjIWvZjjfh1xU-] found.
Track | CTDB Status
1 | (9/9) Accurately ripped
2 | (9/9) Accurately ripped
3 | (9/9) Accurately ripped
4 | (9/9) Accurately ripped
5 | (9/9) Accurately ripped
6 | (9/9) Accurately ripped
7 | (9/9) Accurately ripped
8 | (9/9) Accurately ripped
9 | (9/9) Accurately ripped
10 | (9/9) Accurately ripped
11 | (9/9) Accurately ripped
12 | (9/9) Accurately ripped
13 | (9/9) Accurately ripped
14 | (9/9) Accurately ripped
15 | (9/9) Accurately ripped
16 | (9/9) Accurately ripped
17 | (9/9) Accurately ripped
18 | (9/9) Accurately ripped
[AccurateRip ID: 002c7c94-02577a42-dd10b812] found.
Track [ CRC | V2 ] Status
01 [bc61562b|28d8d2c0] (0+3/3) Accurately ripped
02 [6c0d6a31|57367867] (0+3/3) Accurately ripped
03 [7446b340|45615c12] (0+3/3) Accurately ripped
04 [8d7da20e|48cc6320] (0+3/3) Accurately ripped
05 [1d609723|6e3ad60a] (0+3/3) Accurately ripped
06 [5009e468|9a6fe21b] (0+3/3) Accurately ripped
07 [cbb7751d|079716e2] (0+3/3) Accurately ripped
08 [4e6da960|53ba6ed5] (0+3/3) Accurately ripped
09 [fa2621b0|41c579f6] (0+3/3) Accurately ripped
10 [c5496047|a19fe3f6] (0+3/3) Accurately ripped
11 [7e68e12d|37afbed1] (0+3/3) Accurately ripped
12 [e0dcf5a2|bd6a6333] (0+3/3) Accurately ripped
13 [598b280d|330af428] (0+3/3) Accurately ripped
14 [fdf07a99|c0016cb1] (0+3/3) Accurately ripped
15 [2ba61bc8|8bb2d99c] (0+3/3) Accurately ripped
16 [19d28da4|794e079d] (0+3/3) Accurately ripped
17 [cced9904|27953d50] (0+3/3) Accurately ripped
18 [f528d25a|c3c8425d] (0+3/3) Accurately ripped

Track Peak [ CRC32 ] [W/O NULL] [ LOG ]
– 100,0 [754927C8] [FCE1F1DE]
01 96,1 [2D2710CD] [525AFA29] CRC32
02 100,0 [FFE346D6] [0C5B1432] CRC32
03 95,5 [2EECD1EC] [D18260C4] CRC32
04 99,2 [49FE21DE] [4CED9EF8] CRC32
05 99,9 [5C8BE7A2] [E47B0974] CRC32
06 100,0 [3CD74C1E] [BEDDA047] CRC32
07 100,0 [B2DFBD9A] [36745D6F] CRC32
08 100,0 [8C084CC5] [4727B4A9] CRC32
09 99,2 [4748ABE2] [0D599037] CRC32
10 96,6 [5E18C88A] [94C55FAC] CRC32
11 99,9 [67FC428F] [DB32C751] CRC32
12 93,9 [E08EA458] [E43ED86E] CRC32
13 96,6 [962E669D] [7981EBEB] CRC32
14 92,2 [017F0AF3] [C2C59E64] CRC32
15 84,1 [694C9561] [03E80117] CRC32
16 99,9 [FA1B4B08] [6FC5D65D] CRC32
17 99,9 [91FCA4EB] [7D951B9A] CRC32
18 94,8 [D0E2C83D] [4B650FEF] CRC32

Thanks to the original releaser