Subcategories

East Of Eden - Another Eden (1975) [Reissue 2011]

Posted By: antonyart
East Of Eden - Another Eden (1975) [Reissue 2011]

East Of Eden - Another Eden (1975) [Reissue 2011]
EAC Rip | FLAC (IMG+CUE+LOG) | 475 MB | Complete HQ Scans 600 dpi JPG included | MP3 Lame 320 CBR | 174 MB
Genre: Progressive Rock | RAR 5% Rec. | Label: Flawed Gems (GEM 70) | Uploaded, Depositfiles

It may be hard to believe, but this is the CD premiere of this little-known, underrated, but quite important 5th release from such an amazing British progressive band! it was recorded in February 1974 (a whole year after violinist Dave Arbus departure, and now with Jo O'Donnell from Irish folk-rock band Mushroom on board) but released a whole year later by German Harvest label in striking, nude cover. Without a doubt it deserves for recognition. The band has offered a varied and well-arranged progressive-jazz-blues-rock songs stylistically similar to some of the tracks from the previous two albums (from 1971), but done in somewhat simpler and more consistent form. This CD has been expanded with many rare & unreleased live tracks!
East Of Eden - Another Eden (1975) [Reissue 2011]

Tracklist:

01. Mandarin's Daughter 03:45
02. Hey Zimmerman 04:01
03. Kensington Cowboy 03:06
04. Catalina Troubour 03:55
05. What's Happening 05:51
06. Summer Days 03:32
07. Hey Baby 05:00
08. Fancy Nancy 03:43
09. Sin City Girls (UK Single A-side, 1973) 03:37
10. All Our Yesterdays (UK Single B-side, 1973) 02:47
11. Kensington Cowboy (BBC Session, July 1973) 03:06
12. To Mrs. V (BBC Session, May 1971) 04:39
13. Wonderful Feeling (BBC Session, May 1971) 05:49
14. Brand New Day 04:49
15. Wonderful Feeling 04:12
16. Instrumental 04:04
17. What Can I Do 02:57
18. She Wants Your Love 04:46
19. Instrumental Jig 02:04

01.-08. Recorded in February 1974
09.-13. Bonus tracks (Recorded as indicated)
14.-19. Special live bonus tracks (Germany 1972)

Total: 76:06

Exact Audio Copy V1.0 beta 3 from 29. August 2011

EAC extraction logfile from 1. December 2012, 0:13

East Of Eden / Another Eden

Used drive : HL-DT-STDVDRAM GT34N Adapter: 0 ID: 2

Read mode : Secure
Utilize accurate stream : Yes
Defeat audio cache : Yes
Make use of C2 pointers : No

Read offset correction : 103
Overread into Lead-In and Lead-Out : No
Fill up missing offset samples with silence : Yes
Delete leading and trailing silent blocks : No
Null samples used in CRC calculations : Yes
Used interface : Native Win32 interface for Win NT & 2000

Used output format : User Defined Encoder
Selected bitrate : 896 kBit/s
Quality : High
Add ID3 tag : Yes
Command line compressor : C:\Program Files (x86)\Exact Audio Copy\FLAC\FLAC.EXE
Additional command line options : -6 -V -T "ARTIST=%artist%" -T "TITLE=%title%" -T "ALBUM=%albumtitle%" -T "DATE=%year%" -T "TRACKNUMBER=%tracknr%" -T "GENRE=%genre%" -T "COMMENT=%comment%" -T "BAND=%albuminterpret%" -T "ALBUMARTIST=%albuminterpret%" -T "COMPOSER=%composer%" %haslyrics%–tag-from-file=LYRICS="%lyricsfile%"%haslyrics% -T "DISCNUMBER=%cdnumber%" -T "TOTALDISCS=%totalcds%" -T "TOTALTRACKS=%numtracks%" %hascover%–picture="%coverfile%"%hascover% %source% -o %dest%


TOC of the extracted CD

Track | Start | Length | Start sector | End sector
––––––––––––––––––––––––––––-
1 | 0:00.00 | 3:46.58 | 0 | 17007
2 | 3:46.58 | 4:03.05 | 17008 | 35237
3 | 7:49.63 | 3:08.02 | 35238 | 49339
4 | 10:57.65 | 3:56.21 | 49340 | 67060
5 | 14:54.11 | 5:52.57 | 67061 | 93517
6 | 20:46.68 | 3:33.35 | 93518 | 109527
7 | 24:20.28 | 5:02.02 | 109528 | 132179
8 | 29:22.30 | 3:47.23 | 132180 | 149227
9 | 33:09.53 | 3:38.69 | 149228 | 165646
10 | 36:48.47 | 2:48.15 | 165647 | 178261
11 | 39:36.62 | 3:07.62 | 178262 | 192348
12 | 42:44.49 | 4:38.43 | 192349 | 213241
13 | 47:23.17 | 5:50.52 | 213242 | 239543
14 | 53:13.69 | 4:49.57 | 239544 | 261275
15 | 58:03.51 | 4:12.08 | 261276 | 280183
16 | 62:15.59 | 4:03.59 | 280184 | 298467
17 | 66:19.43 | 2:57.00 | 298468 | 311742
18 | 69:16.43 | 4:45.74 | 311743 | 333191
19 | 74:02.42 | 2:03.33 | 333192 | 342449


Range status and errors

Selected range

Filename D:\FLAC\EAST OF EDEN -75- Another Eden\East Of Eden - Another Eden.wav

Peak level 100.0 %
Extraction speed 2.2 X
Range quality 99.9 %
Test CRC B2569D99
Copy CRC B2569D99
Copy OK

No errors occurred


AccurateRip summary

Track 1 not present in database
Track 2 not present in database
Track 3 not present in database
Track 4 not present in database
Track 5 not present in database
Track 6 not present in database
Track 7 not present in database
Track 8 not present in database
Track 9 not present in database
Track 10 not present in database
Track 11 not present in database
Track 12 not present in database
Track 13 not present in database
Track 14 not present in database
Track 15 not present in database
Track 16 not present in database
Track 17 not present in database
Track 18 not present in database
Track 19 not present in database

None of the tracks are present in the AccurateRip database

End of status report

==== Log checksum 5C490442765520BD50885F236F9D49AC0CDD7899511E132F4C9F225E66CAA5E8 ====

foobar2000 1.1.9 / Dynamic Range Meter 1.1.1
log date: 2013-02-05 09:40:00

––––––––––––––––––––––––––––––––––––––––
Analyzed: East Of Eden / Another Eden
––––––––––––––––––––––––––––––––––––––––

DR Peak RMS Duration Track
––––––––––––––––––––––––––––––––––––––––
DR7 -0.20 dB -9.35 dB 3:47 01-Mandarin's Daughter
DR8 -0.20 dB -9.62 dB 4:03 02-Hey Zimmerman
DR9 -0.20 dB -11.16 dB 3:08 03-Kensington Cowboy
DR8 -0.20 dB -9.68 dB 3:56 04-Catalina Troubadour
DR9 -0.20 dB -11.03 dB 5:53 05-What's Happening
DR8 -0.03 dB -9.94 dB 3:33 06-Summer Days
DR8 -0.20 dB -10.29 dB 5:02 07-Hey Baby
DR9 -0.20 dB -11.27 dB 3:47 08-Fancy Nancy
DR6 -0.10 dB -8.50 dB 3:39 09-Sin City Girls [UK Single, 1973]
DR8 -0.10 dB -10.91 dB 2:48 10-All Our Yesterdays [UK Single, 1973]
DR8 -0.20 dB -9.60 dB 3:08 11-Kensington Cowboy [BBC Session, 1973]
DR8 -0.20 dB -8.90 dB 4:39 12-To Mrs. V [BBC Session, 1971]
DR8 -0.20 dB -10.02 dB 5:51 13-Wonderful Feeling [BBC Session, 1971]
DR7 -0.12 dB -9.08 dB 4:50 14-Brand New Day [Live Germany, 1972]
DR7 0.00 dB -9.24 dB 4:12 15-Wonderful Feeling [Live Germany, 1972]
DR8 -0.20 dB -10.98 dB 4:04 16-Instrumental [Live Germany, 1972]
DR6 -0.15 dB -7.40 dB 2:57 17-What Can I Do [Live Germany, 1972]
DR9 -0.20 dB -12.57 dB 4:46 18-She Wants Your Love [Live Germany, 1972]
DR7 0.00 dB -9.33 dB 2:03 19-Instrumental Jig [Live Germany, 1972]
––––––––––––––––––––––––––––––––––––––––

Number of tracks: 19
Official DR value: DR8

Samplerate: 44100 Hz
Channels: 2
Bits per sample: 16
Bitrate: 854 kbps
Codec: FLAC
================================================================================

The music of the turn of the 60 - and 70-these can say almost anything, but certainly not that it was boring and uninteresting. The fifth album (and yes with hand at heart - last really good)
recorded in February 1974 in Escape Studios, Smarden, Kent,but released a year later,only the German effort EMI Harvest.
In March 1974 the musicians finish work on a new album, in which he helped them to Jeff Beck.
-Martin Fisher - "Mr. Beck, lived closely, and came by the studio, in Kent, most days"
-Jeff Allen - "The engineer Tony Taverner also worked a lot with Jeff Beck who dropped in now and then when we were recording."
The session finishes a month later, in March 1974 (info from New Musical Express). But the group aren't content with their work :
- Joe O'Donnell - "At the end of the session, we put all the material for the development of the … Colon Music. (?) But we were not satisfied with their work and release the LP is paused."
- Martin Fisher - "Actually, we were not happy with the album. Should write and record more material, more fine-tune it, but it was pressure from the label, although the album, in our opinion
was not yet ready."
Recordings wander on the shelf, to be released officially on sale in 1975, the LP "Another Eden" EMI Harvest (C06297101). The team suspended operations, and individual musicians centered on
their private activities.
This LP, however, only shows itself in Germany. Jeff Allen remembers edition of the album: "Another Eden. We did not have control over the release of the album. Decisive factor for the label. Did
not have any bearing on the cover of which is" Nicky Debus. "Then it was my girlfriend."(Under the pseudonym, Nicky Debus, hiding Nicky Coleman, who in the mid-70s participated in numerous
photo shoots for female nudes.)
New songs have been little to do with jazz-rock and oriental variations from the "Mercator Projected". But no one thought about it in the meantime to take care of the new the corresponding music .

from Adamus67

East Of Eden - Another Eden (1975) [Reissue 2011]


This CD is from my personal collection. My original rip & my scan work.
>> here is my blog with all my rips <<
Please, do not mirror these links at any web pages.
FLAC + HQ 600 dpi complete scans:

Uploaded

Depositfiles

MP3 + 300 dpi front/back cover scans:

Uploaded

Depositfiles


Password: Ant