Tags
Language
Tags

Eddy Grant - Barefoot Soldier (1990)

Posted By: popsakov
Eddy Grant - Barefoot Soldier (1990)

Eddy Grant - Barefoot Soldier (1990)
EAC Rip | FLAC (Img) + Cue + Log ~ 353 Mb | MP3 CBR320 ~ 143 Mb
Full Scans | 00:49:38 | RAR 5% Recovery
Pop Rock, Reggae-Pop | Enigma Records / ICE Records #773561-2

Eddy Grant has often been categorized as a reggae singer, but reggae is only a part of what he's done. In fact, Grant's best known hit, "Electric Avenue," awasn't reggae at all. On this inspired and unpredictable CD, the British singer successfully embraces everything from reggae-pop ("Talk About You," "Welcome To La Tiger") to guitar-powered rock ("Wildcat," "I'm Not Alone Tonight") to country-rock ("Sweet On The Road"). With its haunting acoustic guitar, the title song has a Neil Young-ish appeal. But the album's best song of all is "Gimme Hope Jo'Anna," a indictment of South Africa's cruel apartheid system. Quite enjoyable, Barefoot Soldier was a welcome addition to Grant's catalog.

~ Alex Henderson, All Music

***************

Eddy Grant - Barefoot Soldier (1990)

Eddy Grant - Barefoot Soldier (1990)

Track List:

01. Gimme Hope Jo'Anna [3:49]
02. Restless World [4:02]
03. Barefoot Soldier [4:33]
04. Welcome to La Tigre [4:02]
05. We Got to Work It Out [3:54]
06. The Youth Tom Tom [4:30]
07. You Just Found My Weakness [3:45]
08. Talk About Love [5:04]
09. Eulogy for a Living Man [3:53]
10. I'm Not Alone Tonight [4:25]
11. Wildcat [3:41]
12. Sweet on the Road [3:58]

Exact Audio Copy V1.3 from 2. September 2016

Отчёт EAC об извлечении, выполненном 4. мая 2018, 6:23

Eddy Grant / Barefoot Soldier

Дисковод: HL-DT-STDVD+-RW GH82N Adapter: 1 ID: 0

Режим чтения : Достоверность
Использование точного потока : Да
Отключение кэша аудио : Да
Использование указателей C2 : Нет

Коррекция смещения при чтении : 667
Способность читать области Lead-in и Lead-out : Нет
Заполнение пропущенных сэмплов тишиной : Да
Удаление блоков с тишиной в начале и конце : Нет
При вычислениях CRC использовались нулевые сэмплы : Да
Интерфейс : Встроенный Win32-интерфейс для Win NT/2000

Выходной формат : Пользовательский кодировщик
Выбранный битрейт : 1024 kBit/s
Качество : Высокий
Добавление ID3-тега : Нет
Утилита сжатия : C:\Program Files (x86)\Exact Audio Copy\FLAC\FLAC.EXE
Дополнительные параметры : -8 -V -T "ARTIST=%artist%" -T "ALBUM=%albumtitle%" -T "DATE=%year%" -T "GENRE=%genre%" -T "COMMENT=ripped by izia1956" %source%


TOC извлечённого CD

Трек | Старт | Длительность | Начальный сектор | Конечный сектор
––––––––––––––––––––––––––––––––––-
1 | 0:00.27 | 3:49.35 | 27 | 17236
2 | 3:49.62 | 4:02.15 | 17237 | 35401
3 | 7:52.02 | 4:32.58 | 35402 | 55859
4 | 12:24.60 | 4:02.17 | 55860 | 74026
5 | 16:27.02 | 3:54.18 | 74027 | 91594
6 | 20:21.20 | 4:30.17 | 91595 | 111861
7 | 24:51.37 | 3:45.00 | 111862 | 128736
8 | 28:36.37 | 5:04.15 | 128737 | 151551
9 | 33:40.52 | 3:52.50 | 151552 | 169001
10 | 37:33.27 | 4:25.28 | 169002 | 188904
11 | 41:58.55 | 3:41.32 | 188905 | 205511
12 | 45:40.12 | 3:58.03 | 205512 | 223364


Характеристики диапазона извлечения и сообщения об ошибках

Выбранный диапазон

Имя файла E:\BitComet\Eddy Grant\1990 - Barefoot Soldier\Eddy Grant - Barefoot Soldier.wav

Пиковый уровень 100.0 %
Скорость извлечения 3.2 X
Качество диапазона 100.0 %
CRC теста 5077F6ED
CRC копии 5077F6ED
Копирование… OK

Ошибок не произошло


AccurateRip: сводка

Трек 1 : извлечено точно (доверие 7) [78B52685] (AR v2)
Трек 2 : извлечено точно (доверие 7) [2BD9F333] (AR v2)
Трек 3 : извлечено точно (доверие 7) [33FC8370] (AR v2)
Трек 4 : извлечено точно (доверие 7) [C1E6C78B] (AR v2)
Трек 5 : извлечено точно (доверие 7) [DCAFA9BC] (AR v2)
Трек 6 : извлечено точно (доверие 7) [27D0C8A0] (AR v2)
Трек 7 : извлечено точно (доверие 7) [036AF6F0] (AR v2)
Трек 8 : извлечено точно (доверие 7) [594E5209] (AR v2)
Трек 9 : извлечено точно (доверие 7) [79B2BBAB] (AR v2)
Трек 10 : извлечено точно (доверие 7) [6F2E5450] (AR v2)
Трек 11 : извлечено точно (доверие 7) [1216ACF8] (AR v2)
Трек 12 : извлечено точно (доверие 7) [BAAD7FCF] (AR v2)

Все треки извлечены точно

Конец отчёта

==== Контрольная сумма отчёта 5680DBFB98458AC5CA31313A8FE99C0953006A7FFA8ABFC97E6EA0D189A1BD50 ====

[CUETools log; Date: 14.12.2018 13:01:36; Version: 2.1.6]
Pregap length 00:00:27.
[CTDB TOCID: iMkgjRRh4zBYqsSijzY2Of945BY-] found.
Track | CTDB Status
1 | (13/13) Accurately ripped
2 | (13/13) Accurately ripped
3 | (13/13) Accurately ripped
4 | (13/13) Accurately ripped
5 | (13/13) Accurately ripped
6 | (13/13) Accurately ripped
7 | (13/13) Accurately ripped
8 | (13/13) Accurately ripped
9 | (13/13) Accurately ripped
10 | (13/13) Accurately ripped
11 | (13/13) Accurately ripped
12 | (13/13) Accurately ripped
[AccurateRip ID: 00162c1b-00cf7f96-980ba20c] found.
Track [ CRC | V2 ] Status
01 [b838661d|78b52685] (03+07/10) Accurately ripped
02 [87b19c94|2bd9f333] (03+07/10) Accurately ripped
03 [da4de63a|33fc8370] (03+07/10) Accurately ripped
04 [dcf79872|c1e6c78b] (03+07/10) Accurately ripped
05 [749e58ba|dcafa9bc] (03+07/10) Accurately ripped
06 [afee2bb8|27d0c8a0] (03+07/10) Accurately ripped
07 [dd516bbf|036af6f0] (03+07/10) Accurately ripped
08 [59556200|594e5209] (03+07/10) Accurately ripped
09 [2b23f7c4|79b2bbab] (03+07/10) Accurately ripped
10 [fdb7b288|6f2e5450] (03+07/10) Accurately ripped
11 [33db7375|1216acf8] (03+07/10) Accurately ripped
12 [2ffe6388|baad7fcf] (03+07/10) Accurately ripped

Track Peak [ CRC32 ] [W/O NULL] [ LOG ]
– 100,0 [5077F6ED] [FB9EB88A] CRC32
01 89,4 [69781917] [03619A12]
02 88,2 [8BF99183] [0115ECDE]
03 100,0 [2FA76B85] [73FF36E0]
04 100,0 [B0F0AB49] [CF4D742E]
05 89,9 [63A9C3B5] [19E35652]
06 100,0 [C177CE72] [A799A44B]
07 95,8 [F551A984] [C0C56983]
08 97,1 [4C966572] [E159EB56]
09 100,0 [60D9135F] [0B87DD27]
10 97,5 [148BCE7D] [FDE0D567]
11 90,1 [06DE7719] [7CCA6C09]
12 90,6 [A0251C8E] [BB9991ED]

Eddy Grant - Barefoot Soldier (1990)


All thanks go to izia1956

>>> Eddy Grant in my Blog <<<

DOWNLOAD: