Tags
Language
Tags

Eddy Grant - Going For Broke (1984)

Posted By:
Eddy Grant - Going For Broke (1984)

Eddy Grant - Going For Broke (1984)
EAC Rip | FLAC (Img) + Cue + Log ~ 288 Mb | MP3 CBR320 ~ 123 Mb
Full Scans | 00:39:30 | RAR 5% Recovery
Reggae-Pop, Synth-Pop, Funk | ICE Records / Portrait #RK 39261

Going for Broke is a 1984 album by Eddy Grant. Following the major success of the previous Killer on the Rampage, this album takes a similar approach but was not as successful. It featured the U.S. hit "Romancing the Stone", as well as the singles "Till I Can't Take Love No More" and "Boys in the Street". "Romancing the Stone" was intended for the 1984 feature film of the same name, in fact was announced by Casey Kasem on the 30 June 1984 edition of American Top 40 as the title song to the movie, but ultimately was not used, though clips from the film appeared in the song's music video, and the song is mentioned in the film's closing credits.

***************

Eddy Grant - Going For Broke (1984)

Eddy Grant - Going For Broke (1984)

Track List:

01. Romancing the Stone [4:54]
02. Boys in the Street [4:17]
03. Come On Let Me Love You [3:40]
04. Till I Can't Take Love No More [2:47]
05. Political Bassa-Bassa [5:06]
06. Telepathy [3:37]
07. Only Heaven Knows [3:56]
08. Ire Harry [4:05]
09. Rock You Good [3:06]
10. Blue Wave [4:01]

Exact Audio Copy V1.3 from 2. September 2016

Отчёт EAC об извлечении, выполненном 29. мая 2018, 19:34

Eddy Grant / Going for Broke

Дисковод: HL-DT-STDVD+-RW GH82N Adapter: 1 ID: 0

Режим чтения : Достоверность
Использование точного потока : Да
Отключение кэша аудио : Да
Использование указателей C2 : Нет

Коррекция смещения при чтении : 667
Способность читать области Lead-in и Lead-out : Нет
Заполнение пропущенных сэмплов тишиной : Да
Удаление блоков с тишиной в начале и конце : Нет
При вычислениях CRC использовались нулевые сэмплы : Да
Интерфейс : Встроенный Win32-интерфейс для Win NT/2000

Выходной формат : Пользовательский кодировщик
Выбранный битрейт : 1024 kBit/s
Качество : Высокий
Добавление ID3-тега : Нет
Утилита сжатия : C:\Program Files (x86)\Exact Audio Copy\FLAC\FLAC.EXE
Дополнительные параметры : -8 -V -T "ARTIST=%artist%" -T "ALBUM=%albumtitle%" -T "DATE=%year%" -T "GENRE=%genre%" -T "COMMENT=ripped by izia1956" %source%


TOC извлечённого CD

Трек | Старт | Длительность | Начальный сектор | Конечный сектор
––––––––––––––––––––––––––––––––––-
1 | 0:00.00 | 4:54.00 | 0 | 22049
2 | 4:54.00 | 4:17.25 | 22050 | 41349
3 | 9:11.25 | 3:39.62 | 41350 | 57836
4 | 12:51.12 | 2:47.10 | 57837 | 70371
5 | 15:38.22 | 5:06.05 | 70372 | 93326
6 | 20:44.27 | 3:37.10 | 93327 | 109611
7 | 24:21.37 | 3:55.68 | 109612 | 127304
8 | 28:17.30 | 4:05.12 | 127305 | 145691
9 | 32:22.42 | 3:06.33 | 145692 | 159674
10 | 35:29.00 | 4:01.12 | 159675 | 177761


Характеристики диапазона извлечения и сообщения об ошибках

Выбранный диапазон

Имя файла E:\BitComet\Eddy Grant\1984 - Going for Broke\Eddy Grant - Going for Broke.wav

Пиковый уровень 81.1 %
Скорость извлечения 2.9 X
Качество диапазона 99.9 %
CRC теста B1983F50
CRC копии B1983F50
Копирование… OK

Ошибок не произошло


AccurateRip: сводка

Трек 1 : извлечено точно (доверие 2) [321986C6] (AR v1)
Трек 2 : извлечено точно (доверие 2) [8BDD667F] (AR v1)
Трек 3 : извлечено точно (доверие 2) [859BEC87] (AR v1)
Трек 4 : извлечено точно (доверие 2) [EFE93162] (AR v1)
Трек 5 : извлечено точно (доверие 2) [C962356A] (AR v1)
Трек 6 : извлечено точно (доверие 2) [2753B72A] (AR v1)
Трек 7 : извлечено точно (доверие 2) [7E59FE38] (AR v1)
Трек 8 : извлечено точно (доверие 2) [7013BFA8] (AR v1)
Трек 9 : извлечено точно (доверие 2) [23034E93] (AR v1)
Трек 10 : извлечено точно (доверие 2) [63B90FBA] (AR v1)

Все треки извлечены точно

Конец отчёта

==== Контрольная сумма отчёта 07639D47CA8B571E574FA9CDDBF8E14A8A7528D5757CF1219959ECCB25561610 ====

Eddy Grant - Going For Broke (1984)


All thanks go to izia1956

>>> Eddy Grant in my Blog <<<

DOWNLOAD: