Tags
Language
Tags

Eddy Grant - Reparation (2005)

Posted By: popsakov
Eddy Grant - Reparation (2005)

Eddy Grant - Reparation (2005)
EAC Rip | FLAC (Img) + Cue + Log ~ 426 Mb | MP3 CBR320 ~ 164 Mb
Full Scans | 00:55:42 | RAR 5% Recovery
Reggae-Pop, R&B | ICE Records / Greenheart Music Ltd. #780563950027

Showing no signs of growing old and clamping down, Eddy Grant boldly titles his 2006 release Reparation, a call for restitution for the transatlantic slave trade. Fittingly, the title cut is the album's key track, with Grant urgently crying out for answers over a frantic, synthetic soca beat while crunching guitars remind everyone that this is the man who cranked out the glorious rock-reggae-dance blends "Electric Avenue" and "Living on the Front Line." Of course, he's also the man who wrote and recorded "Baby Come Back" and "Romancing the Stone," sunny and light tracks of which the easygoing "Everything Irie" brings reminders. The advantage the songs on Reparation have over these old chestnuts from over two decades ago is that, left to his own devices and recording for his own Ice/Ringbang label, Grant doesn't have to make the production overly glossy or pander in any other way to a major label. This makes the embarrassing and desperate "Everybody Rappin'" – which does the usual "what's with these kids today and their music?" shtick – all the more frustrating, especially when compared to the trilogy of poignant and sure songs ending the album. Minus "Everybody Rappin'," Reparation stands with the best of Grant's early work and proves that the Ringbang Man can age gracefully without losing his edge.

~ David Jeffries, All Music

***************

Eddy Grant - Reparation (2005)

Track List:

01. Concern Number One [4:15]
02. Everything Irie [3:56]
03. Everybody Rappin' [3:34]
04. (Gotta Be) Positive [3:41]
05. The Struggle [4:10]
06. Reparation [4:27]
07. Ringbang Man [4:03]
08. Tit for Tat [4:46]
09. Long Night [4:36]
10. Going Back Deh [4:34]
11. Love Weself [4:25]
12. Free My Soul [4:06]
13. Jesus Got A Face [5:10]

Exact Audio Copy V1.3 from 2. September 2016

Отчёт EAC об извлечении, выполненном 3. мая 2018, 8:42

Eddy Grant / Reparation

Дисковод: HL-DT-STDVD+-RW GH82N Adapter: 1 ID: 0

Режим чтения : Достоверность
Использование точного потока : Да
Отключение кэша аудио : Да
Использование указателей C2 : Нет

Коррекция смещения при чтении : 667
Способность читать области Lead-in и Lead-out : Нет
Заполнение пропущенных сэмплов тишиной : Да
Удаление блоков с тишиной в начале и конце : Нет
При вычислениях CRC использовались нулевые сэмплы : Да
Интерфейс : Встроенный Win32-интерфейс для Win NT/2000

Выходной формат : Пользовательский кодировщик
Выбранный битрейт : 1024 kBit/s
Качество : Высокий
Добавление ID3-тега : Нет
Утилита сжатия : C:\Program Files (x86)\Exact Audio Copy\FLAC\FLAC.EXE
Дополнительные параметры : -8 -V -T "ARTIST=%artist%" -T "ALBUM=%albumtitle%" -T "DATE=%year%" -T "GENRE=%genre%" -T "COMMENT=ripped by izia1956" %source%


TOC извлечённого CD

Трек | Старт | Длительность | Начальный сектор | Конечный сектор
––––––––––––––––––––––––––––––––––-
1 | 0:00.00 | 4:14.48 | 0 | 19097
2 | 4:14.48 | 3:56.15 | 19098 | 36812
3 | 8:10.63 | 3:33.60 | 36813 | 52847
4 | 11:44.48 | 3:40.67 | 52848 | 69414
5 | 15:25.40 | 4:10.03 | 69415 | 88167
6 | 19:35.43 | 4:26.65 | 88168 | 108182
7 | 24:02.33 | 4:03.27 | 108183 | 126434
8 | 28:05.60 | 4:45.38 | 126435 | 147847
9 | 32:51.23 | 4:35.60 | 147848 | 168532
10 | 37:27.08 | 4:33.67 | 168533 | 189074
11 | 42:01.00 | 4:25.20 | 189075 | 208969
12 | 46:26.20 | 4:05.55 | 208970 | 227399
13 | 50:32.00 | 5:10.05 | 227400 | 250654


Характеристики диапазона извлечения и сообщения об ошибках

Выбранный диапазон

Имя файла E:\BitComet\Eddy Grant\2005 - Reparation\Eddy Grant - Reparation.wav

Пиковый уровень 97.3 %
Скорость извлечения 3.3 X
Качество диапазона 100.0 %
CRC теста 146216A2
CRC копии 146216A2
Копирование… OK

Ошибок не произошло


AccurateRip: сводка

Трек 1 : извлечено точно (доверие 1) [01A61B72] (AR v2)
Трек 2 : извлечено точно (доверие 1) [B7F1BAAE] (AR v2)
Трек 3 : извлечено точно (доверие 1) [B5A002DA] (AR v2)
Трек 4 : извлечено точно (доверие 1) [61CB3F4F] (AR v2)
Трек 5 : извлечено точно (доверие 1) [27405B9B] (AR v2)
Трек 6 : извлечено точно (доверие 1) [3B0A11AA] (AR v2)
Трек 7 : извлечено точно (доверие 1) [3C93CFE1] (AR v2)
Трек 8 : извлечено точно (доверие 1) [C07D1050] (AR v2)
Трек 9 : извлечено точно (доверие 1) [E1EFA7E3] (AR v2)
Трек 10 : извлечено точно (доверие 1) [8DA2BB76] (AR v2)
Трек 11 : извлечено точно (доверие 1) [8D79A23B] (AR v2)
Трек 12 : извлечено точно (доверие 1) [CC230B7E] (AR v2)
Трек 13 : извлечено точно (доверие 1) [C6CF9013] (AR v2)

Все треки извлечены точно

Конец отчёта

==== Контрольная сумма отчёта 28C8A6CB3B1D7D879EC7A209FD1074859036BE6CB69DE8C841540561DA361CAF ====

Eddy Grant - Reparation (2005)


All thanks go to izia1956

>>> Eddy Grant in my Blog <<<

DOWNLOAD: