Tags
Language
Tags

Eddy Clearwater - Chicago Daily Blues (1999)

Posted By: gribovar
Eddy Clearwater - Chicago Daily Blues (1999)

Eddy Clearwater - Chicago Daily Blues (1999)
EAC Rip | FLAC (tracks+.cue+log) - 493 MB | MP3 CBR 320 kbps (LAME 3.93) - 181 MB | Covers (7 MB) included
Genre: Blues | RAR 3% Rec. | Label: Wolf Records (120.897 CD)

Here you'll find great studio recordings - "Chicago Daily Blues" and "Came up the hard Way". Special bonus tracks on this CD were recorded in the Kingston Mines nightclub in Chicago on a trip in 1977.
Once dismissed by purists as a Chuck Berry imitator (and an accurate one at that), tall, lean, and lanky Chicago southpaw Eddy Clearwater became recognized as a prime progenitor of West Side-style blues guitar. That's not to say he wouldn't liven up a gig with a little duck-walking or a frat party rendition of "Shout"; after all, Clearwater brought a wide array of influences to the party. Gospel, country, '50s rock, and deep-down blues were all incorporated into his slashing guitar attack. But when he put his mind to it, "The Chief" (a nickname accrued from his penchant for donning Native American headdresses on-stage) was one of the Windy City's finest bluesmen.
Tracklist:
01. 2 X 9
02. Chicago Daily Blues
03. A Little Bit Of Blues, A Little Bit Of Rock & Roll
04. The World Is In A Bad Situation
05. Payments On My Woman
06. Blast Off
07. Came Up The Hard Way
08. Nashville Road

Live At Kingston Mines, Chicago in 1977:
09. Caldonia
10. Chicago Daily Blues (Live Version)
11. You Don't Have To Go
12. The Things I Used To Do
13. The Twist
14. Johnny B. Goode

Total time: 01:13:42

Exact Audio Copy V1.1 from 23. June 2015

EAC extraction logfile from 8. December 2020, 16:44

Eddy Clearwater / Chicago Daily Blues: Chicago Blues Session, Volume 51

Used drive : Optiarc DVD RW AD-7283S Adapter: 1 ID: 0

Read mode : Secure
Utilize accurate stream : Yes
Defeat audio cache : Yes
Make use of C2 pointers : No

Read offset correction : 48
Overread into Lead-In and Lead-Out : No
Fill up missing offset samples with silence : Yes
Delete leading and trailing silent blocks : No
Null samples used in CRC calculations : Yes
Used interface : Native Win32 interface for Win NT & 2000
Gap handling : Appended to previous track

Used output format : User Defined Encoder
Selected bitrate : 128 kBit/s
Quality : High
Add ID3 tag : No
Command line compressor : C:\Program Files (x86)\Exact Audio Copy\Flac\flac.exe
Additional command line options : -V -8 -T "Genre=%genre%" -T "Artist=%artist%" -T "Title=%title%" -T "Album=%albumtitle%" -T "Date=%year%" -T "Tracknumber=%tracknr%" -T "Comment=%comment%" %source%


TOC of the extracted CD

Track | Start | Length | Start sector | End sector
––––––––––––––––––––––––––––-
1 | 0:01.00 | 4:05.52 | 75 | 18501
2 | 4:06.52 | 4:27.14 | 18502 | 38540
3 | 8:33.66 | 4:09.07 | 38541 | 57222
4 | 12:42.73 | 4:41.44 | 57223 | 78341
5 | 17:24.42 | 4:23.42 | 78342 | 98108
6 | 21:48.09 | 4:34.00 | 98109 | 118658
7 | 26:22.09 | 8:36.28 | 118659 | 157386
8 | 34:58.37 | 3:13.23 | 157387 | 171884
9 | 38:11.60 | 6:29.37 | 171885 | 201096
10 | 44:41.22 | 6:17.51 | 201097 | 229422
11 | 50:58.73 | 2:49.25 | 229423 | 242122
12 | 53:48.23 | 7:32.69 | 242123 | 276091
13 | 61:21.17 | 4:44.38 | 276092 | 297429
14 | 66:05.55 | 7:37.67 | 297430 | 331771


Track 1

Filename F:\alexbras\1999 Eddy Clearwater - Chicago Daily Blues (Austria Wolf 120.897 CD)\01 2 X 9.wav

Pre-gap length 0:00:03.00

Peak level 100.0 %
Extraction speed 2.3 X
Track quality 99.9 %
Test CRC C9C1B16A
Copy CRC C9C1B16A
Accurately ripped (confidence 6) [F46CE42D] (AR v2)
Copy OK

Track 2

Filename F:\alexbras\1999 Eddy Clearwater - Chicago Daily Blues (Austria Wolf 120.897 CD)\02 Chicago Daily Blues.wav

Pre-gap length 0:00:02.67

Peak level 100.0 %
Extraction speed 2.9 X
Track quality 100.0 %
Test CRC B6427E95
Copy CRC B6427E95
Accurately ripped (confidence 5) [589E0E5C] (AR v2)
Copy OK

Track 3

Filename F:\alexbras\1999 Eddy Clearwater - Chicago Daily Blues (Austria Wolf 120.897 CD)\03 A Little Bit Of Blues, A Little Bit Of Rock & Roll.wav

Pre-gap length 0:00:02.67

Peak level 94.8 %
Extraction speed 3.1 X
Track quality 100.0 %
Test CRC 0CF286C4
Copy CRC 0CF286C4
Accurately ripped (confidence 6) [06C786E1] (AR v2)
Copy OK

Track 4

Filename F:\alexbras\1999 Eddy Clearwater - Chicago Daily Blues (Austria Wolf 120.897 CD)\04 The World Is In A Bad Situation.wav

Pre-gap length 0:00:02.67

Peak level 93.0 %
Extraction speed 3.4 X
Track quality 100.0 %
Test CRC 1A6BB504
Copy CRC 1A6BB504
Accurately ripped (confidence 5) [2967BC74] (AR v2)
Copy OK

Track 5

Filename F:\alexbras\1999 Eddy Clearwater - Chicago Daily Blues (Austria Wolf 120.897 CD)\05 Payments On My Woman.wav

Pre-gap length 0:00:02.67

Peak level 100.0 %
Extraction speed 3.6 X
Track quality 100.0 %
Test CRC F4A6F5E6
Copy CRC F4A6F5E6
Accurately ripped (confidence 5) [F0359952] (AR v2)
Copy OK

Track 6

Filename F:\alexbras\1999 Eddy Clearwater - Chicago Daily Blues (Austria Wolf 120.897 CD)\06 Blast Off.wav

Pre-gap length 0:00:02.67

Peak level 92.9 %
Extraction speed 3.8 X
Track quality 100.0 %
Test CRC AEA912EE
Copy CRC AEA912EE
Accurately ripped (confidence 5) [70537C0A] (AR v2)
Copy OK

Track 7

Filename F:\alexbras\1999 Eddy Clearwater - Chicago Daily Blues (Austria Wolf 120.897 CD)\07 Came Up The Hard Way.wav

Pre-gap length 0:00:02.67

Peak level 96.1 %
Extraction speed 4.3 X
Track quality 100.0 %
Test CRC C56135D5
Copy CRC C56135D5
Accurately ripped (confidence 5) [5A208CBD] (AR v2)
Copy OK

Track 8

Filename F:\alexbras\1999 Eddy Clearwater - Chicago Daily Blues (Austria Wolf 120.897 CD)\08 Nashville Road.wav

Pre-gap length 0:00:02.67

Peak level 98.3 %
Extraction speed 4.1 X
Track quality 100.0 %
Test CRC 75BA70FE
Copy CRC 75BA70FE
Accurately ripped (confidence 5) [B5813A89] (AR v2)
Copy OK

Track 9

Filename F:\alexbras\1999 Eddy Clearwater - Chicago Daily Blues (Austria Wolf 120.897 CD)\09 Caldonia.wav

Pre-gap length 0:00:02.67

Peak level 84.7 %
Extraction speed 4.7 X
Track quality 100.0 %
Test CRC 19D18163
Copy CRC 19D18163
Accurately ripped (confidence 5) [FC9D3EED] (AR v2)
Copy OK

Track 10

Filename F:\alexbras\1999 Eddy Clearwater - Chicago Daily Blues (Austria Wolf 120.897 CD)\10 Chicago Daily Blues (Live Version).wav

Pre-gap length 0:00:02.67

Peak level 85.0 %
Extraction speed 4.9 X
Track quality 100.0 %
Test CRC 4569F79A
Copy CRC 4569F79A
Accurately ripped (confidence 5) [FEBF0599] (AR v2)
Copy OK

Track 11

Filename F:\alexbras\1999 Eddy Clearwater - Chicago Daily Blues (Austria Wolf 120.897 CD)\11 You Don't Have To Go.wav

Pre-gap length 0:00:02.67

Peak level 82.2 %
Extraction speed 3.9 X
Track quality 99.9 %
Test CRC 8F730603
Copy CRC 8F730603
Accurately ripped (confidence 5) [097C56BE] (AR v2)
Copy OK

Track 12

Filename F:\alexbras\1999 Eddy Clearwater - Chicago Daily Blues (Austria Wolf 120.897 CD)\12 The Things I Used To Do.wav

Pre-gap length 0:00:02.67

Peak level 85.2 %
Extraction speed 5.3 X
Track quality 100.0 %
Test CRC 1F23D6AE
Copy CRC 1F23D6AE
Accurately ripped (confidence 5) [60AB18CE] (AR v2)
Copy OK

Track 13

Filename F:\alexbras\1999 Eddy Clearwater - Chicago Daily Blues (Austria Wolf 120.897 CD)\13 The Twist.wav

Pre-gap length 0:00:02.67

Peak level 84.3 %
Extraction speed 4.8 X
Track quality 99.9 %
Test CRC 79CC278D
Copy CRC 79CC278D
Accurately ripped (confidence 4) [341CFE08] (AR v2)
Copy OK

Track 14

Filename F:\alexbras\1999 Eddy Clearwater - Chicago Daily Blues (Austria Wolf 120.897 CD)\14 Johnny B. Goode.wav

Pre-gap length 0:00:02.67

Peak level 84.4 %
Extraction speed 5.8 X
Track quality 100.0 %
Test CRC C9F155DF
Copy CRC C9F155DF
Accurately ripped (confidence 4) [DB30E2F1] (AR v2)
Copy OK


All tracks accurately ripped

No errors occurred

End of status report

==== Log checksum 95AB65242BAD1C370151A9994A3F9521486AE458F1F7D70DFE773FDA15681CC6 ====

[CUETools log; Date: 16.02.2021 14:34:53; Version: 2.1.4]
Pregap length 00:01:00.
[CTDB TOCID: VVjsMN7l8esMKH4LLEC.g1Gyki4-] found.
Track | CTDB Status
1 | (3/3) Accurately ripped
2 | (3/3) Accurately ripped
3 | (3/3) Accurately ripped
4 | (3/3) Accurately ripped
5 | (3/3) Accurately ripped
6 | (3/3) Accurately ripped
7 | (3/3) Accurately ripped
8 | (3/3) Accurately ripped
9 | (3/3) Accurately ripped
10 | (3/3) Accurately ripped
11 | (3/3) Accurately ripped
12 | (3/3) Accurately ripped
13 | (3/3) Accurately ripped
14 | (3/3) Accurately ripped
[AccurateRip ID: 00235974-01800a8f-b311460e] found.
Track [ CRC | V2 ] Status
01 [ea9ffd78|f46ce42d] (0+6/6) Accurately ripped
02 [972bf35f|589e0e5c] (0+5/5) Accurately ripped
03 [ce18df04|06c786e1] (0+6/6) Accurately ripped
04 [d40ec19c|2967bc74] (0+5/5) Accurately ripped
05 [3a751437|f0359952] (0+5/5) Accurately ripped
06 [5f18f212|70537c0a] (0+5/5) Accurately ripped
07 [66b4fca5|5a208cbd] (0+5/5) Accurately ripped
08 [856afe4a|b5813a89] (0+5/5) Accurately ripped
09 [97a95465|fc9d3eed] (0+5/5) Accurately ripped
10 [a2fa1681|febf0599] (0+5/5) Accurately ripped
11 [c200a129|097c56be] (0+5/5) Accurately ripped
12 [a9905f02|60ab18ce] (0+5/5) Accurately ripped
13 [0b852d77|341cfe08] (0+4/4) Accurately ripped
14 [253d1f87|db30e2f1] (0+4/4) Accurately ripped

Track Peak [ CRC32 ] [W/O NULL] [ LOG ]
– 100,0 [BBD3E3B8] [DE37AD93]
01 100,0 [C9C1B16A] [411B211A] CRC32
02 100,0 [B6427E95] [56190390] CRC32
03 94,8 [0CF286C4] [FB4C9C21] CRC32
04 93,0 [1A6BB504] [FF7B1073] CRC32
05 100,0 [F4A6F5E6] [CD7820F8] CRC32
06 92,9 [AEA912EE] [0964448B] CRC32
07 96,1 [C56135D5] [D080FCE2] CRC32
08 98,3 [75BA70FE] [CB43E72F] CRC32
09 84,7 [19D18163] [035D7FA0] CRC32
10 85,0 [4569F79A] [DC6BE01F] CRC32
11 82,2 [8F730603] [DF50CD5A] CRC32
12 85,2 [1F23D6AE] [06BAD665] CRC32
13 84,3 [79CC278D] [58A39AB1] CRC32
14 84,4 [C9F155DF] [7141102A] CRC32

Thanks to Badeny

See also: