Tags
Language
Tags

Edgar Froese - 2 Albums (1974-1995) (Repost)

Posted By: gribovar
Edgar Froese - 2 Albums (1974-1995) (Repost)

Edgar Froese - 2 Albums (1974-1995)
EAC Rip | FLAC (image+.cue+log) - 1,25 GB | MP3 CBR 320 kbps (LAME 3.93) - 470 MB | Covers - 64 MB
Genre: Progressive Electronic, New Age | RAR 3% Rec. | Label: Virgin Records

Aqua (1974). Edgar Wilmar Froese is a German artist and electronic music pioneer, best known for founding the electronic music group Tangerine Dream. Aqua is his first solo album, predates Tangerine Dream's breakthrough album, 1974's Phaedra. Recorded using revolutionary binaural sound techniques, Aqua sweetens Froese's uncompromising experimentation with the crowd-pleasing sleight of "head music." Over four extended passages, electronics burble, shimmer, surge, swoop and speaker-pan in hazily melodic and nebulous shapes. Aqua is the consummate headphone album, a crafty, cosmic stereophonic delight guaranteed to captivate all open minds.

Beyond The Storm (1995). While Tangerine Dream amassed its vast catalog throughout the '70s and '80s, chief Dreamer Edgar Froese was quietly releasing influential records of his own. This handy, two-disc set is a fine collection of some of the better moments from Froese's numerous solo outings, including 15 new tracks recorded specifically for this set, and the rest are extensively reworked with "new timbres." Consequently "Beyond The Storm" comes off less as a compilation than as a whole studio album based upon old themes. If you're a fan of Froese or TD this is a nice slice of that pie.

Edgar Froese - 2 Albums (1974-1995) (Repost)

Edgar Froese - Aqua (1974) [Reissue 1990]
EAC Rip | FLAC (image+.cue+log) - 273 MB | MP3 CBR 320 kbps (LAME 3.93) - 111 MB | Covers - 37 MB
Genre: Progressive Electronic | RAR 3% Rec. | Label: Virgin Records (CDV 2016)

Tracklist:
01. Aqua
02. Panorphelia
03. NGC 891
04. Upland

Total time: 47:25

Exact Audio Copy V1.0 beta 2 from 29. April 2011

EAC extraction logfile from 29. June 2011, 10:58

Edgar Froese / Aqua

Used drive : Optiarc DVD RW AD-7240S Adapter: 0 ID: 1

Read mode : Secure
Utilize accurate stream : Yes
Defeat audio cache : Yes
Make use of C2 pointers : No

Read offset correction : 48
Overread into Lead-In and Lead-Out : No
Fill up missing offset samples with silence : Yes
Delete leading and trailing silent blocks : No
Null samples used in CRC calculations : Yes
Used interface : Installed external ASPI interface

Used output format : Internal WAV Routines
Sample format : 44.100 Hz; 16 Bit; Stereo


TOC of the extracted CD

Track | Start | Length | Start sector | End sector
––––––––––––––––––––––––––––-
1 | 0:00.50 | 17:00.65 | 50 | 76614
2 | 17:01.40 | 9:41.00 | 76615 | 120189
3 | 26:42.40 | 14:01.02 | 120190 | 183266
4 | 40:43.42 | 6:41.33 | 183267 | 213374


Range status and errors

Selected range

Filename C:\Remember The Old Sequence\Edgar Froese - Aqua.wav

Peak level 100.0 %
Extraction speed 3.9 X
Range quality 100.0 %
Test CRC B3476E26
Copy CRC B3476E26
Copy OK

No errors occurred


AccurateRip summary

Track 1 accurately ripped (confidence 2) [6928DC86] (AR v2)
Track 2 accurately ripped (confidence 2) [55101AC2] (AR v2)
Track 3 accurately ripped (confidence 13) [535E8079] (AR v1)
Track 4 accurately ripped (confidence 2) [EBD023AF] (AR v2)

All tracks accurately ripped

End of status report

–– CUETools DB Plugin V2.1.2

[CTDB TOCID: g1VNyS3EGO_qPpGNKgf8LZw1iGk-] database access error: Unable to connect to the remote server


==== Log checksum 20CCC2A1F5418D96D31D80729BF431676E4919BDAA0EB3A5589F0B01DDDDB256 ====

[CUETools log; Date: 23.05.2016 19:46:00; Version: 2.1.4]
Pregap length 00:00:50.
[CTDB TOCID: g1VNyS3EGO_qPpGNKgf8LZw1iGk-] found.
Track | CTDB Status
1 | (39/48) Accurately ripped, or (9/48) differs in 2216 samples @11:29:12-11:29:13,12:14:30-12:14:32
2 | (39/48) Accurately ripped, or (9/48) differs in 2355 samples @02:01:71-02:01:72,08:34:12-08:34:14,08:45:67-08:45:68
3 | (39/48) Accurately ripped, or (9/48) differs in 10203 samples @02:31:41-02:31:43,02:46:66-02:46:67,02:48:09-02:48:10,03:01:22,03:03:73-03:03:74,03:20:49-03:20:50,03:25:10-03:25:11,03:57:14-03:57:15,04:45:47-04:45:48
4 | (48/48) Accurately ripped
[AccurateRip ID: 00090e59-00234e41-220b1d04] found.
Track [ CRC | V2 ] Status
01 [b33f1f14|6928dc86] (18+13/31) Accurately ripped
02 [80caf2d2|55101ac2] (18+13/31) Accurately ripped
03 [535e8079|017825a0] (18+12/30) Accurately ripped
04 [66fc9fc4|ebd023af] (17+13/30) Accurately ripped

Track Peak [ CRC32 ] [W/O NULL] [ LOG ]
– 100,0 [B3476E26] [B26496C0] CRC32
01 100,0 [2EDB584C] [638FD677]
02 85,3 [631ED4C5] [AB29500F]
03 94,5 [0829F26F] [1099A1AB]
04 95,7 [5FF21EE8] [F49B3416]

Edgar Froese - 2 Albums (1974-1995) (Repost)

Edgar Froese - Beyond The Storm (1995)
EAC Rip | FLAC (image+.cue+log) - 982 MB | MP3 CBR 320 kbps (LAME 3.93) - 359 MB | Covers - 27 MB
Genre: Progressive Electronic, New Age | RAR 3% Rec. | Label: Virgin Records (7243 8 40104 2 3)

CD 1 Tracklist:
01. Heatwave City (New material)
02. Dome of Yellow Turtles (New material)
03. One Fine Day in Siberia (New material)
04. Magic Lantern (New material)
05. Walkabout (Remastered)
06. Genesta in the Afternoon Glow (New material)
07. Moonlight on a Crawler Lane (New material)
08. Scarlet Score for Mescalero (Remastered)
09. Upland (Remastered)
10. Santa Elena Merisal (New material)
11. Macula Transfer (Remastered)
12. Drunken Mozart (Remastered)
13. Descent Like a Hawk (New material)
14. Carneol (Remastered)

Total time: 01:15:50

CD 2 Tracklist:
01. Light Cone (Remastered)
02. Detroit Snackbar Dreamer (Remastered)
03. Epsilon In Malaysian Pale (Remastered)
04. Tierra Del Fuego (New material)
05. Bobcats In the Sun (New material)
06. Metropolis (Remastered)
07. Year of the Falcon (New material)
08. Juniper Mascara (New material)
09. Shores of Guam (New material)
10. Pinnacles (Remastered)
11. Stuntman (Remastered)
12. Days of Camouflage (New material)
13. Tropic of Capricorn (Remastered)
14. Vault of the Heavens (New material)

Total time: 01:16:25

Exact Audio Copy V1.0 beta 2 from 29. April 2011

EAC extraction logfile from 2. August 2011, 4:24

Edgar Froese / Beyond The Storm CD1

Used drive : PIONEER DVD-RW DVR-215D Adapter: 3 ID: 0

Read mode : Secure
Utilize accurate stream : Yes
Defeat audio cache : Yes
Make use of C2 pointers : No

Read offset correction : 48
Overread into Lead-In and Lead-Out : No
Fill up missing offset samples with silence : Yes
Delete leading and trailing silent blocks : No
Null samples used in CRC calculations : Yes
Used interface : Installed external ASPI interface

Used output format : Internal WAV Routines
Sample format : 44.100 Hz; 16 Bit; Stereo


TOC of the extracted CD

Track | Start | Length | Start sector | End sector
––––––––––––––––––––––––––––-
1 | 0:00.00 | 5:37.10 | 0 | 25284
2 | 5:37.10 | 5:12.27 | 25285 | 48711
3 | 10:49.37 | 5:08.28 | 48712 | 71839
4 | 15:57.65 | 5:05.07 | 71840 | 94721
5 | 21:02.72 | 7:12.38 | 94722 | 127159
6 | 28:15.35 | 3:41.25 | 127160 | 143759
7 | 31:56.60 | 4:03.57 | 143760 | 162041
8 | 36:00.42 | 4:55.50 | 162042 | 184216
9 | 40:56.17 | 4:15.45 | 184217 | 203386
10 | 45:11.62 | 7:40.38 | 203387 | 237924
11 | 52:52.25 | 3:22.67 | 237925 | 253141
12 | 56:15.17 | 9:35.35 | 253142 | 296301
13 | 65:50.52 | 5:11.60 | 296302 | 319686
14 | 71:02.37 | 4:47.38 | 319687 | 341249


Range status and errors

Selected range

Filename D:\Posting\Remember The Old Sequence\Edgar Froese - Beyond The Storm CD1.wav

Peak level 98.5 %
Extraction speed 8.3 X
Range quality 99.9 %
Copy CRC 971871A8
Copy OK

No errors occurred


AccurateRip summary

Track 1 accurately ripped (confidence 3) [34DACA0A] (AR v2)
Track 2 accurately ripped (confidence 2) [1B0CBF26] (AR v2)
Track 3 accurately ripped (confidence 3) [BF65C7A3] (AR v2)
Track 4 accurately ripped (confidence 3) [6E076535] (AR v2)
Track 5 accurately ripped (confidence 3) [BF980056] (AR v2)
Track 6 accurately ripped (confidence 3) [FD2A601F] (AR v2)
Track 7 accurately ripped (confidence 3) [4AAC904D] (AR v2)
Track 8 accurately ripped (confidence 3) [514DD507] (AR v2)
Track 9 accurately ripped (confidence 3) [60953EA0] (AR v2)
Track 10 accurately ripped (confidence 3) [31EE48D2] (AR v2)
Track 11 accurately ripped (confidence 3) [F8502F39] (AR v2)
Track 12 accurately ripped (confidence 3) [C8FCCF4A] (AR v2)
Track 13 accurately ripped (confidence 3) [45153F3D] (AR v2)
Track 14 accurately ripped (confidence 3) [D0CE94A5] (AR v2)

All tracks accurately ripped

End of status report

==== Log checksum 95B181240EBCC3702B6B27CCCD3436F0BBA56ED33546C66D92489593E2681960 ====

[CUETools log; Date: 23.05.2016 19:43:32; Version: 2.1.4]
[CTDB TOCID: idxJo4bubsOEvv4grTIEe.JAAAk-] found.
Track | CTDB Status
1 | (20/20) Accurately ripped
2 | (20/20) Accurately ripped
3 | (20/20) Accurately ripped
4 | (20/20) Accurately ripped
5 | (20/20) Accurately ripped
6 | (20/20) Accurately ripped
7 | (20/20) Accurately ripped
8 | (20/20) Accurately ripped
9 | (20/20) Accurately ripped
10 | (20/20) Accurately ripped
11 | (20/20) Accurately ripped
12 | (20/20) Accurately ripped
13 | (20/20) Accurately ripped
14 | (19/20) Accurately ripped
[AccurateRip ID: 00264a77-01992f21-dc11c60e] found.
Track [ CRC | V2 ] Status
01 [ebf20aa7|34daca0a] (17+14/31) Accurately ripped
02 [cfbcfc6c|1b0cbf26] (16+12/28) Accurately ripped
03 [03114d4d|bf65c7a3] (18+14/32) Accurately ripped
04 [ebefb1a1|6e076535] (18+14/32) Accurately ripped
05 [9fe403ae|bf980056] (18+14/32) Accurately ripped
06 [ebab3dd7|fd2a601f] (18+14/32) Accurately ripped
07 [1b5c9b30|4aac904d] (18+14/32) Accurately ripped
08 [fe36c751|514dd507] (18+14/32) Accurately ripped
09 [610acc47|60953ea0] (17+14/31) Accurately ripped
10 [0684f03f|31ee48d2] (17+14/31) Accurately ripped
11 [63c35b3f|f8502f39] (18+14/32) Accurately ripped
12 [f6409f08|c8fccf4a] (18+14/32) Accurately ripped
13 [fd2e4b6b|45153f3d] (17+14/31) Accurately ripped
14 [c3cb8730|d0ce94a5] (17+14/31) Accurately ripped

Track Peak [ CRC32 ] [W/O NULL] [ LOG ]
– 98,5 [971871A8] [49B828B7] CRC32
01 98,1 [F0449591] [F7E6AF76]
02 98,0 [685F5693] [0C7206D7]
03 93,8 [160315F6] [9F2C0A27]
04 98,4 [BBF2C2D9] [31FF6BEE]
05 98,1 [719477F3] [A3F0281F]
06 98,0 [E6BA1542] [5A62D1B7]
07 98,5 [8BDF7DC7] [727266E3]
08 98,0 [6B25366F] [66A1EBF6]
09 98,2 [BA8D75B3] [4C7A9DC4]
10 98,2 [4C05A75B] [C1E4FB71]
11 98,0 [E647C5E9] [ECA7C5A2]
12 98,2 [6E5BBF14] [E5C58DAD]
13 98,4 [5EE44168] [C91A5417]
14 98,1 [C7A0A8BE] [AE4F4E0F]

Exact Audio Copy V1.0 beta 2 from 29. April 2011

EAC extraction logfile from 2. August 2011, 4:04

Edgar Froese / Beyond The Storm CD2

Used drive : PIONEER DVD-RW DVR-215D Adapter: 3 ID: 0

Read mode : Secure
Utilize accurate stream : Yes
Defeat audio cache : Yes
Make use of C2 pointers : No

Read offset correction : 48
Overread into Lead-In and Lead-Out : No
Fill up missing offset samples with silence : Yes
Delete leading and trailing silent blocks : No
Null samples used in CRC calculations : Yes
Used interface : Installed external ASPI interface

Used output format : Internal WAV Routines
Sample format : 44.100 Hz; 16 Bit; Stereo


TOC of the extracted CD

Track | Start | Length | Start sector | End sector
––––––––––––––––––––––––––––-
1 | 0:00.00 | 4:36.02 | 0 | 20701
2 | 4:36.02 | 6:37.18 | 20702 | 50494
3 | 11:13.20 | 5:30.50 | 50495 | 75294
4 | 16:43.70 | 4:23.20 | 75295 | 95039
5 | 21:07.15 | 5:30.42 | 95040 | 119831
6 | 26:37.57 | 5:43.33 | 119832 | 145589
7 | 32:21.15 | 5:44.10 | 145590 | 171399
8 | 38:05.25 | 4:27.30 | 171400 | 191454
9 | 42:32.55 | 5:07.02 | 191455 | 214481
10 | 47:39.57 | 8:01.43 | 214482 | 250599
11 | 55:41.25 | 4:15.25 | 250600 | 269749
12 | 59:56.50 | 6:09.65 | 269750 | 297489
13 | 66:06.40 | 5:11.15 | 297490 | 320829
14 | 71:17.55 | 5:07.20 | 320830 | 343874


Range status and errors

Selected range

Filename D:\Posting\Remember The Old Sequence\Edgar Froese - Beyond The Storm CD2.wav

Peak level 98.3 %
Extraction speed 8.2 X
Range quality 99.9 %
Copy CRC 5673CCD2
Copy OK

No errors occurred


AccurateRip summary

Track 1 accurately ripped (confidence 3) [41F5F820] (AR v2)
Track 2 accurately ripped (confidence 3) [F175843E] (AR v2)
Track 3 accurately ripped (confidence 3) [DCBB303F] (AR v2)
Track 4 accurately ripped (confidence 3) [0B7E6CE6] (AR v2)
Track 5 accurately ripped (confidence 3) [A11FCFFA] (AR v2)
Track 6 accurately ripped (confidence 3) [A7B7A527] (AR v2)
Track 7 accurately ripped (confidence 3) [EFA6E527] (AR v2)
Track 8 accurately ripped (confidence 3) [6468832F] (AR v2)
Track 9 accurately ripped (confidence 3) [77396C75] (AR v2)
Track 10 accurately ripped (confidence 3) [486FF899] (AR v2)
Track 11 accurately ripped (confidence 3) [33F84B36] (AR v2)
Track 12 accurately ripped (confidence 3) [05AF2972] (AR v2)
Track 13 accurately ripped (confidence 3) [DC921A14] (AR v2)
Track 14 accurately ripped (confidence 3) [F1C70F99] (AR v2)

All tracks accurately ripped

End of status report

==== Log checksum 2603194E29B6C618AF48B4DD34B2DD0EB9F9D6D9153337220B5A5293C159CB78 ====

[CUETools log; Date: 23.05.2016 19:44:26; Version: 2.1.4]
[CTDB TOCID: iQ0uHbRztQssK_QzNtHSREHZFF8-] found.
Track | CTDB Status
1 | (18/19) Accurately ripped
2 | (19/19) Accurately ripped
3 | (18/19) Accurately ripped
4 | (19/19) Accurately ripped
5 | (19/19) Accurately ripped
6 | (19/19) Accurately ripped
7 | (19/19) Accurately ripped
8 | (19/19) Accurately ripped
9 | (18/19) Accurately ripped
10 | (18/19) Accurately ripped
11 | (18/19) Accurately ripped
12 | (17/19) Accurately ripped
13 | (17/19) Accurately ripped
14 | (19/19) Accurately ripped
[AccurateRip ID: 00272ab4-01a2f6c6-f011e90e] found.
Track [ CRC | V2 ] Status
01 [60084dc2|41f5f820] (15+13/28) Accurately ripped
02 [4bcb734a|f175843e] (15+13/28) Accurately ripped
03 [21e20c11|dcbb303f] (16+13/29) Accurately ripped
04 [5c30bb9a|0b7e6ce6] (16+13/29) Accurately ripped
05 [7e71ca46|a11fcffa] (16+13/29) Accurately ripped
06 [08d7de25|a7b7a527] (16+13/29) Accurately ripped
07 [2ca992d2|efa6e527] (16+13/29) Accurately ripped
08 [e9edded4|6468832f] (16+13/29) Accurately ripped
09 [8ab885b0|77396c75] (16+13/29) Accurately ripped
10 [d9105803|486ff899] (16+13/29) Accurately ripped
11 [78c4a30b|33f84b36] (16+13/29) Accurately ripped
12 [3f53213e|05af2972] (16+13/29) Accurately ripped
13 [68cf8465|dc921a14] (16+13/29) Accurately ripped
14 [c992861f|f1c70f99] (16+13/29) Accurately ripped

Track Peak [ CRC32 ] [W/O NULL] [ LOG ]
– 98,3 [5673CCD2] [25E0C76C] CRC32
01 98,0 [FA7BF5F6] [7174F482]
02 98,0 [C6F32A79] [98D36E86]
03 98,0 [BC8256DC] [B8947759]
04 98,0 [CD9515DF] [F5D14F82]
05 98,0 [40212C68] [819AB404]
06 98,0 [8D4E6414] [F03EBB23]
07 98,0 [64F77163] [581B1B7C]
08 98,0 [48B629F0] [8AB9A66E]
09 98,3 [701A847B] [9922E351]
10 98,3 [6739BCCE] [BDC0A4B0]
11 98,0 [5C58BAE4] [759865A3]
12 98,1 [7AC1F0CB] [880EB56E]
13 98,0 [23AE358A] [E38CBA0F]
14 98,0 [1A808886] [FC9CC628]

Thanks to Key