Tags
Language
Tags

Edgar Froese - Ages (1978) [Reissue 1997]

Posted By: gribovar
Edgar Froese - Ages (1978) [Reissue 1997]

Edgar Froese - Ages (1978) [Reissue 1997]
EAC Rip | FLAC (tracks+.cue+log) - 480 MB | MP3 CBR 320 kbps (LAME 3.93) - 186 MB | Covers (9 MB) included
Genre: Progressive Electronic/Berlin School | RAR 3% Rec. | Label: Virgin Records (CDOVD 480, 7243 8 44377 2 5)

Edgar Wilmar Froese (1944-2015) was a German artist and electronic music pioneer, best known for founding the electronic music group Tangerine Dream. His solo career has contributed many gems and classics to the e-music community. "Ages" is one of those classics.
Tracklist:
01. Metropolis (Inspired By Fritz Lang's Movie)
02. Era Of The Slaves
03. Tropic Of Capricorn
04. Nights Of Automatic Women
05. Icarus
06. Children's Deeper Study
07. Ode To Granny A
08. Pizarro And Atahuallpa

Total time: 01:15:22

Exact Audio Copy V0.99 prebeta 4 from 23. January 2008

EAC extraction logfile from 20. March 2008, 4:09

Edgar Froese / Ages

Used drive : PIONEER DVD-RW DVR-112D Adapter: 3 ID: 0

Read mode : Secure
Utilize accurate stream : Yes
Defeat audio cache : Yes
Make use of C2 pointers : No

Read offset correction : 48
Overread into Lead-In and Lead-Out : No
Fill up missing offset samples with silence : Yes
Delete leading and trailing silent blocks : No
Null samples used in CRC calculations : Yes
Used interface : Native Win32 interface for Win NT & 2000
Gap handling : Appended to previous track

Used output format : User Defined Encoder
Selected bitrate : 768 kBit/s
Quality : High
Add ID3 tag : No
Command line compressor : C:\tools\flac.exe
Additional command line options : -8 -V -T "ARTIST=%a" -T "TITLE=%t" -T "ALBUM=%g" -T "DATE=%y" -T "TRACKNUMBER=%n" -T "TOTALTRACKS=%x" -T "GENRE=%m" -T "ALBUMARTIST=%v" -T "COMMENT=EAC V0.99 prebeta 4, Secure Mode, Test & Copy, AccurateRip, FLAC -8" %s


TOC of the extracted CD

Track | Start | Length | Start sector | End sector
––––––––––––––––––––––––––––-
1 | 0:00.00 | 11:12.17 | 0 | 50416
2 | 11:12.17 | 8:11.13 | 50417 | 87254
3 | 19:23.30 | 20:46.20 | 87255 | 180724
4 | 40:09.50 | 9:10.05 | 180725 | 221979
5 | 49:19.55 | 9:14.00 | 221980 | 263529
6 | 58:33.55 | 4:29.70 | 263530 | 283774
7 | 63:03.50 | 4:46.60 | 283775 | 305284
8 | 67:50.35 | 7:31.65 | 305285 | 339174


Track 1

Filename D:\audio\Edgar Froese - Ages (1978) [FLAC]\01 - Metropolis.wav

Pre-gap length 0:00:02.00

Peak level 85.7 %
Track quality 99.9 %
Test CRC CE2E0D1F
Copy CRC CE2E0D1F
Accurately ripped (confidence 4) [23A2BE6A]
Copy OK

Track 2

Filename D:\audio\Edgar Froese - Ages (1978) [FLAC]\02 - Era of the Slaves.wav

Pre-gap length 0:00:03.00

Peak level 72.4 %
Track quality 99.9 %
Test CRC C069EC6D
Copy CRC C069EC6D
Accurately ripped (confidence 4) [253680A6]
Copy OK

Track 3

Filename D:\audio\Edgar Froese - Ages (1978) [FLAC]\03 - Tropic of Capricorn.wav

Pre-gap length 0:00:03.00

Peak level 77.5 %
Track quality 99.8 %
Test CRC 86F1BE50
Copy CRC 86F1BE50
Accurately ripped (confidence 4) [4251A814]
Copy OK

Track 4

Filename D:\audio\Edgar Froese - Ages (1978) [FLAC]\04 - Nights of Automatic Women.wav

Pre-gap length 0:00:03.00

Peak level 75.9 %
Track quality 100.0 %
Test CRC 2A897E61
Copy CRC 2A897E61
Accurately ripped (confidence 4) [8D45AD4E]
Copy OK

Track 5

Filename D:\audio\Edgar Froese - Ages (1978) [FLAC]\05 - Icarus.wav

Pre-gap length 0:00:03.00

Peak level 74.3 %
Track quality 100.0 %
Test CRC D31A6243
Copy CRC D31A6243
Accurately ripped (confidence 4) [6AECE92B]
Copy OK

Track 6

Filename D:\audio\Edgar Froese - Ages (1978) [FLAC]\06 - Children's Deeper Study.wav

Pre-gap length 0:00:03.00

Peak level 72.7 %
Track quality 100.0 %
Test CRC B2C17E44
Copy CRC B2C17E44
Accurately ripped (confidence 4) [D36698E0]
Copy OK

Track 7

Filename D:\audio\Edgar Froese - Ages (1978) [FLAC]\07 - Ode to Granny A.wav

Pre-gap length 0:00:02.00

Peak level 84.9 %
Track quality 100.0 %
Test CRC 255058C7
Copy CRC 255058C7
Accurately ripped (confidence 4) [0F5E8C38]
Copy OK

Track 8

Filename D:\audio\Edgar Froese - Ages (1978) [FLAC]\08 - Pizarro and Atahuallpa.wav

Pre-gap length 0:00:02.00

Peak level 99.5 %
Track quality 100.0 %
Test CRC 7BA9194B
Copy CRC 7BA9194B
Accurately ripped (confidence 4) [C8DD57BF]
Copy OK


All tracks accurately ripped

No errors occurred

End of status report

[CUETools log; Date: 25.05.2016 16:11:03; Version: 2.1.4]
[CTDB TOCID: Y6uuTAqGj.AmVLYYIWUdqQURTT0-] found.
Track | CTDB Status
1 | (12/12) Accurately ripped
2 | (12/12) Accurately ripped
3 | (12/12) Accurately ripped
4 | (12/12) Accurately ripped
5 | (12/12) Accurately ripped
6 | (12/12) Accurately ripped
7 | (12/12) Accurately ripped
8 | (12/12) Accurately ripped
[AccurateRip ID: 001a6e2e-00abc804-6c11aa08] found.
Track [ CRC | V2 ] Status
01 [23a2be6a|a337a4ec] (12+06/18) Accurately ripped
02 [253680a6|d4b1018c] (12+06/18) Accurately ripped
03 [4251a814|c7b36571] (12+06/18) Accurately ripped
04 [8d45ad4e|4d2a5c8c] (12+06/18) Accurately ripped
05 [6aece92b|a0f4a494] (12+06/18) Accurately ripped
06 [d36698e0|42f483f1] (13+06/19) Accurately ripped
07 [0f5e8c38|1bb5901a] (12+06/18) Accurately ripped
08 [c8dd57bf|7dff9e96] (12+06/18) Accurately ripped

Track Peak [ CRC32 ] [W/O NULL] [ LOG ]
– 99,5 [C006380E] [AFC312D0]
01 85,7 [CE2E0D1F] [C5C16B85] CRC32
02 72,4 [C069EC6D] [C1CB478F] CRC32
03 77,5 [86F1BE50] [FE6CF6A2] CRC32
04 75,9 [2A897E61] [D4196D91] CRC32
05 74,3 [D31A6243] [61B82702] CRC32
06 72,7 [B2C17E44] [FBC52BD5] CRC32
07 84,9 [255058C7] [5860C487] CRC32
08 99,5 [7BA9194B] [0C81228A] CRC32

Thanks to the original releaser