Tags
Language
Tags

Edgar Froese - Pinnacles (1983) (Repost)

Posted By: gribovar
Edgar Froese - Pinnacles (1983) (Repost)

Edgar Froese - Pinnacles (1983)
EAC Rip | APE (image+.cue+log) - 237 MB | MP3 CBR 320 kbps (LAME 3.93) - 101 MB | Covers - 65 MB
Genre: Electronic, Berlin School | RAR 3% Rec. | Label: Virgin (CDV2277), 1988

The 1983 studio album "Pinnacles" would be Edgar Froese's (Tangerine Dream) last solo recording for the next twelve years. According to Edgar Froese, it reflected his deep love for the Australian Outback. Thus it was named after a region in Western Australia, a couple of hundred miles from Perth where bizarre stones have grown out of the desert sands thousands of years ago. "Pinnacles" was stylistic like TD's White Eagle (1982) and Hyperborea (1983) using much the same instruments and digital sampling techniques. It was recorded by Edgar Froese for the first time on his own 16-track tape.

Tracklist:
01. Specific Gravity of Smile
02. The Light Cone
03. Walkabout
04. Pinnacles

Total time: 43:12

Exact Audio Copy V1.0 beta 1 from 15. November 2010

EAC extraction logfile from 21. June 2014, 23:27

Edgar Froese / Pinnacles

Used drive : PLEXTOR CD-R PX-W5224A Adapter: 1 ID: 1

Read mode : Secure
Utilize accurate stream : Yes
Defeat audio cache : Yes
Make use of C2 pointers : No

Read offset correction : 30
Overread into Lead-In and Lead-Out : No
Fill up missing offset samples with silence : Yes
Delete leading and trailing silent blocks : No
Null samples used in CRC calculations : No
Used interface : Installed external ASPI interface

Used output format : Internal WAV Routines
Sample format : 44.100 Hz; 16 Bit; Stereo


TOC of the extracted CD

Track | Start | Length | Start sector | End sector
––––––––––––––––––––––––––––-
1 | 0:00.50 | 9:38.57 | 50 | 43456
2 | 9:39.32 | 4:24.70 | 43457 | 63326
3 | 14:04.27 | 7:13.18 | 63327 | 95819
4 | 21:17.45 | 21:54.12 | 95820 | 194381


Range status and errors

Selected range

Filename Q:\Upload\Edgar Froese - 1983 - Pinnacles (Virgin, CDV2277)_Upload\Edgar Froese - Pinnacles.wav

Peak level 100.0 %
Extraction speed 3.5 X
Range quality 99.9 %
Test CRC CE413E83
Copy CRC CE413E83
Copy OK

No errors occurred


AccurateRip summary

Track 1 accurately ripped (confidence 6) [FBE0C84A]
Track 2 accurately ripped (confidence 6) [ECEEE491]
Track 3 accurately ripped (confidence 6) [6164E123]
Track 4 accurately ripped (confidence 6) [276E29F4]

All tracks accurately ripped

End of status report

==== Log checksum 5D2CFCAE56193359DADC1C659656F2125ACB0AEBE7247A0101BD61D493B0781C ====

[CUETools log; Date: 18.11.2016 22:27:04; Version: 2.1.4]
Pregap length 00:00:50.
[CTDB TOCID: S6ydhnyA3NVbT20KxLGbKBhvbyI-] found.
Track | CTDB Status
1 | (12/17) Accurately ripped, or (4/17) differs in 15 samples @05:27:35
2 | (17/17) Accurately ripped
3 | (17/17) Accurately ripped
4 | (16/17) Accurately ripped
[AccurateRip ID: 00060eec-0018e787-350a1f04] found.
Track [ CRC | V2 ] Status
01 [fbe0c84a|18be9914] (12+09/23) Accurately ripped
02 [eceee491|9c82a401] (12+09/23) Accurately ripped
03 [6164e123|5bd9127d] (12+09/23) Accurately ripped
04 [276e29f4|69d622a2] (12+09/25) Accurately ripped
Offsetted by 462:
01 [89813430] (00/23) No match (V2 was not tested)
02 [8043908c] (00/23) No match (V2 was not tested)
03 [3fd0cf90] (00/23) No match (V2 was not tested)
04 [373d2bc6] (02/25) Accurately ripped

Track Peak [ CRC32 ] [W/O NULL] [ LOG ]
– 100,0 [0B9812FE] [CE413E83] W/O NULL
01 89,1 [690A3555] [C005E0D9]
02 69,5 [1C106101] [BCEC6692]
03 84,5 [03991360] [CBEBB37B]
04 100,0 [53B4E3B3] [5DD29547]

Thanks to CarboFoss