Subcategories

Edge - Heaven Knows (2012) (Japan RBNCD-1120)

Posted By: apocalipsys2014
Edge - Heaven Knows (2012) (Japan RBNCD-1120)

Edge - Heaven Knows (2012)
Year & Label: 2012, Rubicon Music, Japan | CD#: RBNCD 1120
Flac (image) | MP3 CBR 320 Kbps | Artwork (JPG, 300 dpi) | File-hosts: FilePost
AOR/Melodic Hard Rock | FLAC: 400 MB | Artwork: 30 MB | MP3: 120 MB | 5% WinRAR Recovery

EAC Secure-rip with LOG+CUE+COVERS | Source: terrents
Japanese Edition with bonus track

EDGE is an exciting new AOR/Melodic Rock band from Karlskoga, SWEDEN. They started out as a project by 2 friends sharing the same dream. Having played together in different bands off and on since the mid nineties, Jonas Forss and Tobias Andersson (Shadowland, Seven Wishes) knew each other by heart. Strangely enough they hadn't written any original tunes together before, even though they had recorded dozens of covers in different shapes and forms.

About 2 years ago Jonas came to Tobias house with an idea for a song and the rest as they say is history. “We found our sound almost immediately. It was as we hadn't done anything else but writing songs together. It all felt very natural, as it was meant to be…” They both agreed upon writing an album without compromise. No account to what others might think, just the album they both wanted to hear; melodic, interesting harmonies, variation, power and depth. The songs should mean something and speak for themselves. Their own brand of melodic hard rock derives from lots of different influences ranging from classical music to metal and beyond. "We always loved music where real musicians actually play for the song and not for themselves if you know what I mean”, Jonas states. “Yeah, but that doesn't mean that we don't shred from time to time”, Tobias adds, “but always within the context of the song of course”

The two guys recorded 12 songs on their own but felt there was something missing, that extra ingredient to take it over the cliff so to speak: Musicians!!! They knew exactly who to call. Torbjörn Brogren (Heads or Tales) and Olle Rodehn (Shadowland) both accepted with a smile and contributed a great deal to the final sound of the album. They added the extra depth and live-feeling we needed so we decided to re-record everything and EDGE, the band was born. Soon after they finished up in the studio they started pitching for a record deal. “It all happened very fast. We sent 1 song to 5 different labels and 4 of them wanted to sign us right away which felt very good indeed. Escape Music in England pulled the longest straw because of their genuine interest in our music and passion to the industry as a whole.”
Musicians:

Jonas Forss - all vocals, guitars & keys
Tobias Andersson(Shadowland, Seven Wishes) - guitars & keys
Torbjörn Brogren (Heads or Tales) - bass
Olle Rodehn (Shadowland) - drums

Special Guests:
Tommy Denander - guitar solo on “How Long”
Martina Edoff - duet lead vocals on "Get Over It"

Track List:

01. Little Girl [3:57]
02. How Long [3:56]
03. Nowhere To Hide [4:46]
04. Get Over It [4:03]
05. I Believe In Love [4:28]
06. There Is No Other Way [3:46]
07. I Could Never Live [3:35]
08. Right Now [4:54]
09. To Hell And Back [4:09]
10. Through That Door [3:35]
11. The End Of The World [3:11]
12. Please Come Back To Me (Japanese Bonus Track) [4:13]

Exact Audio Copy V1.0 beta 3 from 29. August 2011

EAC extraction logfile from 2. February 2013, 10:48

Edge / Heaven Knows

Used drive : SlimtypeDVD A DS8A5SH Adapter: 0 ID: 1

Read mode : Secure
Utilize accurate stream : Yes
Defeat audio cache : Yes
Make use of C2 pointers : No

Read offset correction : 6
Overread into Lead-In and Lead-Out : No
Fill up missing offset samples with silence : Yes
Delete leading and trailing silent blocks : No
Null samples used in CRC calculations : Yes
Used interface : Native Win32 interface for Win NT & 2000

Used output format : User Defined Encoder
Selected bitrate : 320 kBit/s
Quality : High
Add ID3 tag : No
Command line compressor : C:\Program Files (x86)\Exact Audio Copy\Flac\flac.exe
Additional command line options : -V -8 -T "Date=%year%" -T "Genre=%genre%" %source%


TOC of the extracted CD

Track | Start | Length | Start sector | End sector
––––––––––––––––––––––––––––-
1 | 0:00.00 | 3:57.30 | 0 | 17804
2 | 3:57.30 | 3:55.47 | 17805 | 35476
3 | 7:53.02 | 4:46.12 | 35477 | 56938
4 | 12:39.14 | 4:03.08 | 56939 | 75171
5 | 16:42.22 | 4:27.56 | 75172 | 95252
6 | 21:10.03 | 3:46.31 | 95253 | 112233
7 | 24:56.34 | 3:34.48 | 112234 | 128331
8 | 28:31.07 | 4:54.02 | 128332 | 150383
9 | 33:25.09 | 4:08.47 | 150384 | 169030
10 | 37:33.56 | 3:35.24 | 169031 | 185179
11 | 41:09.05 | 3:11.32 | 185180 | 199536
12 | 44:20.37 | 4:12.38 | 199537 | 218474


Range status and errors

Selected range

Filename D:\My Music\Edge - 2012 Heaven Knows (Japanese Edition)\Edge - Heaven Knows.wav

Peak level 100.0 %
Extraction speed 4.3 X
Range quality 99.9 %
Test CRC 83EBA8C6
Copy CRC 83EBA8C6
Copy OK

No errors occurred


AccurateRip summary

Track 1 not present in database
Track 2 not present in database
Track 3 not present in database
Track 4 not present in database
Track 5 not present in database
Track 6 not present in database
Track 7 not present in database
Track 8 not present in database
Track 9 not present in database
Track 10 not present in database
Track 11 not present in database
Track 12 not present in database

None of the tracks are present in the AccurateRip database

End of status report

==== Log checksum 7D96AF0688EF81E1DF081D7516AE6A4107D7C433A5D2EEF39D6E08042BCB5057 ====

Not my rip, not my scan-job. Thx very much to the original uploader kolushew!
5% WinRar Recovery Record for all files.
Try before you might buy. Support the artists you like and buy their stuff whenever you can afford it.
FLAC, image + atrwork or mp3 at FilePost.com:
FLAC | Artwork | Mp3 320 kbps