Subcategories

Edwin Starr - Clean (1978) [2011, Remastered & Expanded Edition]

Posted By: BlondStyle
Edwin Starr - Clean (1978) [2011, Remastered & Expanded Edition]

Edwin Starr - Clean (1978) [2011, Remastered & Expanded Edition]
R&B, Soul/Funk, Disco | EAC Rip | FLAC, Tracks+CUE+LOG+Scans (JPEG) | 43:49 Min. | 334,41 Mb
Label: 20th Century Records/BBR (UK) | Cat.# CDBBR 0027 | Released: 2011-04-25 (1978)
Edwin Starr - Clean (1978) [2011, Remastered & Expanded Edition]

In the late '70s, Edwin Starr was adjusting to the disco era, like many other soul and R&B vocalists. He hadn't gotten fully comfortable with bustling dance tracks, but this album helped ease the transition. It laid the groundwork for Starr's next LP, in which he returned to prominence and found a way to accomodate the demands of the dance floor without sacrificing his own integrity.
~Review by Ron Wynn

Edwin Starr - Clean (1978) [2011, Remastered & Expanded Edition]




Release of the album: 1978 [LP 20th Century Fox Records, Cat.# T-559, USA]
Release of this CD: 2011, April, 25 [CD 20th Century Records/BBR (UK), Cat.# CDBBR 0027 / UPC: 5013929032729]
℗ 1978. This compilation ℗ & © 2011 Big Break Records.
All tracks licensed from Universal Music Operations Ltd.
Marketed and Distributed by Cherry Red Records Ltd.
Made in EC/MCPS


Credits:

Arranged By [Horns] – David Stout (tracks: 1, 3, 7)
Arranged By [Rhythm Arrangements By] – Lamont Dozier, Rahn Coleman
Arranged By [String & Horn Arrangements By] – David Blumberg, H. B. Barnum, Hense Powell, Paul Riser
Art Direction – Joey Reynolds
Backing Vocals [Background Vocals] – David T. Walker, Waters
Bass – Eddie Watkins
Design [Concept/design] – George Goad
Drums – James Gadson
Engineer – Bob D'Orleans, Ric Pekkonen
Guitar [Guitars] – Charles Fearing, David T. Walker, Greg Poree
Keyboards – John Barnes, Rahn Coleman
Mixed By – Rick Hart
Percussion – Gary Coleman, Paulinho DaCosta, Shondu
Producer – Edwin Starr (tracks: 1, 3, 7), Lamont Dozier (tracks: 2, 4 to 6)
Remastered By [Digitally] – Kevin Reeves
Written-By – A. E. Puhan (tracks: 3, 7), E. Starr (tracks: 1 to 3, 5 to 7), L. Dozier (tracks: 2, 4), L. Higgins (tracks: 2), L. Kyle (tracks: 6), M. Roberts (tracks: 5), R. Dickerson (tracks: 3, 7)


Tracklist:

01. I'm So Into You (04:31)
02. Jealous (04:07)
03. Contact (07:18)
04. Storm Clouds On The Way (04:18)
05. Don't Waste Your Time (04:00)
06. Music Brings Out The Beast In Me (04:26)
07. Working Song (07:29)

Bonus Tracks:

08. I'm So Into You (Single Version) (03:58)
09. Contact (Single Version) (03:42)

Exact Audio Copy V1.3 from 2. September 2016

EAC extraction logfile from 28. June 2018, 9:42

Edwin Starr / Clean

Used drive : PLEXTOR PX-891SAF Adapter: 1 ID: 0

Read mode : Secure
Utilize accurate stream : Yes
Defeat audio cache : Yes
Make use of C2 pointers : No

Read offset correction : 6
Overread into Lead-In and Lead-Out : No
Fill up missing offset samples with silence : Yes
Delete leading and trailing silent blocks : No
Null samples used in CRC calculations : Yes
Used interface : Native Win32 interface for Win NT & 2000
Gap handling : Appended to previous track

Used output format : User Defined Encoder
Selected bitrate : 1024 kBit/s
Quality : High
Add ID3 tag : No
Command line compressor : C:\Program Files (x86)\Exact Audio Copy\Flac\flac.exe
Additional command line options : -8 -V -T "ARTIST=%artist%" -T "TITLE=%title%" -T "ALBUM=%albumtitle%" -T "DATE=%year%" -T "TRACKNUMBER=%tracknr%" -T "GENRE=%genre%" -T "PERFORMER=%albuminterpret%" -T "COMPOSER=%composer%" %haslyrics%–tag-from-file=LYRICS="%lyricsfile%"%haslyrics% -T "ALBUMARTIST=%albumartist%" -T "DISCNUMBER=%cdnumber%" -T "TOTALDISCS=%totalcds%" -T "TOTALTRACKS=%numtracks%" -T "COMMENT=%comment%" %source% -o %dest%


TOC of the extracted CD

Track | Start | Length | Start sector | End sector
––––––––––––––––––––––––––––-
1 | 0:00.00 | 4:31.09 | 0 | 20333
2 | 4:31.09 | 4:06.67 | 20334 | 38850
3 | 8:38.01 | 7:18.29 | 38851 | 71729
4 | 15:56.30 | 4:18.02 | 71730 | 91081
5 | 20:14.32 | 3:59.61 | 91082 | 109067
6 | 24:14.18 | 4:26.15 | 109068 | 129032
7 | 28:40.33 | 7:28.62 | 129033 | 162694
8 | 36:09.20 | 3:57.40 | 162695 | 180509
9 | 40:06.60 | 3:41.71 | 180510 | 197155


Track 1

Filename I:\#New Rips + FLAC\Edwin Starr - Clean\01. Edwin Starr - I'm So Into You.wav

Pre-gap length 0:00:02.00

Peak level 100.0 %
Extraction speed 5.4 X
Track quality 100.0 %
Test CRC 23205E3A
Copy CRC 23205E3A
Accurately ripped (confidence 6) [3CF527BB] (AR v2)
Copy OK

Track 2

Filename I:\#New Rips + FLAC\Edwin Starr - Clean\02. Edwin Starr - Jealous.wav

Peak level 100.0 %
Extraction speed 5.9 X
Track quality 100.0 %
Test CRC B9C317DD
Copy CRC B9C317DD
Accurately ripped (confidence 6) [5089BC9F] (AR v2)
Copy OK

Track 3

Filename I:\#New Rips + FLAC\Edwin Starr - Clean\03. Edwin Starr - Contact.wav

Peak level 100.0 %
Extraction speed 6.9 X
Track quality 100.0 %
Test CRC DB90285A
Copy CRC DB90285A
Accurately ripped (confidence 6) [4C461093] (AR v2)
Copy OK

Track 4

Filename I:\#New Rips + FLAC\Edwin Starr - Clean\04. Edwin Starr - Storm Clouds on the Way.wav

Peak level 100.0 %
Extraction speed 7.2 X
Track quality 100.0 %
Test CRC 3A87E41B
Copy CRC 3A87E41B
Accurately ripped (confidence 6) [017693FD] (AR v2)
Copy OK

Track 5

Filename I:\#New Rips + FLAC\Edwin Starr - Clean\05. Edwin Starr - Don't Waste Your Time.wav

Peak level 100.0 %
Extraction speed 7.6 X
Track quality 100.0 %
Test CRC 73EF6354
Copy CRC 73EF6354
Accurately ripped (confidence 6) [D01690C7] (AR v2)
Copy OK

Track 6

Filename I:\#New Rips + FLAC\Edwin Starr - Clean\06. Edwin Starr - Music Brings Out the Beast in Me.wav

Peak level 100.0 %
Extraction speed 7.8 X
Track quality 100.0 %
Test CRC BF783124
Copy CRC BF783124
Accurately ripped (confidence 6) [D77BF715] (AR v2)
Copy OK

Track 7

Filename I:\#New Rips + FLAC\Edwin Starr - Clean\07. Edwin Starr - Working Song.wav

Peak level 100.0 %
Extraction speed 8.1 X
Track quality 99.9 %
Test CRC 2A84FB42
Copy CRC 2A84FB42
Accurately ripped (confidence 6) [E0A24B51] (AR v2)
Copy OK

Track 8

Filename I:\#New Rips + FLAC\Edwin Starr - Clean\08. Edwin Starr - I'm So Into You [Single Version].wav

Peak level 100.0 %
Extraction speed 9.0 X
Track quality 100.0 %
Test CRC 05046857
Copy CRC 05046857
Accurately ripped (confidence 6) [943929E6] (AR v2)
Copy OK

Track 9

Filename I:\#New Rips + FLAC\Edwin Starr - Clean\09. Edwin Starr - Contact [Single Version].wav

Peak level 100.0 %
Extraction speed 9.1 X
Track quality 100.0 %
Test CRC AA7C2A8D
Copy CRC AA7C2A8D
Accurately ripped (confidence 6) [0E3C8A55] (AR v2)
Copy OK


All tracks accurately ripped

No errors occurred

End of status report

–– CUETools DB Plugin V2.1.6

[CTDB TOCID: LeowtEMx6lGHFI1wQVgYq4KkRb0-] found
Submit result: LeowtEMx6lGHFI1wQVgYq4KkRb0- has been confirmed
Track | CTDB Status
1 | (2/2) Accurately ripped
2 | (2/2) Accurately ripped
3 | (2/2) Accurately ripped
4 | (2/2) Accurately ripped
5 | (2/2) Accurately ripped
6 | (2/2) Accurately ripped
7 | (2/2) Accurately ripped
8 | (2/2) Accurately ripped
9 | (2/2) Accurately ripped


==== Log checksum 0192F62B1C3E9B60F90963D13D384A507C08DC444C83AE214A8929B6C9BD6D53 ====

––––––––––––––––––––––––––––––

Exact Audio Copy V1.3 from 2. September 2016

EAC extraction logfile from 28. June 2018, 9:42

Edwin Starr / Clean

Used drive : PLEXTOR PX-891SAF Adapter: 1 ID: 0

Read mode : Secure
Utilize accurate stream : Yes
Defeat audio cache : Yes
Make use of C2 pointers : No

Read offset correction : 6
Overread into Lead-In and Lead-Out : No
Fill up missing offset samples with silence : Yes
Delete leading and trailing silent blocks : No
Null samples used in CRC calculations : Yes
Used interface : Native Win32 interface for Win NT & 2000
Gap handling : Appended to previous track

Used output format : User Defined Encoder
Selected bitrate : 1024 kBit/s
Quality : High
Add ID3 tag : No
Command line compressor : C:\Program Files (x86)\Exact Audio Copy\Flac\flac.exe
Additional command line options : -8 -V -T "ARTIST=%artist%" -T "TITLE=%title%" -T "ALBUM=%albumtitle%" -T "DATE=%year%" -T "TRACKNUMBER=%tracknr%" -T "GENRE=%genre%" -T "PERFORMER=%albuminterpret%" -T "COMPOSER=%composer%" %haslyrics%–tag-from-file=LYRICS="%lyricsfile%"%haslyrics% -T "ALBUMARTIST=%albumartist%" -T "DISCNUMBER=%cdnumber%" -T "TOTALDISCS=%totalcds%" -T "TOTALTRACKS=%numtracks%" -T "COMMENT=%comment%" %source% -o %dest%


TOC of the extracted CD

Track | Start | Length | Start sector | End sector
––––––––––––––––––––––––––––-
1 | 0:00.00 | 4:31.09 | 0 | 20333
2 | 4:31.09 | 4:06.67 | 20334 | 38850
3 | 8:38.01 | 7:18.29 | 38851 | 71729
4 | 15:56.30 | 4:18.02 | 71730 | 91081
5 | 20:14.32 | 3:59.61 | 91082 | 109067
6 | 24:14.18 | 4:26.15 | 109068 | 129032
7 | 28:40.33 | 7:28.62 | 129033 | 162694
8 | 36:09.20 | 3:57.40 | 162695 | 180509
9 | 40:06.60 | 3:41.71 | 180510 | 197155


Track 1

Filename I:\#New Rips + FLAC\Edwin Starr - Clean\01. Edwin Starr - I'm So Into You.wav

Pre-gap length 0:00:02.00

Peak level 100.0 %
Extraction speed 5.4 X
Track quality 100.0 %
Test CRC 23205E3A
Copy CRC 23205E3A
Accurately ripped (confidence 6) [3CF527BB] (AR v2)
Copy OK

Track 2

Filename I:\#New Rips + FLAC\Edwin Starr - Clean\02. Edwin Starr - Jealous.wav

Peak level 100.0 %
Extraction speed 5.9 X
Track quality 100.0 %
Test CRC B9C317DD
Copy CRC B9C317DD
Accurately ripped (confidence 6) [5089BC9F] (AR v2)
Copy OK

Track 3

Filename I:\#New Rips + FLAC\Edwin Starr - Clean\03. Edwin Starr - Contact.wav

Peak level 100.0 %
Extraction speed 6.9 X
Track quality 100.0 %
Test CRC DB90285A
Copy CRC DB90285A
Accurately ripped (confidence 6) [4C461093] (AR v2)
Copy OK

Track 4

Filename I:\#New Rips + FLAC\Edwin Starr - Clean\04. Edwin Starr - Storm Clouds on the Way.wav

Peak level 100.0 %
Extraction speed 7.2 X
Track quality 100.0 %
Test CRC 3A87E41B
Copy CRC 3A87E41B
Accurately ripped (confidence 6) [017693FD] (AR v2)
Copy OK

Track 5

Filename I:\#New Rips + FLAC\Edwin Starr - Clean\05. Edwin Starr - Don't Waste Your Time.wav

Peak level 100.0 %
Extraction speed 7.6 X
Track quality 100.0 %
Test CRC 73EF6354
Copy CRC 73EF6354
Accurately ripped (confidence 6) [D01690C7] (AR v2)
Copy OK

Track 6

Filename I:\#New Rips + FLAC\Edwin Starr - Clean\06. Edwin Starr - Music Brings Out the Beast in Me.wav

Peak level 100.0 %
Extraction speed 7.8 X
Track quality 100.0 %
Test CRC BF783124
Copy CRC BF783124
Accurately ripped (confidence 6) [D77BF715] (AR v2)
Copy OK

Track 7

Filename I:\#New Rips + FLAC\Edwin Starr - Clean\07. Edwin Starr - Working Song.wav

Peak level 100.0 %
Extraction speed 8.1 X
Track quality 99.9 %
Test CRC 2A84FB42
Copy CRC 2A84FB42
Accurately ripped (confidence 6) [E0A24B51] (AR v2)
Copy OK

Track 8

Filename I:\#New Rips + FLAC\Edwin Starr - Clean\08. Edwin Starr - I'm So Into You [Single Version].wav

Peak level 100.0 %
Extraction speed 9.0 X
Track quality 100.0 %
Test CRC 05046857
Copy CRC 05046857
Accurately ripped (confidence 6) [943929E6] (AR v2)
Copy OK

Track 9

Filename I:\#New Rips + FLAC\Edwin Starr - Clean\09. Edwin Starr - Contact [Single Version].wav

Peak level 100.0 %
Extraction speed 9.1 X
Track quality 100.0 %
Test CRC AA7C2A8D
Copy CRC AA7C2A8D
Accurately ripped (confidence 6) [0E3C8A55] (AR v2)
Copy OK


All tracks accurately ripped

No errors occurred

End of status report

–– CUETools DB Plugin V2.1.6

[CTDB TOCID: LeowtEMx6lGHFI1wQVgYq4KkRb0-] found
Submit result: LeowtEMx6lGHFI1wQVgYq4KkRb0- has been confirmed
Track | CTDB Status
1 | (2/2) Accurately ripped
2 | (2/2) Accurately ripped
3 | (2/2) Accurately ripped
4 | (2/2) Accurately ripped
5 | (2/2) Accurately ripped
6 | (2/2) Accurately ripped
7 | (2/2) Accurately ripped
8 | (2/2) Accurately ripped
9 | (2/2) Accurately ripped


==== Log checksum 0192F62B1C3E9B60F90963D13D384A507C08DC444C83AE214A8929B6C9BD6D53 ====

––––––––––––––––––––––––––––––––––––––––
Analyzed: Edwin Starr / Clean
––––––––––––––––––––––––––––––––––––––––

DR Peak RMS Duration Track
––––––––––––––––––––––––––––––––––––––––
DR7 0.00 dB -8.88 dB 4:31 01-I'm So Into You
DR7 0.00 dB -8.69 dB 4:07 02-Jealous
DR9 0.00 dB -10.36 dB 7:18 03-Contact
DR7 0.00 dB -8.07 dB 4:18 04-Storm Clouds on the Way
DR7 0.00 dB -10.48 dB 4:00 05-Don't Waste Your Time
DR9 0.00 dB -10.34 dB 4:26 06-Music Brings Out the Beast in Me
DR8 0.00 dB -9.71 dB 7:29 07-Working Song
DR7 0.00 dB -9.03 dB 3:58 08-I'm So Into You [Single Version]
DR8 0.00 dB -9.36 dB 3:42 09-Contact [Single Version]
––––––––––––––––––––––––––––––––––––––––

Number of tracks: 9
Official DR value: DR8

Samplerate: 44100 Hz
Channels: 2
Bits per sample: 16
Bitrate: 995 kbps
Codec: FLAC
================================================================================

Thanks to original releaser

password: BlondStyle