Subcategories

Egg - The Civil Surface (1974) [Reissue 2007] (Repost)

Posted By: gribovar
Egg - The Civil Surface (1974) [Reissue 2007] (Repost)

Egg - The Civil Surface (1974) [Reissue 2007]
EAC Rip | FLAC (image+.cue+log) - 207 MB | MP3 CBR 320 kbps (LAME 3.93) - 96 MB | Covers - 19 MB
Genre: Progressive Rock/Canterbury Scene | RAR 3% Rec. | Label: Esoteric Recordings (ECLEC 2003)

Egg were exponents of the so-called "Canterbury" style of Folk/Rock music and were focused around the compositional and keyboard playing skills of Dave Stewart (later in Hatfield & The North) and Mont Campbell and Clive Brooks. In 1974, they recorded their final album for the Virgin Record label. Featuring guest musicians such as Steve Hillage (Gong) and members of Henry Cow, The Civil Surface is now regarded as a classic of the "Canterbury" and "Progressive" genres. This Esoteric Recordings release has been remastered from the original tapes and is certain to the many who made the reissues of Egg’s previous work such a success.

Tracklist:
01. Germ Patrol
02. Wind Quartet 1
03. Enneagram
04. Prelude
05. Wring Out The Ground Loosely Now
06. Nearch
07. Wind Quartet 2

Total time: 40:48

Exact Audio Copy V0.99 prebeta 4 from 23. January 2008

EAC extraction logfile from 6. February 2008, 9:52

Egg / The Civil Surface (2007 Remaster)

Used drive : LITE-ON DVDRW LH-20A1P Adapter: 0 ID: 2

Read mode : Secure
Utilize accurate stream : Yes
Defeat audio cache : Yes
Make use of C2 pointers : No

Read offset correction : 6
Overread into Lead-In and Lead-Out : No
Fill up missing offset samples with silence : Yes
Delete leading and trailing silent blocks : No
Null samples used in CRC calculations : Yes
Used interface : Installed external ASPI interface

Used output format : Internal WAV Routines
Sample format : 44.100 Hz; 16 Bit; Stereo


TOC of the extracted CD

Track | Start | Length | Start sector | End sector
––––––––––––––––––––––––––––-
1 | 0:00.00 | 8:31.72 | 0 | 38396
2 | 8:31.72 | 2:25.27 | 38397 | 49298
3 | 10:57.24 | 9:09.66 | 49299 | 90539
4 | 20:07.15 | 4:17.61 | 90540 | 109875
5 | 24:25.01 | 8:10.69 | 109876 | 146694
6 | 32:35.70 | 3:27.34 | 146695 | 162253
7 | 36:03.29 | 4:44.65 | 162254 | 183618


Range status and errors

Selected range

Filename D:\flogger77\Egg - The Civil Surface (2007 Remaster).wav

Peak level 98.8 %
Range quality 100.0 %
Copy CRC 56C88C82
Copy OK

No errors occurred


AccurateRip summary

Track 1 accurately ripped (confidence 1) [6206E5D7]
Track 2 accurately ripped (confidence 1) [3946FDBA]
Track 3 accurately ripped (confidence 1) [BE0C216F]
Track 4 accurately ripped (confidence 1) [F56D30DA]
Track 5 accurately ripped (confidence 1) [53E57EAA]
Track 6 accurately ripped (confidence 1) [C96D13BC]
Track 7 accurately ripped (confidence 1) [F703AD75]

All tracks accurately ripped

End of status report

[CUETools log; Date: 10.12.2017 22:36:42; Version: 2.1.4]
[CTDB TOCID: Lfp0fNSerDEgtGuoAXxXj04avMg-] found.
Track | CTDB Status
1 | (29/30) Accurately ripped
2 | (30/30) Accurately ripped
3 | (30/30) Accurately ripped
4 | (30/30) Accurately ripped
5 | (29/30) Accurately ripped
6 | (30/30) Accurately ripped
7 | (30/30) Accurately ripped
[AccurateRip ID: 000be988-0046834c-61099007] found.
Track [ CRC | V2 ] Status
01 [6206e5d7|848a4027] (08+14/32) Accurately ripped
02 [3946fdba|407bd781] (08+14/32) Accurately ripped
03 [be0c216f|1ef1e301] (08+14/32) Accurately ripped
04 [f56d30da|d31bb1ea] (08+14/32) Accurately ripped
05 [53e57eaa|b9724d45] (08+14/32) Accurately ripped
06 [c96d13bc|3ef15ff7] (08+14/32) Accurately ripped
07 [f703ad75|b02c40b2] (07+14/31) Accurately ripped
Offsetted by -30:
01 [102da55e] (04/32) Accurately ripped
02 [bac1bd35] (04/32) Accurately ripped
03 [da7fac87] (04/32) Accurately ripped
04 [6d27865a] (04/32) Accurately ripped
05 [c149747b] (04/32) Accurately ripped
06 [463bebe3] (04/32) Accurately ripped
07 [d838c2f9] (04/31) Accurately ripped
Offsetted by -18:
01 [f9032b4f] (00/32) No match (V2 was not tested)
02 [3a43b544] (00/32) No match (V2 was not tested)
03 [3584a817] (00/32) No match (V2 was not tested)
04 [7076975a] (00/32) No match (V2 was not tested)
05 [31619018] (00/32) No match (V2 was not tested)
06 [ae6595f6] (00/32) No match (V2 was not tested)
07 [e489ed91] (00/31) No match (V2 was not tested)
Offsetted by 6:
01 [0e189eb0] (00/32) No match
02 [cc665d43] (00/32) No match
03 [eb8e9f37] (00/32) No match
04 [7714b95a] (00/32) No match
05 [f1c6dce2] (00/32) No match
06 [7c18e7bc] (00/32) No match
07 [fd2c42c1] (00/31) No match (V2 was not tested)

Track Peak [ CRC32 ] [W/O NULL] [ LOG ]
– 98,8 [56C88C82] [6822E2A3] CRC32
01 98,8 [B590F007] [563F2810]
02 52,4 [668D3152] [1B6CED4C]
03 98,8 [F5BAEBEB] [C332B547]
04 98,8 [EEA58F3E] [C35944B3]
05 98,8 [F876A30E] [0BF13EA3]
06 98,8 [A1AA84DD] [6FD9D1FC]
07 53,9 [8A01BEA9] [331DD276]

Thanks to flogger77