Subcategories

The Jimi Hendrix Experience - Electric Ladyland (1968) [50th Anniversary Super Deluxe Box Set, 3CD + Blu-ray]

Posted By: v3122
The Jimi Hendrix Experience - Electric Ladyland (1968) [50th Anniversary Super Deluxe Box Set, 3CD + Blu-ray]

The Jimi Hendrix Experience - Electric Ladyland (1968)
EAC | Flac(Image) + Cue + Log & MP3 CBR 320Kbps
Legacy, 19075859022 | ~ 1348 or 526 Mb | Artwork(png) -> 1.26 Mb
Blu-ray: MPEG-4 AVC 1080p, 23,976 fps, 16:9, High Profile 4.1
DTS-HD MA 5.1, 96 kHz, 24-bit / LPCM 2.0 & 5.1, 96 kHz, 24-bit / DTS 5.1, 48 kHz, 24-bit
Hard Rock / Blues Rock / Psychedelic Rock

In celebration of the 50th anniversary of the release of The Jimi Hendrix Experience masterpiece Electric Ladyland, Experience Hendrix and Legacy Recordings present a special Deluxe Edition box set that gives the listener an amazingly intimate look into the making of the most fully realized, cohesive project of Hendrix's entire career. Spread across 3 CDs and 1 Blu-ray the set includes CD1: the original album, now newly remastered by Bernie Grundman from the original analog tapes. CD2: Electric Ladyland: The Early Takes, which presents 20 never before heard demos and studio outtakes. Included are incredibly intimate demos for song ideas Hendrix recorded himself on a reel-to-reel tape at the Drake Hotel, as well as early recording session takes featuring guest appearances from Buddy Miles, Stephen Stills and Al Kooper CD3:The Jimi Hendrix Experience: Live At the Hollywood Bowl 9/14/68, part of Experience Hendrix's Dagger Records official bootleg series. The recently unearthed soundboard recording captures the band and the mounting excitement that took place just weeks before the release of Electric Ladyland Blu-Ray: includes the acclaimed full-length documentary At Last… The Beginning: The Making of Electric Ladyland, the first 5.1 surround sound mix of the entire original album ever overseen by Hendrix s original engineer Eddie Kramer plus the original stereo mixes in uncompressed 24 bit/96 kz high resolution audio. Electric Ladyland Deluxe Edition includes a full color, 48-page book containing Jimi's handwritten lyrics, poem and instructions to his record label, as well as never before published photos from the recording sessions that were shot by Eddie Kramer himself. All contained in a luxe casemade book with new cover art which is true to Hendrix's original vision of the album s cover: a Linda (McCartney) Eastman photograph of the band and children at the statue of Alice In Wonderland in New York's Central Park.
The Jimi Hendrix Experience - Electric Ladyland (1968) [50th Anniversary Super Deluxe Box Set, 3CD + Blu-ray]

The Jimi Hendrix Experience - Electric Ladyland (1968):

The Jimi Hendrix Experience - Electric Ladyland (1968) [50th Anniversary Super Deluxe Box Set, 3CD + Blu-ray]

Tracklist CD1 - Electric Ladyland
Remastered by Bernie Grundman:


01 …And The Gods Made Love
02 Have You Ever Been (To Electric Ladyland)
03 Crosstown Traffic
04 Voodoo Chile
05 Little Miss Strange
06 Long Hot Summer Night
07 Come On (Let The Good Times Roll)
08 Gypsy Eyes
09 Burning Of The Midnight Lamp
10 Rainy Day, Dream Away
11 1983… (A Merman I Should Turn To Be)
12 Moon, Turn The Tides…Gently Gently Away
13 Still Raining, Still Dreaming
14 House Burning Down
15 All Along The Watchtower
16 Voodoo Child (Slight Return)

Exact Audio Copy V1.3 from 2. September 2016

EAC extraction logfile from 22. November 2018, 9:26

The Jimi Hendrix Experience / Electric Ladyland CD1

Used drive : PLEXTOR BD-R PX-B950SA Adapter: 1 ID: 1

Read mode : Secure
Utilize accurate stream : Yes
Defeat audio cache : Yes
Make use of C2 pointers : No

Read offset correction : 6
Overread into Lead-In and Lead-Out : No
Fill up missing offset samples with silence : Yes
Delete leading and trailing silent blocks : No
Null samples used in CRC calculations : Yes
Used interface : Native Win32 interface for Win NT & 2000

Used output format : Internal WAV Routines
Sample format : 44.100 Hz; 16 Bit; Stereo


TOC of the extracted CD

Track | Start | Length | Start sector | End sector
––––––––––––––––––––––––––––-
1 | 0:00.00 | 1:22.40 | 0 | 6189
2 | 1:22.40 | 2:10.25 | 6190 | 15964
3 | 3:32.65 | 2:26.62 | 15965 | 26976
4 | 5:59.52 | 15:02.57 | 26977 | 94683
5 | 21:02.34 | 2:52.64 | 94684 | 107647
6 | 23:55.23 | 3:27.55 | 107648 | 123227
7 | 27:23.03 | 4:10.33 | 123228 | 142010
8 | 31:33.36 | 3:45.37 | 142011 | 158922
9 | 35:18.73 | 3:41.20 | 158923 | 175517
10 | 39:00.18 | 3:41.15 | 175518 | 192107
11 | 42:41.33 | 13:41.58 | 192108 | 253740
12 | 56:23.16 | 1:03.36 | 253741 | 258501
13 | 57:26.52 | 4:26.62 | 258502 | 278513
14 | 61:53.39 | 4:33.08 | 278514 | 298996
15 | 66:26.47 | 4:01.47 | 298997 | 317118
16 | 70:28.19 | 5:13.05 | 317119 | 340598


Range status and errors

Selected range

Filename C:\Users\Alex\Desktop\ALLexxess\Jimi Hendrix\1968 Electric Ladyland (4-Disc Box Set Legacy Records 2018)\CD1\The Jimi Hendrix Experience - Electric Ladyland CD1.wav

Peak level 100.0 %
Extraction speed 8.1 X
Range quality 99.9 %
Test CRC B6696D0C
Copy CRC B6696D0C
Copy OK

No errors occurred


AccurateRip summary

Track 1 cannot be verified as accurate (confidence 5) [E352C680], AccurateRip returned [FDC9FA6A] (AR v2)
Track 2 cannot be verified as accurate (confidence 5) [FE0C33C5], AccurateRip returned [FA667D1F] (AR v2)
Track 3 cannot be verified as accurate (confidence 5) [A4812ACA], AccurateRip returned [186E2078] (AR v2)
Track 4 cannot be verified as accurate (confidence 5) [0D1B1637], AccurateRip returned [AA5C0497] (AR v2)
Track 5 cannot be verified as accurate (confidence 5) [AEB6320B], AccurateRip returned [C29AA11E] (AR v2)
Track 6 cannot be verified as accurate (confidence 5) [F8722B2A], AccurateRip returned [1154756A] (AR v2)
Track 7 cannot be verified as accurate (confidence 5) [0B4427E6], AccurateRip returned [D64E8770] (AR v2)
Track 8 cannot be verified as accurate (confidence 5) [50731EB6], AccurateRip returned [AD42F0DE] (AR v2)
Track 9 cannot be verified as accurate (confidence 5) [8A44E0B7], AccurateRip returned [83D39892] (AR v2)
Track 10 cannot be verified as accurate (confidence 5) [F71199A0], AccurateRip returned [F3A31B80] (AR v2)
Track 11 cannot be verified as accurate (confidence 5) [F58E6009], AccurateRip returned [8EBFEFD5] (AR v2)
Track 12 cannot be verified as accurate (confidence 5) [B2AE505E], AccurateRip returned [BC8C3EF4] (AR v2)
Track 13 cannot be verified as accurate (confidence 5) [539BA38F], AccurateRip returned [DB17A0AC] (AR v2)
Track 14 cannot be verified as accurate (confidence 5) [EF43FD1F], AccurateRip returned [7D0FB027] (AR v2)
Track 15 cannot be verified as accurate (confidence 5) [73EC0D87], AccurateRip returned [CCFA615B] (AR v2)
Track 16 cannot be verified as accurate (confidence 5) [E77C597A], AccurateRip returned [246BF806] (AR v2)

No tracks could be verified as accurate
You may have a different pressing from the one(s) in the database

End of status report

–– CUETools DB Plugin V2.1.6

[CTDB TOCID: MVBlPj2On4JQrUOw9dEADFAtjMQ-] found
Submit result: MVBlPj2On4JQrUOw9dEADFAtjMQ- has been confirmed
Track | CTDB Status
1 | (66/66) Accurately ripped
2 | (66/66) Accurately ripped
3 | (66/66) Accurately ripped
4 | (66/66) Accurately ripped
5 | (66/66) Accurately ripped
6 | (66/66) Accurately ripped
7 | (66/66) Accurately ripped
8 | (66/66) Accurately ripped
9 | (66/66) Accurately ripped
10 | (66/66) Accurately ripped
11 | (66/66) Accurately ripped
12 | (66/66) Accurately ripped
13 | (66/66) Accurately ripped
14 | (66/66) Accurately ripped
15 | (66/66) Accurately ripped
16 | (66/66) Accurately ripped


==== Log checksum 0BB76529E27CAB9B3B3A3A2BDE24B7ABC45387B99EF09056453AEE73C8E3780E ====


[CUETools log; Date: 26.11.2018 6:40:17; Version: 2.1.4]
[AccurateRip ID: 002a9544-020a702b-dd11bd10] found.
Track [ CRC | V2 ] Status
01 [f1eeaf4a|e352c680] (0+0/5) No match
02 [4887fec3|fe0c33c5] (0+0/5) No match
03 [8fb1772e|a4812aca] (0+0/5) No match
04 [f481eae3|0d1b1637] (0+0/5) No match
05 [e009c9f6|aeb6320b] (0+0/5) No match
06 [f10ed9e9|f8722b2a] (0+0/5) No match
07 [c725cb6e|0b4427e6] (0+0/5) No match
08 [d2eeb56d|50731eb6] (0+0/5) No match
09 [2fe71439|8a44e0b7] (0+0/5) No match
10 [8828f565|f71199a0] (0+0/5) No match
11 [25e9f3ee|f58e6009] (0+0/5) No match
12 [a15f8ce6|b2ae505e] (0+0/5) No match
13 [90e3c7ff|539ba38f] (0+0/5) No match
14 [b30cc69c|ef43fd1f] (0+0/5) No match
15 [a6389396|73ec0d87] (0+0/5) No match
16 [a69a3b95|e77c597a] (0+0/5) No match
Offsetted by -12:
01 [0da8ce80] (0/5) No match (V2 was not tested)
02 [46ed9d47] (0/5) No match (V2 was not tested)
03 [05ddeb0c] (0/5) No match (V2 was not tested)
04 [839434ad] (0/5) No match (V2 was not tested)
05 [f141837a] (0/5) No match (V2 was not tested)
06 [06b2cced] (0/5) No match (V2 was not tested)
07 [8e526e0a] (0/5) No match (V2 was not tested)
08 [2c362db5] (0/5) No match (V2 was not tested)
09 [25fd4011] (0/5) No match (V2 was not tested)
10 [85d04e48] (0/5) No match (V2 was not tested)
11 [b23ced22] (0/5) No match (V2 was not tested)
12 [aa426b6f] (0/5) No match (V2 was not tested)
13 [14358217] (0/5) No match (V2 was not tested)
14 [3c859848] (0/5) No match (V2 was not tested)
15 [fb7abe72] (0/5) No match (V2 was not tested)
16 [de918103] (0/5) No match (V2 was not tested)

Track Peak [ CRC32 ] [W/O NULL] [ LOG ]
– 100,0 [B6696D0C] [1AD45EFF] CRC32
01 100,0 [5E440B47] [144A9F93]
02 100,0 [09942E58] [A0BD2889]
03 100,0 [C062EB64] [5FADFD5E]
04 100,0 [1FC2D89B] [AF5BDA3C]
05 100,0 [FD274EEC] [88814CAD]
06 100,0 [12648A88] [243E43A2]
07 100,0 [490DBF7F] [DA120854]
08 100,0 [BE083416] [70A278BB]
09 100,0 [FAB40F3F] [E5E38202]
10 100,0 [155B9DED] [13180EAC]
11 100,0 [03DAE14A] [06CF59AE]
12 100,0 [3A3276B6] [E50D7B6E]
13 100,0 [76272AF7] [9AA24207]
14 100,0 [5D659C51] [306E61CB]
15 100,0 [ABDCA625] [EF683FBB]
16 100,0 [5A6950BA] [67505568]


The Jimi Hendrix Experience - Electric Ladyland (1968) [50th Anniversary Super Deluxe Box Set, 3CD + Blu-ray]

Tracklist CD2 - At Last… The Beginning:
The Making Electric Ladyland: The Early Takes:


01 1983… (A Merman I Should Turn To Be)
02 Angel
03 Cherokee Mist
04 Hear My Train A Comin’
05 Voodoo Chile
06 Gypsy Eyes
07 Somewhere
08 Long Hot Summer Night (Demo 1)
09 Long Hot Summer Night (Demo 3)
10 Long Hot Summer Night (Demo 4)
11 Snowballs At My Window
12 My Friend
13 At Last… The Beginning
14 Angel Caterina (1983)
15 Little Miss Strange
16 Long Hot Summer Night (Take 1)
17 Long Hot Summer Night (Take 14)
18 Rainy Day Dream Away
19 Rainy Day Shuffle
20 1983… (A Merman I Should Turn To Be)

Exact Audio Copy V1.3 from 2. September 2016

EAC extraction logfile from 22. November 2018, 7:39

The Jimi Hendrix Experience / Electric Ladyland CD3

Used drive : PLEXTOR BD-R PX-B950SA Adapter: 1 ID: 1

Read mode : Secure
Utilize accurate stream : Yes
Defeat audio cache : Yes
Make use of C2 pointers : No

Read offset correction : 6
Overread into Lead-In and Lead-Out : No
Fill up missing offset samples with silence : Yes
Delete leading and trailing silent blocks : No
Null samples used in CRC calculations : Yes
Used interface : Native Win32 interface for Win NT & 2000

Used output format : Internal WAV Routines
Sample format : 44.100 Hz; 16 Bit; Stereo


TOC of the extracted CD

Track | Start | Length | Start sector | End sector
––––––––––––––––––––––––––––-
1 | 0:00.00 | 3:45.58 | 0 | 16932
2 | 3:45.58 | 9:56.39 | 16933 | 61671
3 | 13:42.22 | 7:59.59 | 61672 | 97655
4 | 21:42.06 | 11:55.28 | 97656 | 151308
5 | 33:37.34 | 2:42.29 | 151309 | 163487
6 | 36:19.63 | 1:42.66 | 163488 | 171203
7 | 38:02.54 | 5:27.30 | 171204 | 195758
8 | 43:30.09 | 7:14.40 | 195759 | 228348
9 | 50:44.49 | 5:11.16 | 228349 | 251689
10 | 55:55.65 | 4:22.58 | 251690 | 271397
11 | 60:18.48 | 3:26.54 | 271398 | 286901
12 | 63:45.27 | 4:33.35 | 286902 | 307411


Range status and errors

Selected range

Filename C:\Users\Alex\Desktop\ALLexxess\Jimi Hendrix\1968 Electric Ladyland (4-Disc Box Set Legacy Records 2018)\CD3\The Jimi Hendrix Experience - Electric Ladyland CD3.wav

Peak level 100.0 %
Extraction speed 8.4 X
Range quality 100.0 %
Test CRC ACD64A1A
Copy CRC ACD64A1A
Copy OK

No errors occurred


AccurateRip summary

Track 1 cannot be verified as accurate (confidence 4) [55ADF460], AccurateRip returned [0B4ACA65] (AR v2)
Track 2 cannot be verified as accurate (confidence 4) [B154C612], AccurateRip returned [050A15F9] (AR v2)
Track 3 cannot be verified as accurate (confidence 4) [CF16BE63], AccurateRip returned [8C29D127] (AR v2)
Track 4 cannot be verified as accurate (confidence 4) [8983D417], AccurateRip returned [E2637132] (AR v2)
Track 5 cannot be verified as accurate (confidence 4) [93A31047], AccurateRip returned [0DF576E0] (AR v2)
Track 6 cannot be verified as accurate (confidence 4) [9F826EB4], AccurateRip returned [DFC1D269] (AR v2)
Track 7 cannot be verified as accurate (confidence 4) [037ED296], AccurateRip returned [AD87329B] (AR v2)
Track 8 cannot be verified as accurate (confidence 4) [E838A45D], AccurateRip returned [D93B5160] (AR v2)
Track 9 cannot be verified as accurate (confidence 4) [03FFC410], AccurateRip returned [47FF9A3D] (AR v2)
Track 10 cannot be verified as accurate (confidence 4) [77FD94B5], AccurateRip returned [8C369D4E] (AR v2)
Track 11 cannot be verified as accurate (confidence 4) [12F7AFF0], AccurateRip returned [EA79E307] (AR v2)
Track 12 cannot be verified as accurate (confidence 4) [EACB763C], AccurateRip returned [5C29A0FD] (AR v2)

No tracks could be verified as accurate
You may have a different pressing from the one(s) in the database

End of status report

–– CUETools DB Plugin V2.1.6

[CTDB TOCID: bFuGoylttAqPpXNJd5dabpsbCQo-] found
Submit result: bFuGoylttAqPpXNJd5dabpsbCQo- has been confirmed
Track | CTDB Status
1 | (59/59) Accurately ripped
2 | (59/59) Accurately ripped
3 | (59/59) Accurately ripped
4 | (59/59) Accurately ripped
5 | (59/59) Accurately ripped
6 | (59/59) Accurately ripped
7 | (59/59) Accurately ripped
8 | (59/59) Accurately ripped
9 | (59/59) Accurately ripped
10 | (59/59) Accurately ripped
11 | (59/59) Accurately ripped
12 | (59/59) Accurately ripped


==== Log checksum AE71FEB61FB0B30FB42B687CEA61DC1EF11729EC8ECE016BE8F11CB15CBAC0A5 ====


[CUETools log; Date: 26.11.2018 6:47:01; Version: 2.1.4]
[AccurateRip ID: 0021a07c-0132d32f-9410020c] found.
Track [ CRC | V2 ] Status
01 [dbec05f7|55adf460] (0+0/4) No match
02 [8fa8d6c0|b154c612] (0+0/4) No match
03 [a3560fb7|cf16be63] (0+0/4) No match
04 [64615e57|8983d417] (0+0/4) No match
05 [6bc46f2f|93a31047] (0+0/4) No match
06 [30694234|9f826eb4] (0+0/4) No match
07 [6f354a2e|037ed296] (0+0/4) No match
08 [90976ca4|e838a45d] (0+0/4) No match
09 [adc3c1bd|03ffc410] (0+0/4) No match
10 [22d07e1a|77fd94b5] (0+0/4) No match
11 [436781b9|12f7aff0] (0+0/4) No match
12 [4ee3a944|eacb763c] (0+0/4) No match
Offsetted by -12:
01 [8e123647] (0/4) No match (V2 was not tested)
02 [deb5f75a] (0/4) No match (V2 was not tested)
03 [58e776a6] (0/4) No match (V2 was not tested)
04 [b222c0dd] (0/4) No match (V2 was not tested)
05 [e3897424] (0/4) No match (V2 was not tested)
06 [6f20c0c4] (0/4) No match (V2 was not tested)
07 [148174c0] (0/4) No match (V2 was not tested)
08 [807e49ec] (0/4) No match (V2 was not tested)
09 [f642bb55] (0/4) No match (V2 was not tested)
10 [377e7f03] (0/4) No match (V2 was not tested)
11 [18160a01] (0/4) No match (V2 was not tested)
12 [bbf6e945] (0/4) No match (V2 was not tested)

Track Peak [ CRC32 ] [W/O NULL] [ LOG ]
– 100,0 [ACD64A1A] [C6A8E125] CRC32
01 96,4 [D4B3C4C3] [DA62782A]
02 96,5 [6A0E15A3] [51CF1044]
03 100,0 [7D6669ED] [57B987E2]
04 100,0 [6F8A94E2] [161B3E93]
05 100,0 [E8EBD39A] [9199E4B2]
06 99,7 [E2071FFB] [288EC617]
07 98,0 [EE80A881] [25D1FD4D]
08 97,4 [FB2A7EEA] [7E516758]
09 100,0 [99DC8F7E] [CE85DB79]
10 98,1 [631F28E5] [ADEE3A13]
11 89,9 [202E4B65] [059A4227]
12 98,7 [69F3F1C3] [F68E2F2A]


The Jimi Hendrix Experience - Electric Ladyland (1968) [50th Anniversary Super Deluxe Box Set, 3CD + Blu-ray]

Tracklist CD3 - Jimi Hendrix Experience:
Live At The Hollywood Bowl Sept. 14, 1968:


01 Introduction
02 Are You Experienced?
03 Voodoo Child (Slight Return)
04 Red House
05 Foxey Lady
06 Fire
07 Hey Joe
08 Sunshine Of Your Love
09 I Don’t Live Today
10 Little Wing
11 Star Spangled Banner
12 Purple Haze

Exact Audio Copy V1.3 from 2. September 2016

EAC extraction logfile from 22. November 2018, 8:40

The Jimi Hendrix Experience / Electric Ladyland CD2

Used drive : PLEXTOR BD-R PX-B950SA Adapter: 1 ID: 1

Read mode : Secure
Utilize accurate stream : Yes
Defeat audio cache : Yes
Make use of C2 pointers : No

Read offset correction : 6
Overread into Lead-In and Lead-Out : No
Fill up missing offset samples with silence : Yes
Delete leading and trailing silent blocks : No
Null samples used in CRC calculations : Yes
Used interface : Native Win32 interface for Win NT & 2000

Used output format : Internal WAV Routines
Sample format : 44.100 Hz; 16 Bit; Stereo


TOC of the extracted CD

Track | Start | Length | Start sector | End sector
––––––––––––––––––––––––––––-
1 | 0:00.00 | 7:48.37 | 0 | 35136
2 | 7:48.37 | 3:21.69 | 35137 | 50280
3 | 11:10.31 | 3:15.35 | 50281 | 64940
4 | 14:25.66 | 1:21.29 | 64941 | 71044
5 | 15:47.20 | 10:05.62 | 71045 | 116481
6 | 25:53.07 | 3:02.71 | 116482 | 130202
7 | 28:56.03 | 1:50.17 | 130203 | 138469
8 | 30:46.20 | 2:09.29 | 138470 | 148173
9 | 32:55.49 | 2:05.67 | 148174 | 157615
10 | 35:01.41 | 1:53.02 | 157616 | 166092
11 | 36:54.43 | 0:45.47 | 166093 | 169514
12 | 37:40.15 | 4:11.69 | 169515 | 188408
13 | 41:52.09 | 1:36.57 | 188409 | 195665
14 | 43:28.66 | 4:59.66 | 195666 | 218156
15 | 48:28.57 | 3:30.44 | 218157 | 233950
16 | 51:59.26 | 3:55.53 | 233951 | 251628
17 | 55:55.04 | 4:15.64 | 251629 | 270817
18 | 60:10.68 | 4:37.19 | 270818 | 291611
19 | 64:48.12 | 3:13.50 | 291612 | 306136
20 | 68:01.62 | 10:21.50 | 306137 | 352761


Range status and errors

Selected range

Filename C:\Users\Alex\Desktop\ALLexxess\Jimi Hendrix\1968 Electric Ladyland (4-Disc Box Set Legacy Records 2018)\CD2\The Jimi Hendrix Experience - Electric Ladyland CD2.wav

Peak level 100.0 %
Extraction speed 8.6 X
Range quality 100.0 %
Test CRC 4372C787
Copy CRC 4372C787
Copy OK

No errors occurred


AccurateRip summary

Track 1 cannot be verified as accurate (confidence 3) [25D927EA], AccurateRip returned [A6B8CBCB] (AR v2)
Track 2 cannot be verified as accurate (confidence 3) [CBF92CED], AccurateRip returned [AB531B17] (AR v2)
Track 3 cannot be verified as accurate (confidence 3) [B0EBB535], AccurateRip returned [A8A7C6F4] (AR v2)
Track 4 cannot be verified as accurate (confidence 3) [B0D6BF5A], AccurateRip returned [F4C9F43D] (AR v2)
Track 5 cannot be verified as accurate (confidence 3) [0BF83A6B], AccurateRip returned [1951A1C2] (AR v2)
Track 6 cannot be verified as accurate (confidence 3) [A23F1BBA], AccurateRip returned [CD6EBE81] (AR v2)
Track 7 cannot be verified as accurate (confidence 3) [4D492560], AccurateRip returned [04B160AC] (AR v2)
Track 8 cannot be verified as accurate (confidence 3) [D41A5340], AccurateRip returned [F5B12574] (AR v2)
Track 9 cannot be verified as accurate (confidence 3) [98BDBBFE], AccurateRip returned [98A04AFD] (AR v2)
Track 10 cannot be verified as accurate (confidence 3) [3E8F836A], AccurateRip returned [1B39B7B5] (AR v2)
Track 11 cannot be verified as accurate (confidence 3) [7A653572], AccurateRip returned [6EA93F41] (AR v2)
Track 12 cannot be verified as accurate (confidence 3) [BD21C557], AccurateRip returned [8A097C57] (AR v2)
Track 13 cannot be verified as accurate (confidence 3) [CB4064C1], AccurateRip returned [7B028F96] (AR v2)
Track 14 cannot be verified as accurate (confidence 3) [DFB51F69], AccurateRip returned [E429FEB8] (AR v2)
Track 15 cannot be verified as accurate (confidence 3) [A6C9AC26], AccurateRip returned [CB2A8446] (AR v2)
Track 16 cannot be verified as accurate (confidence 3) [22B32AA6], AccurateRip returned [9F49DABF] (AR v2)
Track 17 cannot be verified as accurate (confidence 3) [C8AE32A8], AccurateRip returned [A9237758] (AR v2)
Track 18 cannot be verified as accurate (confidence 3) [118FDBB6], AccurateRip returned [24E20C5B] (AR v2)
Track 19 cannot be verified as accurate (confidence 3) [BA0CFB9C], AccurateRip returned [2830B8FD] (AR v2)
Track 20 cannot be verified as accurate (confidence 3) [59FFB935], AccurateRip returned [AFC59098] (AR v2)

No tracks could be verified as accurate
You may have a different pressing from the one(s) in the database

End of status report

–– CUETools DB Plugin V2.1.6

[CTDB TOCID: pH7qJ6J1a_qXQY4FIWh0J_E.skk-] found
Submit result: pH7qJ6J1a_qXQY4FIWh0J_E.skk- has been confirmed
Track | CTDB Status
1 | (62/62) Accurately ripped
2 | (62/62) Accurately ripped
3 | (62/62) Accurately ripped
4 | (62/62) Accurately ripped
5 | (62/62) Accurately ripped
6 | (62/62) Accurately ripped
7 | (62/62) Accurately ripped
8 | (62/62) Accurately ripped
9 | (62/62) Accurately ripped
10 | (62/62) Accurately ripped
11 | (62/62) Accurately ripped
12 | (62/62) Accurately ripped
13 | (62/62) Accurately ripped
14 | (62/62) Accurately ripped
15 | (62/62) Accurately ripped
16 | (62/62) Accurately ripped
17 | (62/62) Accurately ripped
18 | (62/62) Accurately ripped
19 | (62/62) Accurately ripped
20 | (61/62) Accurately ripped


==== Log checksum C524E861146696E7937E64D9B5D49FFDEB0832036323BA4B6EFA8BB040D14CD0 ====


[CUETools log; Date: 26.11.2018 6:44:16; Version: 2.1.4]
[AccurateRip ID: 003646ea-03066e54-1e125f14] found.
Track [ CRC | V2 ] Status
01 [409f971f|25d927ea] (0+0/3) No match
02 [4e2d2fc5|cbf92ced] (0+0/3) No match
03 [97331444|b0ebb535] (0+0/3) No match
04 [c2f954f5|b0d6bf5a] (0+0/3) No match
05 [138c222a|0bf83a6b] (0+0/3) No match
06 [73a6ac4f|a23f1bba] (0+0/3) No match
07 [47ba8e3a|4d492560] (0+0/3) No match
08 [0b8ef7a4|d41a5340] (0+0/3) No match
09 [d1bcc4a4|98bdbbfe] (0+0/3) No match
10 [4de09cc0|3e8f836a] (0+0/3) No match
11 [aa5e673c|7a653572] (0+0/3) No match
12 [1f28455b|bd21c557] (0+0/3) No match
13 [16ace41c|cb4064c1] (0+0/3) No match
14 [6185620c|dfb51f69] (0+0/3) No match
15 [54a6d9b0|a6c9ac26] (0+0/3) No match
16 [6a011aa5|22b32aa6] (0+0/3) No match
17 [35102f4a|c8ae32a8] (0+0/3) No match
18 [be39a0eb|118fdbb6] (0+0/3) No match
19 [dae144d5|ba0cfb9c] (0+0/3) No match
20 [ceb6266b|59ffb935] (0+0/3) No match
Offsetted by -12:
01 [c17a383e] (0/3) No match (V2 was not tested)
02 [30ad4933] (0/3) No match (V2 was not tested)
03 [8f728f5c] (0/3) No match (V2 was not tested)
04 [075aad54] (0/3) No match (V2 was not tested)
05 [179d22f7] (0/3) No match (V2 was not tested)
06 [9dd65a97] (0/3) No match (V2 was not tested)
07 [fd6d49a8] (0/3) No match (V2 was not tested)
08 [2c7394e0] (0/3) No match (V2 was not tested)
09 [d1996ea3] (0/3) No match (V2 was not tested)
10 [28be8b1d] (0/3) No match (V2 was not tested)
11 [9f59e74f] (0/3) No match (V2 was not tested)
12 [e8a65537] (0/3) No match (V2 was not tested)
13 [c773c037] (0/3) No match (V2 was not tested)
14 [6ab81577] (0/3) No match (V2 was not tested)
15 [763dbd61] (0/3) No match (V2 was not tested)
16 [e7dcdd86] (0/3) No match (V2 was not tested)
17 [122fba23] (0/3) No match (V2 was not tested)
18 [cd1e0f7d] (0/3) No match (V2 was not tested)
19 [4603835b] (0/3) No match (V2 was not tested)
20 [1aa934d3] (0/3) No match (V2 was not tested)

Track Peak [ CRC32 ] [W/O NULL] [ LOG ]
– 100,0 [4372C787] [832C9345] CRC32
01 82,4 [1A8A6838] [ED3D2E22]
02 71,5 [F3CE9A0E] [8D6E7D6C]
03 79,1 [C494E295] [604541F1]
04 69,8 [DD180D16] [FB2D62F1]
05 81,2 [D69EE37D] [E9E87811]
06 77,1 [52DA4C37] [1382E18D]
07 73,3 [4536E63F] [B4F4DF3F]
08 82,3 [312FE9F9] [79021AD3]
09 74,9 [90A298BA] [7C64BD45]
10 64,9 [0EEB8387] [3130184A]
11 59,4 [157E2207] [62A1E589]
12 62,0 [66998044] [9DEDF147]
13 58,2 [DAC0B2D7] [98E1B0D1]
14 100,0 [FE6E5558] [44FC434A]
15 100,0 [8823ECDA] [F4BCD442]
16 83,2 [DB271C3F] [A69710AD]
17 94,2 [6CC135A0] [84500401]
18 100,0 [238AAC69] [2A9CD566]
19 100,0 [3B591154] [F90F1AAF]
20 100,0 [7DEAA293] [88D78E8B]


The Jimi Hendrix Experience - Electric Ladyland (1968) [50th Anniversary Super Deluxe Box Set, 3CD + Blu-ray]

Tracklist BD - At Last… The Beginning:
The Making Electric Ladyland: The Early Takes:


● Uncompressed LPCM Stereo 24b/96k
● Uncompressed LPCM 5.1 Surround 24b/96k
● DTS-HD Master Audio 5.1 Surround 24b/96k
Plus:
● At Last… The Beginning: The Making of Electric Ladyland Documentary

01 …And The Gods Made Love
02 Have You Ever Been (To Electric Ladyland)
03 Crosstown Traffic
04 Voodoo Chile
05 Little Miss Strange
06 Long Hot summer Night
07 Come On (Let The Good Time Roll)
08 Gypsy Eyes
09 Burning Of The Midnight Lamp
10 Rainy Day, Dream Away
11 1983… (A Merman I Should Turn To Be)
12 Moon, Turn The Tide… Gently Gently Away
13 Still Raining, Still Dreaming
14 House Burning Down
15 All Along The Warchtower
16 Voodoo Child (Slight Return)

Disc Title: JIMI_HENDRIX_ELECTRIC_LADYLAND
Disc Size: 48 530 241 742 bytes
Protection: AACS
BD-Java: Yes
BDInfo: 0.7.3.3

Notes:

BDINFO HOME:
Cinema Squid
http://www.cinemasquid.com/blu-ray/tools/bdinfo

INCLUDES FORUMS REPORT FOR:
AVS Forum Blu-ray Audio and Video Specifications Thread
http://www.avsforum.com/avs-vb/showthread.php?t=1155731

WARNING: Report is incomplete because: Scan has not been run.

********************
PLAYLIST: 00031.MPLS
********************

<–- BEGIN FORUMS PASTE –->
                                                                                                                Total   Video                                             
Title                                                           Codec   Length  Movie Size      Disc Size       Bitrate Bitrate Main Audio Track                          Secondary Audio Track
-----                                                           ------  ------- --------------  --------------  ------- ------- ------------------                        ---------------------
00031.MPLS                                                      MPEG-2  1:26:52 0               48 530 241 742  0,00    0,00    LPCM 2.0 1536Kbps (48kHz/16-bit)          DTS 5.1 1509Kbps (48kHz/24-bit)


DISC INFO:

Disc Title:     JIMI_HENDRIX_ELECTRIC_LADYLAND
Disc Size:      48 530 241 742 bytes
Protection:     AACS
BD-Java:        Yes
BDInfo:         0.7.3.3

PLAYLIST REPORT:

Name:                   00031.MPLS
Length:                 1:26:52.273 (h:m:s.ms)
Size:                   0 bytes
Total Bitrate:          0,00 Mbps

VIDEO:

Codec                   Bitrate             Description     
-----                   -------             -----------     
MPEG-2 Video            0 kbps              480i / 29,970 fps / 4:3

AUDIO:

Codec                           Language        Bitrate         Description     
-----                           --------        -------         -----------     
LPCM Audio                      English         1536 kbps       2.0 / 48 kHz / 1536 kbps / 16-bit
DTS Audio                       English         1509 kbps       5.1 / 48 kHz / 1509 kbps / 24-bit

FILES:

Name            Time In         Length          Size            Total Bitrate   
----            -------         ------          ----            -------------   
00003.M2TS      0:00:00.000     1:26:50.738     0               0               
00006.M2TS      1:26:50.738     0:00:01.534     0               0               

CHAPTERS:

Number          Time In         Length          Avg Video Rate  Max 1-Sec Rate  Max 1-Sec Time  Max 5-Sec Rate  Max 5-Sec Time  Max 10Sec Rate  Max 10Sec Time  Avg Frame Size  Max Frame Size  Max Frame Time  
------          -------         ------          --------------  --------------  --------------  --------------  --------------  --------------  --------------  --------------  --------------  --------------  
1               0:00:00.000     0:03:02.348     0 kbps          0 kbps          00:00:00.000    0 kbps          00:00:00.000    0 kbps          00:00:00.000    0 bytes         0 bytes         00:00:00.000    
2               0:03:02.348     0:05:15.381     0 kbps          0 kbps          00:00:00.000    0 kbps          00:00:00.000    0 kbps          00:00:00.000    0 bytes         0 bytes         00:00:00.000    
3               0:08:17.730     0:03:11.591     0 kbps          0 kbps          00:00:00.000    0 kbps          00:00:00.000    0 kbps          00:00:00.000    0 bytes         0 bytes         00:00:00.000    
4               0:11:29.321     0:07:59.645     0 kbps          0 kbps          00:00:00.000    0 kbps          00:00:00.000    0 kbps          00:00:00.000    0 bytes         0 bytes         00:00:00.000    
5               0:19:28.967     0:06:34.260     0 kbps          0 kbps          00:00:00.000    0 kbps          00:00:00.000    0 kbps          00:00:00.000    0 bytes         0 bytes         00:00:00.000    
6               0:26:03.228     0:02:59.245     0 kbps          0 kbps          00:00:00.000    0 kbps          00:00:00.000    0 kbps          00:00:00.000    0 bytes         0 bytes         00:00:00.000    
7               0:29:02.474     0:12:00.953     0 kbps          0 kbps          00:00:00.000    0 kbps          00:00:00.000    0 kbps          00:00:00.000    0 bytes         0 bytes         00:00:00.000    
8               0:41:03.427     0:05:23.623     0 kbps          0 kbps          00:00:00.000    0 kbps          00:00:00.000    0 kbps          00:00:00.000    0 bytes         0 bytes         00:00:00.000    
9               0:46:27.050     0:02:18.071     0 kbps          0 kbps          00:00:00.000    0 kbps          00:00:00.000    0 kbps          00:00:00.000    0 bytes         0 bytes         00:00:00.000    
10              0:48:45.122     0:03:15.828     0 kbps          0 kbps          00:00:00.000    0 kbps          00:00:00.000    0 kbps          00:00:00.000    0 bytes         0 bytes         00:00:00.000    
11              0:52:00.951     0:05:51.718     0 kbps          0 kbps          00:00:00.000    0 kbps          00:00:00.000    0 kbps          00:00:00.000    0 bytes         0 bytes         00:00:00.000    
12              0:57:52.669     0:03:27.974     0 kbps          0 kbps          00:00:00.000    0 kbps          00:00:00.000    0 kbps          00:00:00.000    0 bytes         0 bytes         00:00:00.000    
13              1:01:20.643     0:03:57.770     0 kbps          0 kbps          00:00:00.000    0 kbps          00:00:00.000    0 kbps          00:00:00.000    0 bytes         0 bytes         00:00:00.000    
14              1:05:18.414     0:04:46.619     0 kbps          0 kbps          00:00:00.000    0 kbps          00:00:00.000    0 kbps          00:00:00.000    0 bytes         0 bytes         00:00:00.000    
15              1:10:05.034     0:06:49.041     0 kbps          0 kbps          00:00:00.000    0 kbps          00:00:00.000    0 kbps          00:00:00.000    0 bytes         0 bytes         00:00:00.000    
16              1:16:54.076     0:04:55.361     0 kbps          0 kbps          00:00:00.000    0 kbps          00:00:00.000    0 kbps          00:00:00.000    0 bytes         0 bytes         00:00:00.000    
17              1:21:49.437     0:05:01.300     0 kbps          0 kbps          00:00:00.000    0 kbps          00:00:00.000    0 kbps          00:00:00.000    0 bytes         0 bytes         00:00:00.000    
18              1:26:50.738     0:00:01.534     0 kbps          0 kbps          00:00:00.000    0 kbps          00:00:00.000    0 kbps          00:00:00.000    0 bytes         0 bytes         00:00:00.000    

STREAM DIAGNOSTICS:

File            PID             Type            Codec           Language                Seconds                 Bitrate                 Bytes           Packets         
----            ---             ----            -----           --------                --------------          --------------          -------------   -----           
00003.M2TS      4113 (0x1011)   0x02            MPEG-2                                  0                       0                       0               0               
00003.M2TS      4352 (0x1100)   0x80            LPCM            eng (English)           0                       0                       0               0               
00003.M2TS      4353 (0x1101)   0x82            DTS             eng (English)           0                       0                       0               0               
00006.M2TS      4113 (0x1011)   0x02            MPEG-2                                  0                       0                       0               0               

<–– END FORUMS PASTE ––>

QUICK SUMMARY:

Disc Title: JIMI_HENDRIX_ELECTRIC_LADYLAND
Disc Size: 48 530 241 742 bytes
Protection: AACS
BD-Java: Yes
Playlist: 00031.MPLS
Size: 0 bytes
Length: 1:26:52.273
Total Bitrate: 0,00 Mbps
Video: MPEG-2 Video / 0 kbps / 480i / 29,970 fps / 4:3
Audio: English / LPCM Audio / 2.0 / 48 kHz / 1536 kbps / 16-bit
Audio: English / DTS Audio / 5.1 / 48 kHz / 1509 kbps / 24-bit


********************
PLAYLIST: 00021.MPLS
********************

<–- BEGIN FORUMS PASTE –->
                                                                                                                Total   Video                                             
Title                                                           Codec   Length  Movie Size      Disc Size       Bitrate Bitrate Main Audio Track                          Secondary Audio Track
-----                                                           ------  ------- --------------  --------------  ------- ------- ------------------                        ---------------------
00021.MPLS                                                      AVC     1:15:43 0               48 530 241 742  0,00    0,00    LPCM 2.0 4608Kbps (96kHz/24-bit)          


DISC INFO:

Disc Title:     JIMI_HENDRIX_ELECTRIC_LADYLAND
Disc Size:      48 530 241 742 bytes
Protection:     AACS
BD-Java:        Yes
BDInfo:         0.7.3.3

PLAYLIST REPORT:

Name:                   00021.MPLS
Length:                 1:15:43.539 (h:m:s.ms)
Size:                   0 bytes
Total Bitrate:          0,00 Mbps

VIDEO:

Codec                   Bitrate             Description     
-----                   -------             -----------     
MPEG-4 AVC Video        0 kbps              1080p / 23,976 fps / 16:9 / High Profile 4.1

AUDIO:

Codec                           Language        Bitrate         Description     
-----                           --------        -------         -----------     
LPCM Audio                      English         4608 kbps       2.0 / 96 kHz / 4608 kbps / 24-bit

FILES:

Name            Time In         Length          Size            Total Bitrate   
----            -------         ------          ----            -------------   
00000.M2TS      0:00:00.000     1:15:42.537     0               0               
00004.M2TS      1:15:42.537     0:00:01.000     0               0               

CHAPTERS:

Number          Time In         Length          Avg Video Rate  Max 1-Sec Rate  Max 1-Sec Time  Max 5-Sec Rate  Max 5-Sec Time  Max 10Sec Rate  Max 10Sec Time  Avg Frame Size  Max Frame Size  Max Frame Time  
------          -------         ------          --------------  --------------  --------------  --------------  --------------  --------------  --------------  --------------  --------------  --------------  
1               0:00:00.000     0:01:23.750     0 kbps          0 kbps          00:00:00.000    0 kbps          00:00:00.000    0 kbps          00:00:00.000    0 bytes         0 bytes         00:00:00.000    
2               0:01:23.750     0:02:10.296     0 kbps          0 kbps          00:00:00.000    0 kbps          00:00:00.000    0 kbps          00:00:00.000    0 bytes         0 bytes         00:00:00.000    
3               0:03:34.047     0:02:26.771     0 kbps          0 kbps          00:00:00.000    0 kbps          00:00:00.000    0 kbps          00:00:00.000    0 bytes         0 bytes         00:00:00.000    
4               0:06:00.818     0:15:02.776     0 kbps          0 kbps          00:00:00.000    0 kbps          00:00:00.000    0 kbps          00:00:00.000    0 bytes         0 bytes         00:00:00.000    
5               0:21:03.595     0:02:52.922     0 kbps          0 kbps          00:00:00.000    0 kbps          00:00:00.000    0 kbps          00:00:00.000    0 bytes         0 bytes         00:00:00.000    
6               0:23:56.518     0:03:27.707     0 kbps          0 kbps          00:00:00.000    0 kbps          00:00:00.000    0 kbps          00:00:00.000    0 bytes         0 bytes         00:00:00.000    
7               0:27:24.225     0:04:10.458     0 kbps          0 kbps          00:00:00.000    0 kbps          00:00:00.000    0 kbps          00:00:00.000    0 bytes         0 bytes         00:00:00.000    
8               0:31:34.684     0:03:45.475     0 kbps          0 kbps          00:00:00.000    0 kbps          00:00:00.000    0 kbps          00:00:00.000    0 bytes         0 bytes         00:00:00.000    
9               0:35:20.159     0:03:41.262     0 kbps          0 kbps          00:00:00.000    0 kbps          00:00:00.000    0 kbps          00:00:00.000    0 bytes         0 bytes         00:00:00.000    
10              0:39:01.422     0:03:41.763     0 kbps          0 kbps          00:00:00.000    0 kbps          00:00:00.000    0 kbps          00:00:00.000    0 bytes         0 bytes         00:00:00.000    
11              0:42:43.185     0:13:41.028     0 kbps          0 kbps          00:00:00.000    0 kbps          00:00:00.000    0 kbps          00:00:00.000    0 bytes         0 bytes         00:00:00.000    
12              0:56:24.214     0:01:03.688     0 kbps          0 kbps          00:00:00.000    0 kbps          00:00:00.000    0 kbps          00:00:00.000    0 bytes         0 bytes         00:00:00.000    
13              0:57:27.902     0:04:26.808     0 kbps          0 kbps          00:00:00.000    0 kbps          00:00:00.000    0 kbps          00:00:00.000    0 bytes         0 bytes         00:00:00.000    
14              1:01:54.711     0:04:33.064     0 kbps          0 kbps          00:00:00.000    0 kbps          00:00:00.000    0 kbps          00:00:00.000    0 bytes         0 bytes         00:00:00.000    
15              1:06:27.775     0:04:01.658     0 kbps          0 kbps          00:00:00.000    0 kbps          00:00:00.000    0 kbps          00:00:00.000    0 bytes         0 bytes         00:00:00.000    
16              1:10:29.433     0:05:13.104     0 kbps          0 kbps          00:00:00.000    0 kbps          00:00:00.000    0 kbps          00:00:00.000    0 bytes         0 bytes         00:00:00.000    
17              1:15:42.537     0:00:01.001     0 kbps          0 kbps          00:00:00.000    0 kbps          00:00:00.000    0 kbps          00:00:00.000    0 bytes         0 bytes         00:00:00.000    

STREAM DIAGNOSTICS:

File            PID             Type            Codec           Language                Seconds                 Bitrate                 Bytes           Packets         
----            ---             ----            -----           --------                --------------          --------------          -------------   -----           
00000.M2TS      4113 (0x1011)   0x1B            AVC                                     0                       0                       0               0               
00000.M2TS      4352 (0x1100)   0x80            LPCM            eng (English)           0                       0                       0               0               
00004.M2TS      4113 (0x1011)   0x1B            AVC                                     0                       0                       0               0               

<–– END FORUMS PASTE ––>

QUICK SUMMARY:

Disc Title: JIMI_HENDRIX_ELECTRIC_LADYLAND
Disc Size: 48 530 241 742 bytes
Protection: AACS
BD-Java: Yes
Playlist: 00021.MPLS
Size: 0 bytes
Length: 1:15:43.539
Total Bitrate: 0,00 Mbps
Video: MPEG-4 AVC Video / 0 kbps / 1080p / 23,976 fps / 16:9 / High Profile 4.1
Audio: English / LPCM Audio / 2.0 / 96 kHz / 4608 kbps / 24-bit


********************
PLAYLIST: 00022.MPLS
********************

<–- BEGIN FORUMS PASTE –->
                                                                                                                Total   Video                                             
Title                                                           Codec   Length  Movie Size      Disc Size       Bitrate Bitrate Main Audio Track                          Secondary Audio Track
-----                                                           ------  ------- --------------  --------------  ------- ------- ------------------                        ---------------------
00022.MPLS                                                      AVC     1:15:21 0               48 530 241 742  0,00    0,00    LPCM 5.1 13824Kbps (96kHz/24-bit)         


DISC INFO:

Disc Title:     JIMI_HENDRIX_ELECTRIC_LADYLAND
Disc Size:      48 530 241 742 bytes
Protection:     AACS
BD-Java:        Yes
BDInfo:         0.7.3.3

PLAYLIST REPORT:

Name:                   00022.MPLS
Length:                 1:15:21.683 (h:m:s.ms)
Size:                   0 bytes
Total Bitrate:          0,00 Mbps

VIDEO:

Codec                   Bitrate             Description     
-----                   -------             -----------     
MPEG-4 AVC Video        0 kbps              1080p / 23,976 fps / 16:9 / High Profile 4.1

AUDIO:

Codec                           Language        Bitrate         Description     
-----                           --------        -------         -----------     
LPCM Audio                      English         13824 kbps      5.1 / 96 kHz / 13824 kbps / 24-bit

FILES:

Name            Time In         Length          Size            Total Bitrate   
----            -------         ------          ----            -------------   
00001.M2TS      0:00:00.000     1:15:20.682     0               0               
00004.M2TS      1:15:20.682     0:00:01.000     0               0               

CHAPTERS:

Number          Time In         Length          Avg Video Rate  Max 1-Sec Rate  Max 1-Sec Time  Max 5-Sec Rate  Max 5-Sec Time  Max 10Sec Rate  Max 10Sec Time  Avg Frame Size  Max Frame Size  Max Frame Time  
------          -------         ------          --------------  --------------  --------------  --------------  --------------  --------------  --------------  --------------  --------------  --------------  
1               0:00:00.000     0:01:23.583     0 kbps          0 kbps          00:00:00.000    0 kbps          00:00:00.000    0 kbps          00:00:00.000    0 bytes         0 bytes         00:00:00.000    
2               0:01:23.583     0:02:10.213     0 kbps          0 kbps          00:00:00.000    0 kbps          00:00:00.000    0 kbps          00:00:00.000    0 bytes         0 bytes         00:00:00.000    
3               0:03:33.796     0:02:21.057     0 kbps          0 kbps          00:00:00.000    0 kbps          00:00:00.000    0 kbps          00:00:00.000    0 bytes    			  		 	 	  		  	   	 			   			  	  		   	  	 			   		   	  			     		 	 	  	 			   		 	    			  				      0 bytes         00:00:00.000    
4               0:05:54.854     0:14:59.940     0 kbps          0 kbps          00:00:00.000    0 kbps          00:00:00.000    0 kbps          00:00:00.000    0 bytes         0 bytes         00:00:00.000    
5               0:20:54.795     0:02:51.880     0 kbps          0 kbps          00:00:00.000    0 kbps          00:00:00.000    0 kbps          00:00:00.000    0 bytes         0 bytes         00:00:00.000    
6               0:23:46.675     0:03:27.957     0 kbps          0 kbps          00:00:00.000    0 kbps          00:00:00.000    0 kbps          00:00:00.000    0 bytes         0 bytes         00:00:00.000    
7               0:27:14.632     0:04:09.332     0 kbps          0 kbps          00:00:00.000    0 kbps          00:00:00.000    0 kbps          00:00:00.000    0 bytes         0 bytes         00:00:00.000    
8               0:31:23.965     0:03:43.014     0 kbps          0 kbps          00:00:00.000    0 kbps          00:00:00.000    0 kbps          00:00:00.000    0 bytes         0 bytes         00:00:00.000    
9               0:35:06.979     0:03:39.260     0 kbps          0 kbps          00:00:00.000    0 kbps          00:00:00.000    0 kbps          00:00:00.000    0 bytes         0 bytes         00:00:00.000    
10              0:38:46.240     0:03:43.598     0 kbps          0 kbps          00:00:00.000    0 kbps          00:00:00.000    0 kbps          00:00:00.000    0 bytes         0 bytes         00:00:00.000    
11              0:42:29.838     0:13:38.859     0 kbps          0 kbps          00:00:00.000    0 kbps          00:00:00.000    0 kbps          00:00:00.000    0 bytes         0 bytes         00:00:00.000    
12              0:56:08.698     0:01:00.810     0 kbps          0 kbps          00:00:00.000    0 kbps          00:00:00.000    0 kbps          00:00:00.000    0 bytes         0 bytes         00:00:00.000    
13              0:57:09.509     0:04:25.932     0 kbps          0 kbps          00:00:00.000    0 kbps          00:00:00.000    0 kbps          00:00:00.000    0 bytes         0 bytes         00:00:00.000    
14              1:01:35.441     0:04:33.314     0 kbps          0 kbps          00:00:00.000    0 kbps          00:00:00.000    0 kbps          00:00:00.000    0 bytes         0 bytes         00:00:00.000    
15              1:06:08.756     0:04:00.031     0 kbps          0 kbps          00:00:00.000    0 kbps          00:00:00.000    0 kbps          00:00:00.000    0 bytes         0 bytes         00:00:00.000    
16              1:10:08.787     0:05:11.894     0 kbps          0 kbps          00:00:00.000    0 kbps          00:00:00.000    0 kbps          00:00:00.000    0 bytes         0 bytes         00:00:00.000    
17              1:15:20.682     0:00:01.001     0 kbps          0 kbps          00:00:00.000    0 kbps          00:00:00.000    0 kbps          00:00:00.000    0 bytes         0 bytes         00:00:00.000    

STREAM DIAGNOSTICS:

File            PID             Type            Codec           Language                Seconds                 Bitrate                 Bytes           Packets         
----            ---             ----            -----           --------                --------------          --------------          -------------   -----           
00001.M2TS      4113 (0x1011)   0x1B            AVC                                     0                       0                       0               0               
00001.M2TS      4352 (0x1100)   0x80            LPCM            eng (English)           0                       0                       0               0               
00004.M2TS      4113 (0x1011)   0x1B            AVC                                     0                       0                       0               0               

<–– END FORUMS PASTE ––>

QUICK SUMMARY:

Disc Title: JIMI_HENDRIX_ELECTRIC_LADYLAND
Disc Size: 48 530 241 742 bytes
Protection: AACS
BD-Java: Yes
Playlist: 00022.MPLS
Size: 0 bytes
Length: 1:15:21.683
Total Bitrate: 0,00 Mbps
Video: MPEG-4 AVC Video / 0 kbps / 1080p / 23,976 fps / 16:9 / High Profile 4.1
Audio: English / LPCM Audio / 5.1 / 96 kHz / 13824 kbps / 24-bit


********************
PLAYLIST: 00023.MPLS
********************

<–- BEGIN FORUMS PASTE –->
                                                                                                                Total   Video                                             
Title                                                           Codec   Length  Movie Size      Disc Size       Bitrate Bitrate Main Audio Track                          Secondary Audio Track
-----                                                           ------  ------- --------------  --------------  ------- ------- ------------------                        ---------------------
00023.MPLS                                                      AVC     1:15:21 0               48 530 241 742  0,00    0,00    DTS-HD Master 5.1 (96kHz/24-bit)          


DISC INFO:

Disc Title:     JIMI_HENDRIX_ELECTRIC_LADYLAND
Disc Size:      48 530 241 742 bytes
Protection:     AACS
BD-Java:        Yes
BDInfo:         0.7.3.3

PLAYLIST REPORT:

Name:                   00023.MPLS
Length:                 1:15:21.683 (h:m:s.ms)
Size:                   0 bytes
Total Bitrate:          0,00 Mbps

VIDEO:

Codec                   Bitrate             Description     
-----                   -------             -----------     
MPEG-4 AVC Video        0 kbps              1080p / 23,976 fps / 16:9 / High Profile 4.1

AUDIO:

Codec                           Language        Bitrate         Description     
-----                           --------        -------         -----------     
DTS-HD Master Audio             English         0 kbps          5.1 / 96 kHz / 24-bit (DTS Core: 5.1 / 48 kHz / 1509 kbps / 24-bit)

FILES:

Name            Time In         Length          Size            Total Bitrate   
----            -------         ------          ----            -------------   
00002.M2TS      0:00:00.000     1:15:20.682     0               0               
00004.M2TS      1:15:20.682     0:00:01.000     0               0               

CHAPTERS:

Number          Time In         Length          Avg Video Rate  Max 1-Sec Rate  Max 1-Sec Time  Max 5-Sec Rate  Max 5-Sec Time  Max 10Sec Rate  Max 10Sec Time  Avg Frame Size  Max Frame Size  Max Frame Time  
------          -------         ------          --------------  --------------  --------------  --------------  --------------  --------------  --------------  --------------  --------------  --------------  
1               0:00:00.000     0:01:23.583     0 kbps          0 kbps          00:00:00.000    0 kbps          00:00:00.000    0 kbps          00:00:00.000    0 bytes         0 bytes         00:00:00.000    
2               0:01:23.583     0:02:10.213     0 kbps          0 kbps          00:00:00.000    0 kbps          00:00:00.000    0 kbps          00:00:00.000    0 bytes         0 bytes         00:00:00.000    
3               0:03:33.796     0:02:21.057     0 kbps          0 kbps          00:00:00.000    0 kbps          00:00:00.000    0 kbps          00:00:00.000    0 bytes         0 bytes         00:00:00.000    
4               0:05:54.854     0:14:59.940     0 kbps          0 kbps          00:00:00.000    0 kbps          00:00:00.000    0 kbps          00:00:00.000    0 bytes         0 bytes         00:00:00.000    
5               0:20:54.795     0:02:51.880     0 kbps          0 kbps          00:00:00.000    0 kbps          00:00:00.000    0 kbps          00:00:00.000    0 bytes         0 bytes         00:00:00.000    
6               0:23:46.675     0:03:27.957     0 kbps          0 kbps          00:00:00.000    0 kbps          00:00:00.000    0 kbps          00:00:00.000    0 bytes         0 bytes         00:00:00.000    
7               0:27:14.632     0:04:09.332     0 kbps          0 kbps          00:00:00.000    0 kbps          00:00:00.000    0 kbps          00:00:00.000    0 bytes         0 bytes         00:00:00.000    
8               0:31:23.965     0:03:43.014     0 kbps          0 kbps          00:00:00.000    0 kbps          00:00:00.000    0 kbps          00:00:00.000    0 bytes         0 bytes         00:00:00.000    
9               0:35:06.979     0:03:39.260     0 kbps          0 kbps          00:00:00.000    0 kbps          00:00:00.000    0 kbps          00:00:00.000    0 bytes         0 bytes         00:00:00.000    
10              0:38:46.240     0:03:43.598     0 kbps          0 kbps          00:00:00.000    0 kbps          00:00:00.000    0 kbps          00:00:00.000    0 bytes         0 bytes         00:00:00.000    
11              0:42:29.838     0:13:38.859     0 kbps          0 kbps          00:00:00.000    0 kbps          00:00:00.000    0 kbps          00:00:00.000    0 bytes         0 bytes         00:00:00.000    
12              0:56:08.698     0:01:00.810     0 kbps          0 kbps          00:00:00.000    0 kbps          00:00:00.000    0 kbps          00:00:00.000    0 bytes         0 bytes         00:00:00.000    
13              0:57:09.509     0:04:25.932     0 kbps          0 kbps          00:00:00.000    0 kbps          00:00:00.000    0 kbps          00:00:00.000    0 bytes         0 bytes         00:00:00.000    
14              1:01:35.441     0:04:33.314     0 kbps          0 kbps          00:00:00.000    0 kbps          00:00:00.000    0 kbps          00:00:00.000    0 bytes         0 bytes         00:00:00.000    
15              1:06:08.756     0:04:00.031     0 kbps          0 kbps          00:00:00.000    0 kbps          00:00:00.000    0 kbps          00:00:00.000    0 bytes         0 bytes         00:00:00.000    
16              1:10:08.787     0:05:11.894     0 kbps          0 kbps          00:00:00.000    0 kbps          00:00:00.000    0 kbps          00:00:00.000    0 bytes         0 bytes         00:00:00.000    
17              1:15:20.682     0:00:01.001     0 kbps          0 kbps          00:00:00.000    0 kbps          00:00:00.000    0 kbps          00:00:00.000    0 bytes         0 bytes         00:00:00.000    

STREAM DIAGNOSTICS:

File            PID             Type            Codec           Language                Seconds                 Bitrate                 Bytes           Packets         
----            ---             ----            -----           --------                --------------          --------------          -------------   -----           
00002.M2TS      4113 (0x1011)   0x1B            AVC                                     0                       0                       0               0               
00002.M2TS      4352 (0x1100)   0x86            DTS-HD MA       eng (English)           0                       0                       0               0               
00004.M2TS      4113 (0x1011)   0x1B            AVC                                     0                       0                       0               0               

<–– END FORUMS PASTE ––>

QUICK SUMMARY:

Disc Title: JIMI_HENDRIX_ELECTRIC_LADYLAND
Disc Size: 48 530 241 742 bytes
Protection: AACS
BD-Java: Yes
Playlist: 00023.MPLS
Size: 0 bytes
Length: 1:15:21.683
Total Bitrate: 0,00 Mbps
Video: MPEG-4 AVC Video / 0 kbps / 1080p / 23,976 fps / 16:9 / High Profile 4.1
Audio: English / DTS-HD Master Audio / 5.1 / 96 kHz / 24-bit (DTS Core: 5.1 / 48 kHz / 1509 kbps / 24-bit)


********************
PLAYLIST: 00001.MPLS
********************

<–- BEGIN FORUMS PASTE –->
                                                                                                                Total   Video                                             
Title                                                           Codec   Length  Movie Size      Disc Size       Bitrate Bitrate Main Audio Track                          Secondary Audio Track
-----                                                           ------  ------- --------------  --------------  ------- ------- ------------------                        ---------------------
00001.MPLS                                                      MPEG-2  0:00:35 0               48 530 241 742  0,00    0,00                                              


DISC INFO:

Disc Title:     JIMI_HENDRIX_ELECTRIC_LADYLAND
Disc Size:      48 530 241 742 bytes
Protection:     AACS
BD-Java:        Yes
BDInfo:         0.7.3.3

PLAYLIST REPORT:

Name:                   00001.MPLS
Length:                 0:00:35.568 (h:m:s.ms)
Size:                   0 bytes
Total Bitrate:          0,00 Mbps

VIDEO:

Codec                   Bitrate             Description     
-----                   -------             -----------     
MPEG-2 Video            0 kbps              480i / 29,970 fps / 16:9

FILES:

Name            Time In         Length          Size            Total Bitrate   
----            -------         ------          ----            -------------   
00008.M2TS      0:00:00.000     0:00:34.033     0               0               
00009.M2TS      0:00:34.033     0:00:01.534     0               0               

CHAPTERS:

Number          Time In         Length          Avg Video Rate  Max 1-Sec Rate  Max 1-Sec Time  Max 5-Sec Rate  Max 5-Sec Time  Max 10Sec Rate  Max 10Sec Time  Avg Frame Size  Max Frame Size  Max Frame Time  
------          -------         ------          --------------  --------------  --------------  --------------  --------------  --------------  --------------  --------------  --------------  --------------  
1               0:00:00.000     0:00:34.033     0 kbps          0 kbps          00:00:00.000    0 kbps          00:00:00.000    0 kbps          00:00:00.000    0 bytes         0 bytes         00:00:00.000    
2               0:00:34.033     0:00:01.534     0 kbps          0 kbps          00:00:00.000    0 kbps          00:00:00.000    0 kbps          00:00:00.000    0 bytes         0 bytes         00:00:00.000    

STREAM DIAGNOSTICS:

File            PID             Type            Codec           Language                Seconds                 Bitrate                 Bytes           Packets         
----            ---             ----            -----           --------                --------------          --------------          -------------   -----           
00008.M2TS      4113 (0x1011)   0x02            MPEG-2                                  0                       0                       0               0               
00009.M2TS      4113 (0x1011)   0x02            MPEG-2                                  0                       0                       0               0               

<–– END FORUMS PASTE ––>

QUICK SUMMARY:

Disc Title: JIMI_HENDRIX_ELECTRIC_LADYLAND
Disc Size: 48 530 241 742 bytes
Protection: AACS
BD-Java: Yes
Playlist: 00001.MPLS
Size: 0 bytes
Length: 0:00:35.568
Total Bitrate: 0,00 Mbps
Video: MPEG-2 Video / 0 kbps / 480i / 29,970 fps / 16:9



The Jimi Hendrix Experience - Electric Ladyland (1968) [50th Anniversary Super Deluxe Box Set, 3CD + Blu-ray]

All thanks go to ALLexxess

Jimi Hendrix or Jimi Hendrix in my Blog

Download The Jimi Hendrix Experience - Electric Ladyland (1968):