Subcategories
Tags
Language
Tags

Electric Light Orchestra - ELO's Greatest Hits (1979) {1986, US Press}

Posted By: popsakov
Electric Light Orchestra - ELO's Greatest Hits (1979) {1986, US Press}

Electric Light Orchestra - ELO's Greatest Hits (1979) {1986, US Press}
EAC Rip | FLAC (Img) + Cue + Log ~ 280 Mb | MP3 CBR320 ~ 108 Mb
Full Scans ~ 73 Mb | 00:44:36 | RAR 5% Recovery
Symphonic Rock / Art Rock / Progressive Rock / Classic Rock
CBS Associated / Jet Records #ZK 36310

By ignoring the band's first two albums, the Roy Wood-dominated Electric Light Orchestra and the transitional ELO II, the 1979 singles compilation ELO's Greatest Hits presents a somewhat skewed vision of the band. Ironically, this revision has become the normative view of the band: slick, almost mechanical purveyors of undeniably catchy but somewhat soulless hit singles. "Evil Woman," "Showdown," "Turn to Stone," "Telephone Line," "Strange Magic" – anyone who was anywhere near a radio in the latter half of the '70s knows them all by heart, whether they like them or not. But ELO's Greatest Hits does a far graver disservice to the Electric Light Orchestra's oeuvre. For some reason, the original vinyl LP sounded somewhat muffled and distant, as if the EQ was perceptibly off. The result is that while this is otherwise a fine survey of Jeff Lynne's most successful – if not necessarily his best – songs, it just doesn't sound very good.

~ Stewart Mason, All Music
Electric Light Orchestra - ELO's Greatest Hits (1979) {1986, US Press}


***************

Electric Light Orchestra - ELO's Greatest Hits (1979) {1986, US Press}

Electric Light Orchestra - ELO's Greatest Hits (1979) {1986, US Press}

Track List:

01. Evil Woman [04:15]
02. Livin' Thing [03:35]
03. Can't Get It Out Of My Head [04:25]
04. Showdown [03:57]
05. Turn To Stone [03:48]
06. Rockaria [03:17]
07. Sweet Talkin' Woman [03:50]
08. Telephone Line [04:41]
09. Ma Ma Ma Belle [03:38]
10. Strange Magic [04:10]
11. Mr. Blue Sky [05:06]

Exact Audio Copy V1.0 beta 3 from 29. August 2011

EAC extraction logfile from 7. August 2014, 21:53

Electric Light Orchestra / ELO's Greatest Hits

Used drive : ASUS SDRW-08D2S-U Adapter: 4 ID: 1

Read mode : Secure
Utilize accurate stream : Yes
Defeat audio cache : Yes
Make use of C2 pointers : No

Read offset correction : 6
Overread into Lead-In and Lead-Out : No
Fill up missing offset samples with silence : Yes
Delete leading and trailing silent blocks : No
Null samples used in CRC calculations : Yes
Used interface : Native Win32 interface for Win NT & 2000

Used output format : Internal WAV Routines
Sample format : 44.100 Hz; 16 Bit; Stereo


TOC of the extracted CD

Track | Start | Length | Start sector | End sector
––––––––––––––––––––––––––––-
1 | 0:00.00 | 4:14.27 | 0 | 19076
2 | 4:14.27 | 3:34.18 | 19077 | 35144
3 | 7:48.45 | 4:24.62 | 35145 | 55006
4 | 12:13.32 | 3:56.23 | 55007 | 72729
5 | 16:09.55 | 3:48.00 | 72730 | 89829
6 | 19:57.55 | 3:16.20 | 89830 | 104549
7 | 23:14.00 | 3:49.50 | 104550 | 121774
8 | 27:03.50 | 4:40.42 | 121775 | 142816
9 | 31:44.17 | 3:37.05 | 142817 | 159096
10 | 35:21.22 | 4:09.15 | 159097 | 177786
11 | 39:30.37 | 5:05.13 | 177787 | 200674


Range status and errors

Selected range

Filename C:\Music CD\Electric Light Orchestra - ELO's Greatest Hits.wav

Peak level 94.9 %
Extraction speed 4.2 X
Range quality 100.0 %
Test CRC 09B6CEBC
Copy CRC 09B6CEBC
Copy OK

No errors occurred


AccurateRip summary

Track 1 accurately ripped (confidence 2) [BCCCA4EF] (AR v2)
Track 2 accurately ripped (confidence 2) [D99FBEDC] (AR v2)
Track 3 accurately ripped (confidence 2) [3121EF46] (AR v2)
Track 4 accurately ripped (confidence 2) [CC158478] (AR v2)
Track 5 accurately ripped (confidence 2) [020892FD] (AR v2)
Track 6 accurately ripped (confidence 2) [F6DDF745] (AR v2)
Track 7 accurately ripped (confidence 2) [42F5FF9F] (AR v2)
Track 8 accurately ripped (confidence 2) [9D769C36] (AR v2)
Track 9 accurately ripped (confidence 2) [9FAEFA6B] (AR v2)
Track 10 accurately ripped (confidence 2) [E581E40C] (AR v2)
Track 11 accurately ripped (confidence 2) [99F192C3] (AR v2)

All tracks accurately ripped

End of status report

==== Log checksum 38DC7360408F1BDEA18BD7F2C9D5A1BFA6A89B59CED06670F0E9E06BB6787A8B ====

[CUETools log; Date: 13.05.2019 20:13:14; Version: 2.1.6]
[CTDB TOCID: Xd_PUlFgD9.uDliHJaHRCueWHfc-] found.
Track | CTDB Status
1 | ( 90/629) Accurately ripped
2 | ( 91/629) Accurately ripped
3 | ( 90/629) Accurately ripped
4 | ( 90/629) Accurately ripped
5 | ( 90/629) Accurately ripped
6 | ( 91/629) Accurately ripped
7 | ( 90/629) Accurately ripped
8 | ( 91/629) Accurately ripped
9 | ( 91/629) Accurately ripped
10 | ( 91/629) Accurately ripped
11 | ( 90/629) Accurately ripped
[AccurateRip ID: 0011fb7a-009bd41a-950a730b] found.
Track [ CRC | V2 ] Status
01 [bf94ed60|bccca4ef] (004+003/356) Accurately ripped
02 [38dba602|d99fbedc] (004+003/360) Accurately ripped
03 [59af1a70|3121ef46] (004+003/358) Accurately ripped
04 [d804d723|cc158478] (004+003/357) Accurately ripped
05 [412586dc|020892fd] (004+003/356) Accurately ripped
06 [d7f37cff|f6ddf745] (005+003/359) Accurately ripped
07 [49455c86|42f5ff9f] (005+003/356) Accurately ripped
08 [9c46d227|9d769c36] (005+003/356) Accurately ripped
09 [0fdcdf55|9faefa6b] (005+003/356) Accurately ripped
10 [ccf8b2a1|e581e40c] (005+003/355) Accurately ripped
11 [5fd6b896|99f192c3] (005+003/349) Accurately ripped
Offsetted by -48:
01 [a7967b60] (037/356) Accurately ripped
02 [be2d9412] (035/360) Accurately ripped
03 [e68b2250] (037/358) Accurately ripped
04 [edcbc406] (035/357) Accurately ripped
05 [3d7f4f17] (036/356) Accurately ripped
06 [fa7d07d1] (036/359) Accurately ripped
07 [e9a64cf6] (036/356) Accurately ripped
08 [3c661927] (036/356) Accurately ripped
09 [fafaefd5] (036/356) Accurately ripped
10 [bc09cdb1] (036/355) Accurately ripped
11 [f25cd7a6] (034/349) Accurately ripped

Track Peak [ CRC32 ] [W/O NULL] [ LOG ]
– 94,9 [09B6CEBC] [D52889A9] CRC32
01 89,9 [60DCB01E] [CA1B314A]
02 79,6 [970EB34D] [B0592FDF]
03 88,6 [8443CECE] [60A04D29]
04 94,9 [3DA5AD4E] [716C3786]
05 82,7 [0F46F536] [1ED96AE4]
06 90,1 [429B71CD] [248F377F]
07 90,1 [80A3BD14] [98F34CF4]
08 78,6 [A766791D] [100F6A6E]
09 90,7 [B4A46DA5] [A617EDB7]
10 87,6 [11252CAB] [65E2DFA1]
11 82,0 [25DDA6F4] [270313A1]

Electric Light Orchestra - ELO's Greatest Hits (1979) {1986, US Press}


All thanks go to the original ripper(s) …

>>> ELO in my Blog <<<

DOWNLOAD: