Subcategories
Tags
Language
Tags

Electric Light Orchestra - Eldorado (1974) {2001, Remastered} Re-Up

Posted By: popsakov
Electric Light Orchestra - Eldorado (1974) {2001, Remastered} Re-Up

Electric Light Orchestra - Eldorado (1974) {2001, Remastered}
EAC Rip | FLAC (Img) + Cue + Log ~ 364 Mb | MP3 CBR320 ~ 161 Mb
Full Scans | 00:48:00 | RAR 5% Recovery
Epic / Legacy / Sony Music #501904 2 / EPC501904 2 / 5019042000
Progressive / Art Rock / Symphonic Rock

This is the album where Jeff Lynne finally found the sound he'd wanted since co-founding Electric Light Orchestra three years earlier. Up to this point, most of the group's music had been self-contained – Lynne, Richard Tandy, et al., providing whatever was needed, vocally or instrumentally, even if it meant overdubbing their work layer upon layer. Lynne saw the limitations of this process, however, and opted for the presence of an orchestra – it was only 30 pieces, but the result was a much richer musical palette than the group had ever had to work with, and their most ambitious and successful record up to that time. Indeed, Eldorado was strongly reminiscent in some ways of Sgt. Pepper's Lonely Hearts Club Band. Not that it could ever have the same impact or be as distinctive, but it had its feet planted in so many richly melodic and varied musical traditions, yet made it all work in a rock context, that it did recall the Beatles classic. It was a very romantic work, especially on the opening "Eldorado Overture," which was steeped in a wistful 1920s/1930s notion of popular fantasy (embodied in movies and novels like James Hilton's Lost Horizon and Somerset Maugham's The Razor's Edge) about disillusioned seekers. It boasted Lynne's best single up to that time, "Can't Get It Out of My Head," which most radio listeners could never get out of their respective heads, either. The integration of the orchestra would become even more thorough on future albums, but Eldorado was notable for mixing the band and orchestra (and a choir) in ways that did no violence to the best elements of both.

~ Bruce Eder, All Music
Electric Light Orchestra - Eldorado (1974) {2001, Remastered} Re-Up


***************

Electric Light Orchestra - Eldorado (1974) {2001, Remastered} Re-Up

Electric Light Orchestra - Eldorado (1974) {2001, Remastered} Re-Up

Track List:

01. Eldorado Overture [0:02:12.50]
02. Can't Get It Out of My Head [0:04:21.62]
03. Boy Blue [0:05:19.00]
04. Laredo Tornado [0:05:29.58]
05. Poor Boy (The Greenwood) [0:02:57.55]
06. Mister Kingdom [0:05:29.47]
07. Nobody's Child [0:03:56.43]
08. Illusions in G Major [0:02:37.27]
09. Eldorado [0:05:17.63]
10. Eldorado Finale [0:01:34.37]
11. Eldorado Instrumental Medley (2001 re-master bonus track) [0:07:56.48]
12. Dark City (2001 re-master bonus track) [0:00:46.57]

Personnel:
Jeff Lynne - lead & backing vocals, electric, acoustic, & bass guitars, keyboards, production, orchestra and choral arrangements
Bev Bevan - drums, percussion
Richard Tandy - piano, moog synthesiser, guitar, backing vocals, orchestra and choral arrangements
Mike de Albuquerque - bass guitar, backing vocals
Mik Kaminski - violin
Hugh McDowell - cello
Mike Edwards - cello
Louis Clark - orchestra and choral arrangements and conducting

Exact Audio Copy V1.3 from 2. September 2016

EAC extraction logfile from 28. May 2018, 17:35

Electric Light Orchestra / Eldorado

Used drive : ATAPI iHAS124 D Adapter: 0 ID: 2

Read mode : Secure
Utilize accurate stream : Yes
Defeat audio cache : Yes
Make use of C2 pointers : No

Read offset correction : 6
Overread into Lead-In and Lead-Out : No
Fill up missing offset samples with silence : Yes
Delete leading and trailing silent blocks : No
Null samples used in CRC calculations : Yes
Used interface : Installed external ASPI interface

Used output format : User Defined Encoder
Selected bitrate : 1024 kBit/s
Quality : High
Add ID3 tag : No
Command line compressor : C:\Program Files (x86)\Exact Audio Copy\Flac\flac.exe
Additional command line options : -6 -V -T "ARTIST=%artist%" -T "TITLE=%title%" -T "ALBUM=%albumtitle%" -T "DATE=%year%" -T "TRACKNUMBER=%tracknr%" -T "GENRE=%genre%" -T "COMMENT=%comment%" -T "BAND=%albuminterpret%" -T "ALBUMARTIST=%albuminterpret%" -T "COMPOSER=%composer%" %haslyrics%–tag-from-file=LYRICS="%lyricsfile%"%haslyrics% -T "DISCNUMBER=%cdnumber%" -T "TOTALDISCS=%totalcds%" -T "TOTALTRACKS=%numtracks%" %hascover%–picture="%coverfile%"%hascover% %source% -o %dest%


TOC of the extracted CD

Track | Start | Length | Start sector | End sector
––––––––––––––––––––––––––––-
1 | 0:00.00 | 2:12.50 | 0 | 9949
2 | 2:12.50 | 4:21.62 | 9950 | 29586
3 | 6:34.37 | 5:19.00 | 29587 | 53511
4 | 11:53.37 | 5:29.58 | 53512 | 78244
5 | 17:23.20 | 2:57.55 | 78245 | 91574
6 | 20:21.00 | 5:29.47 | 91575 | 116296
7 | 25:50.47 | 3:56.43 | 116297 | 134039
8 | 29:47.15 | 2:37.27 | 134040 | 145841
9 | 32:24.42 | 5:17.63 | 145842 | 169679
10 | 37:42.30 | 1:34.37 | 169680 | 176766
11 | 39:16.67 | 7:56.48 | 176767 | 212514
12 | 47:13.40 | 0:46.57 | 212515 | 216021


Range status and errors

Selected range

Filename C:\mm\Electric Light Orchestra\1974(2001) - Eldorado [501904 2]\Electric Light Orchestra - Eldorado.wav

Peak level 100.0 %
Extraction speed 1.7 X
Range quality 100.0 %
Test CRC AD3B41AB
Copy CRC AD3B41AB
Copy OK

No errors occurred

End of status report

–– CUETools DB Plugin V2.1.6

[CTDB TOCID: NgbjqLxEyPO3T8pXyUEHpoWVJBY-] found
Submit result: NgbjqLxEyPO3T8pXyUEHpoWVJBY- has been confirmed
Track | CTDB Status
1 | (355/355) Accurately ripped
2 | (354/355) Accurately ripped
3 | (354/355) Accurately ripped
4 | (355/355) Accurately ripped
5 | (354/355) Accurately ripped
6 | (355/355) Accurately ripped
7 | (354/355) Accurately ripped
8 | (354/355) Accurately ripped
9 | (353/355) Accurately ripped
10 | (353/355) Accurately ripped
11 | (352/355) Accurately ripped
12 | (350/355) Accurately ripped

foobar2000 1.3.16 / Dynamic Range Meter 1.1.1
log date: 2018-06-04 18:36:24

––––––––––––––––––––––––––––––––––––––––
Analyzed: Electric Light Orchestra / Eldorado
––––––––––––––––––––––––––––––––––––––––

DR Peak RMS Duration Track
––––––––––––––––––––––––––––––––––––––––
DR10 -0.01 dB -14.48 dB 2:13 01-Eldorado Overture
DR9 -0.01 dB -11.59 dB 4:22 02-Can't Get It Out of My Head
DR10 -0.01 dB -12.18 dB 5:19 03-Boy Blue
DR11 -0.01 dB -13.20 dB 5:30 04-Laredo Tornado
DR9 0.00 dB -10.45 dB 2:58 05-Poor Boy (The Greenwood)
DR8 -0.85 dB -12.35 dB 5:30 06-Mister Kingdom
DR11 -0.01 dB -13.25 dB 3:57 07-Nobody's Child
DR11 -0.01 dB -11.61 dB 2:37 08-Illusions in G Major
DR11 -0.01 dB -13.95 dB 5:18 09-Eldorado
DR9 -0.01 dB -12.17 dB 1:34 10-Eldorado Finale
DR9 -0.01 dB -12.02 dB 7:57 11-Eldorado Instrumental Medley
DR8 -1.01 dB -11.93 dB 0:47 12-Dark City
––––––––––––––––––––––––––––––––––––––––

Number of tracks: 12
Official DR value: DR10

Samplerate: 44100 Hz
Channels: 2
Bits per sample: 16
Bitrate: 882 kbps
Codec: FLAC
================================================================================

[CUETools log; Date: 04.06.2018 18:37:14; Version: 2.1.6]
[CTDB TOCID: NgbjqLxEyPO3T8pXyUEHpoWVJBY-] found.
Track | CTDB Status
1 | (357/357) Accurately ripped
2 | (356/357) Accurately ripped
3 | (356/357) Accurately ripped
4 | (357/357) Accurately ripped
5 | (356/357) Accurately ripped
6 | (357/357) Accurately ripped
7 | (356/357) Accurately ripped
8 | (356/357) Accurately ripped
9 | (355/357) Accurately ripped
10 | (355/357) Accurately ripped
11 | (354/357) Accurately ripped
12 | (352/357) Accurately ripped
[AccurateRip ID: 0015e1b0-00cd6a31-a70b400c] found.
Track [ CRC | V2 ] Status
01 [01b28382|c2a5ef29] (043+065/442) Accurately ripped
02 [d20c3a0a|da70564f] (044+065/444) Accurately ripped
03 [ef59a848|4b54b91f] (043+065/446) Accurately ripped
04 [313f574b|f59987c4] (044+064/441) Accurately ripped
05 [be8e3316|8b4541cf] (043+065/442) Accurately ripped
06 [7b0c8b68|cd0d44e0] (043+065/441) Accurately ripped
07 [9fa5515b|c9e24058] (043+064/441) Accurately ripped
08 [d3f44a8c|357b94b4] (043+065/441) Accurately ripped
09 [7190a194|b57cc809] (043+064/436) Accurately ripped
10 [743c69fb|6294b10e] (043+065/442) Accurately ripped
11 [6a9956f5|60a2cc14] (043+064/440) Accurately ripped
12 [873f5ec5|8b16f3e1] (042+065/428) Accurately ripped
Offsetted by -669:
01 [ed148619] (003/442) Accurately ripped
02 [0eaeecf5] (004/444) Accurately ripped
03 [655855bb] (004/446) Accurately ripped
04 [c73a9d07] (004/441) Accurately ripped
05 [d105ab82] (004/442) Accurately ripped
06 [b1c183b3] (004/441) Accurately ripped
07 [9a00beb4] (004/441) Accurately ripped
08 [070361e3] (004/441) Accurately ripped
09 [1c1801d4] (003/436) Accurately ripped
10 [e506db1d] (004/442) Accurately ripped
11 [c540d272] (004/440) Accurately ripped
12 [97942858] (003/428) Accurately ripped
Offsetted by -664:
01 [636dc5b8] (003/442) Accurately ripped
02 [ab11d432] (003/444) Accurately ripped
03 [6df18b53] (003/446) Accurately ripped
04 [6001080c] (003/441) Accurately ripped
05 [f9cfb578] (003/442) Accurately ripped
06 [0195db90] (003/441) Accurately ripped
07 [0daa39fe] (003/441) Accurately ripped
08 [11e985ea] (003/441) Accurately ripped
09 [3c0efaa0] (003/436) Accurately ripped
10 [402ffdbe] (003/442) Accurately ripped
11 [26eb628d] (003/440) Accurately ripped
12 [38f082ad] (003/428) Accurately ripped
Offsetted by -29:
01 [53710c99] (053/442) Accurately ripped
02 [4a00fb7e] (051/444) Accurately ripped
03 [f9c9b857] (052/446) Accurately ripped
04 [248b1dcc] (051/441) Accurately ripped
05 [89d62b90] (051/442) Accurately ripped
06 [5f06bed4] (052/441) Accurately ripped
07 [e7d1c281] (052/441) Accurately ripped
08 [2e6198f4] (050/441) Accurately ripped
09 [a22351e0] (052/436) Accurately ripped
10 [b25418f6] (053/442) Accurately ripped
11 [9a88dff2] (051/440) Accurately ripped
12 [45c152d8] (049/428) Accurately ripped
Offsetted by 516:
01 [d951dcf5] (032/442) Accurately ripped
02 [2d72827c] (032/444) Accurately ripped
03 [0eba7273] (033/446) Accurately ripped
04 [fb34eed6] (033/441) Accurately ripped
05 [101f1f5f] (033/442) Accurately ripped
06 [76e62bbb] (032/441) Accurately ripped
07 [1520af28] (032/441) Accurately ripped
08 [d76392b8] (033/441) Accurately ripped
09 [94a5b0c9] (032/436) Accurately ripped
10 [9c8e2aaa] (032/442) Accurately ripped
11 [30283b71] (032/440) Accurately ripped
12 [fa13c909] (029/428) Accurately ripped
Offsetted by 1318:
01 [37074e37] (002/442) Accurately ripped
02 [e62413ba] (002/444) Accurately ripped
03 [5532fb60] (002/446) Accurately ripped
04 [2a61c771] (002/441) Accurately ripped
05 [c84bbf6b] (002/442) Accurately ripped
06 [2195b2f4] (002/441) Accurately ripped
07 [b80c1140] (002/441) Accurately ripped
08 [991c4763] (002/441) Accurately ripped
09 [a122b720] (002/436) Accurately ripped
10 [6f6718e7] (002/442) Accurately ripped
11 [2ea01f8f] (002/440) Accurately ripped
12 [e124624b] (002/428) Accurately ripped
Offsetted by 1348:
01 [455cdf5b] (044/442) Accurately ripped
02 [99a71e67] (044/444) Accurately ripped
03 [824ea410] (045/446) Accurately ripped
04 [7cbf9646] (045/441) Accurately ripped
05 [ddf823e5] (045/442) Accurately ripped
06 [818f75bc] (044/441) Accurately ripped
07 [2ec89abe] (045/441) Accurately ripped
08 [eb00c214] (045/441) Accurately ripped
09 [5d402584] (043/436) Accurately ripped
10 [ded3917c] (044/442) Accurately ripped
11 [789f8031] (046/440) Accurately ripped
12 [a94e8049] (043/428) Accurately ripped
Offsetted by 1680:
01 [f90bc66a] (003/442) Accurately ripped
02 [0e579cb3] (003/444) Accurately ripped
03 [0c29d515] (003/446) Accurately ripped
04 [c53f7d58] (002/441) Accurately ripped
05 [af972fbb] (002/442) Accurately ripped
06 [7926d8a9] (003/441) Accurately ripped
07 [38b67921] (002/441) Accurately ripped
08 [8bcbfcbf] (002/441) Accurately ripped
09 [0a00e7ec] (002/436) Accurately ripped
10 [49eaf235] (002/442) Accurately ripped
11 [9a767a65] (002/440) Accurately ripped
12 [5075ee55] (003/428) Accurately ripped
Offsetted by -564:
01 [1f1813a5] (000/442) No match (V2 was not tested)
02 [fd89d443] (000/444) No match (V2 was not tested)
03 [4a5f06aa] (000/446) No match (V2 was not tested)
04 [cf95ef68] (000/441) No match (V2 was not tested)
05 [80416c53] (000/442) No match (V2 was not tested)
06 [62bde6d4] (000/441) No match (V2 was not tested)
07 [8b5f190e] (000/441) No match (V2 was not tested)
08 [a24b43d1] (000/441) No match (V2 was not tested)
09 [4a6430e3] (000/436) No match (V2 was not tested)
10 [347abbdc] (000/442) No match (V2 was not tested)
11 [c83ea4a9] (000/440) No match (V2 was not tested)
12 [d4279151] (000/428) No match (V2 was not tested)
Offsetted by -23:
01 [0e59cbae] (000/442) No match (V2 was not tested)
02 [5a0e450d] (000/444) No match (V2 was not tested)
03 [7401634f] (000/446) No match (V2 was not tested)
04 [a90daa0b] (000/441) No match (V2 was not tested)
05 [6dfe0627] (000/442) No match (V2 was not tested)
06 [6370c851] (000/441) No match (V2 was not tested)
07 [cd41a5d8] (000/441) No match (V2 was not tested)
08 [588aa62c] (000/441) No match (V2 was not tested)
09 [22b7c7f7] (000/436) No match (V2 was not tested)
10 [274d7315] (000/442) No match (V2 was not tested)
11 [762259ac] (000/440) No match (V2 was not tested)
12 [6dc9bf3e] (000/428) No match (V2 was not tested)
Offsetted by 1115:
01 [5c4251f6] (000/442) No match (V2 was not tested)
02 [14057c31] (000/444) No match (V2 was not tested)
03 [d13cdddb] (000/446) No match (V2 was not tested)
04 [a6614775] (000/441) No match (V2 was not tested)
05 [d7a7babb] (000/442) No match (V2 was not tested)
06 [3d28d130] (000/441) No match (V2 was not tested)
07 [18d31876] (000/441) No match (V2 was not tested)
08 [3b6f6bcf] (000/441) No match (V2 was not tested)
09 [ec92368f] (000/436) No match (V2 was not tested)
10 [2823c8b7] (000/442) No match (V2 was not tested)
11 [7e2cde7a] (000/440) No match (V2 was not tested)
12 [16b20ed0] (000/428) No match (V2 was not tested)
Offsetted by 1585:
01 [de8ea84e] (000/442) No match (V2 was not tested)
02 [794a9fbe] (000/444) No match (V2 was not tested)
03 [ebf7d8e4] (000/446) No match (V2 was not tested)
04 [2ae524c1] (000/441) No match (V2 was not tested)
05 [a79cd01a] (000/442) No match (V2 was not tested)
06 [8ff2f08f] (000/441) No match (V2 was not tested)
07 [5f8d34c4] (000/441) No match (V2 was not tested)
08 [ff41f19b] (000/441) No match (V2 was not tested)
09 [d5ca35b3] (000/436) No match (V2 was not tested)
10 [f5125ecd] (000/442) No match (V2 was not tested)
11 [5acdc864] (000/440) No match (V2 was not tested)
12 [569b3a06] (000/428) No match (V2 was not tested)

Track Peak [ CRC32 ] [W/O NULL] [ LOG ]
– 100,0 [AD3B41AB] [A403B758] CRC32
01 99,8 [96AAC3AF] [1545E14E]
02 99,8 [A593D6CD] [C23669BB]
03 99,8 [A721EC39] [FDBF0646]
04 99,8 [E18E75A6] [8646AC9E]
05 100,0 [134CBD4D] [79E0F127]
06 90,6 [57043D51] [21B73D27]
07 99,8 [C747578F] [EB313634]
08 99,8 [F7FCA807] [0FE263D4]
09 99,8 [E8178304] [33905291]
10 99,8 [CE9E41C7] [82B62106]
11 99,8 [8EC88B72] [9A8D937D]
12 89,0 [B08F37D0] [9734D787]

Electric Light Orchestra - Eldorado (1974) {2001, Remastered} Re-Up


All thanks go to sergych

>>> Electric Light Orchestra in my Blog <<<

DOWNLOAD: