Tags
Language
Tags

Electric Light Orchestra - Eldorado (1974) {2006, Japanese Limited Edition, Remastered} Re-Up

Posted By: popsakov
Electric Light Orchestra - Eldorado (1974) {2006, Japanese Limited Edition, Remastered} Re-Up

Electric Light Orchestra - Eldorado (1974) {2006, Japanese Limited Edition, Remastered}
EAC Rip | FLAC (Img) + Cue + Log ~ 345 Mb | MP3 CBR320 ~ 141 Mb
Full Scans | 00:48:00 | RAR 5% Recovery
Symphonic Rock / Classic Rock / Art Rock / Progressive Rock
Epic / Jet Records / Sony Music Direct #MHCP 1095

This is the album where Jeff Lynne finally found the sound he'd wanted since co-founding Electric Light Orchestra three years earlier. Up to this point, most of the group's music had been self-contained – Lynne, Richard Tandy, et al., providing whatever was needed, vocally or instrumentally, even if it meant overdubbing their work layer upon layer. Lynne saw the limitations of this process, however, and opted for the presence of an orchestra – it was only 30 pieces, but the result was a much richer musical palette than the group had ever had to work with, and their most ambitious and successful record up to that time. Indeed, Eldorado was strongly reminiscent in some ways of Sgt. Pepper's Lonely Hearts Club Band. Not that it could ever have the same impact or be as distinctive, but it had its feet planted in so many richly melodic and varied musical traditions, yet made it all work in a rock context, that it did recall the Beatles classic. It was a very romantic work, especially on the opening "Eldorado Overture," which was steeped in a wistful 1920s/1930s notion of popular fantasy (embodied in movies and novels like James Hilton's Lost Horizon and Somerset Maugham's The Razor's Edge) about disillusioned seekers. It boasted Lynne's best single up to that time, "Can't Get It Out of My Head," which most radio listeners could never get out of their respective heads, either. The integration of the orchestra would become even more thorough on future albums, but Eldorado was notable for mixing the band and orchestra (and a choir) in ways that did no violence to the best elements of both.

~ Bruce Eder, All Music

***************

Electric Light Orchestra - Eldorado (1974) {2006, Japanese Limited Edition, Remastered} Re-Up

Electric Light Orchestra - Eldorado (1974) {2006, Japanese Limited Edition, Remastered} Re-Up

Track List:

01. Eldorado Overture [2:12]
02. Can't Get It Out Of My Head [4:22]
03. Boy Blue [5:19]
04. Laredo Tornado [5:30]
05. Poor Boy (The Greenwood) [2:58]
06. Mister Kingdom [5:30]
07. Nobody's Child [3:57]
08. Illusions In G Major [2:37]
09. Eldorado [5:18]
10. Eldorado Finale [1:35]
11. Eldorado Instrumental Medley (Bonus) [7:57]
12. Dark City (Bonus) [0:47]

Personnel:
Jeff Lynne - lead & backing vocals, electric, acoustic, & bass guitars, keyboards, orchestra and choral arrangements
Bev Bevan - drums, percussion
Richard Tandy - piano, moog synthesiser, guitar, backing vocals, orchestra and choral arrangements
Mike de Albuquerque - bass guitar, backing vocals
Mik Kaminski - violin
Hugh McDowell - cello
Mike Edwards - cello
Louis Clark - orchestra and choral arrangements and conducting

Exact Audio Copy V0.99 prebeta 5 from 4. May 2009

EAC extraction logfile from 13. February 2010, 17:25

Electric Light Orchestra / Eldorado

Used drive : HL-DT-STDVD-RAM GH22NP20 Adapter: 0 ID: 0

Read mode : Secure
Utilize accurate stream : Yes
Defeat audio cache : Yes
Make use of C2 pointers : No

Read offset correction : 102
Overread into Lead-In and Lead-Out : No
Fill up missing offset samples with silence : Yes
Delete leading and trailing silent blocks : No
Null samples used in CRC calculations : Yes
Used interface : Native Win32 interface for Win NT & 2000

Used output format : Internal WAV Routines
Sample format : 44.100 Hz; 16 Bit; Stereo


TOC of the extracted CD

Track | Start | Length | Start sector | End sector
––––––––––––––––––––––––––––-
1 | 0:00.00 | 2:12.27 | 0 | 9926
2 | 2:12.27 | 4:21.63 | 9927 | 29564
3 | 6:34.15 | 5:19.00 | 29565 | 53489
4 | 11:53.15 | 5:29.55 | 53490 | 78219
5 | 17:22.70 | 2:57.55 | 78220 | 91549
6 | 20:20.50 | 5:29.47 | 91550 | 116271
7 | 25:50.22 | 3:56.43 | 116272 | 134014
8 | 29:46.65 | 2:37.27 | 134015 | 145816
9 | 32:24.17 | 5:17.65 | 145817 | 169656
10 | 37:42.07 | 1:34.43 | 169657 | 176749
11 | 39:16.50 | 7:56.42 | 176750 | 212491
12 | 47:13.17 | 0:47.05 | 212492 | 216021


Range status and errors

Selected range

Filename C:\Electric Light Orchestra (1974) Eldorado\Electric Light Orchestra - Eldorado.wav

Peak level 100.0 %
Range quality 100.0 %
Copy CRC FDAC5DBF
Copy OK

No errors occurred


AccurateRip summary

Track 1 accurately ripped (confidence 4) [9C16C4DA]
Track 2 accurately ripped (confidence 4) [94FB503B]
Track 3 accurately ripped (confidence 4) [E701C6A8]
Track 4 accurately ripped (confidence 4) [300EF9F6]
Track 5 accurately ripped (confidence 4) [56D8F358]
Track 6 accurately ripped (confidence 4) [0BB0AA38]
Track 7 accurately ripped (confidence 4) [8E956D56]
Track 8 accurately ripped (confidence 4) [5DAD35A3]
Track 9 accurately ripped (confidence 4) [E69D7BD3]
Track 10 accurately ripped (confidence 4) [78DE81A6]
Track 11 accurately ripped (confidence 4) [3F35F006]
Track 12 accurately ripped (confidence 4) [F4ABC6BC]

All tracks accurately ripped

End of status report

[CUETools log; Date: 26.06.2018 0:21:36; Version: 2.1.6]
[CTDB TOCID: og.dKYBaFAGThEj_bFhDyipOqVQ-] found.
Track | CTDB Status
1 | (41/41) Accurately ripped
2 | (41/41) Accurately ripped
3 | (41/41) Accurately ripped
4 | (41/41) Accurately ripped
5 | (41/41) Accurately ripped
6 | (41/41) Accurately ripped
7 | (41/41) Accurately ripped
8 | (41/41) Accurately ripped
9 | (40/41) Accurately ripped
10 | (40/41) Accurately ripped
11 | (41/41) Accurately ripped
12 | (35/41) Accurately ripped
[AccurateRip ID: 0015e0b1-00cd6349-a40b400c] found.
Track [ CRC | V2 ] Status
01 [9c16c4da|3be1a9b6] (08+14/27) Accurately ripped
02 [94fb503b|f3055f33] (08+14/27) Accurately ripped
03 [e701c6a8|947b6b36] (08+14/27) Accurately ripped
04 [300ef9f6|1a48e495] (08+14/27) Accurately ripped
05 [56d8f358|15f18f85] (08+14/27) Accurately ripped
06 [0bb0aa38|bbfeb5a2] (08+14/27) Accurately ripped
07 [8e956d56|884b6f29] (08+14/27) Accurately ripped
08 [5dad35a3|681ab03c] (08+14/27) Accurately ripped
09 [e69d7bd3|84060096] (08+14/27) Accurately ripped
10 [78de81a6|e13c7800] (08+14/27) Accurately ripped
11 [3f35f006|9fd3d0ed] (07+14/26) Accurately ripped
12 [f4abc6bc|cabfcd0f] (08+14/27) Accurately ripped
Offsetted by -474:
01 [8a0e3071] (03/27) Accurately ripped
02 [bab73ebf] (03/27) Accurately ripped
03 [d2f5683b] (03/27) Accurately ripped
04 [0afe0d49] (03/27) Accurately ripped
05 [c00459fa] (03/27) Accurately ripped
06 [c89a8b2b] (03/27) Accurately ripped
07 [e5958d43] (03/27) Accurately ripped
08 [03174f5d] (03/27) Accurately ripped
09 [72089736] (03/27) Accurately ripped
10 [a164c6fe] (03/27) Accurately ripped
11 [7ad95fa0] (03/26) Accurately ripped
12 [9a125342] (03/27) Accurately ripped
Offsetted by -655:
01 [3ba1af75] (00/27) No match (V2 was not tested)
02 [be7679c4] (00/27) No match (V2 was not tested)
03 [b566294b] (00/27) No match (V2 was not tested)
04 [92a1ee6d] (00/27) No match (V2 was not tested)
05 [f6c77fb7] (00/27) No match (V2 was not tested)
06 [2354b37f] (00/27) No match (V2 was not tested)
07 [73bafb2a] (00/27) No match (V2 was not tested)
08 [6db119c9] (00/27) No match (V2 was not tested)
09 [4dd28854] (00/27) No match (V2 was not tested)
10 [c5050cf1] (00/27) No match (V2 was not tested)
11 [44ee3235] (00/26) No match (V2 was not tested)
12 [62698d3d] (00/27) No match (V2 was not tested)

Track Peak [ CRC32 ] [W/O NULL] [ LOG ]
– 100,0 [FDAC5DBF] [A403B758] CRC32
01 99,8 [4C1FB16A] [B2D7DE8F]
02 99,8 [667E01BB] [51B52A82]
03 99,8 [6C00D0C3] [19C2A902]
04 99,8 [7D15E428] [4B20E36B]
05 100,0 [5B4EFE79] [F59BE6E7]
06 89,0 [0B384ADA] [C1AF71C7]
07 99,8 [D712CDB9] [CD7A0DFB]
08 99,8 [69C6F5E8] [07A0D816]
09 99,8 [B7A994AC] [E68D64CF]
10 99,8 [0050EB42] [DD68DCDF]
11 99,8 [1CF2F543] [9A8D937D]
12 89,0 [E12B90B0] [9734D787]

All thanks go to the original ripper(s) …

>>> ELO in my Blog <<<

DOWNLOAD: