Subcategories

Electric Light Orchestra - Face The Music (1975) {2006, Japanese Limited Edition, Remastered} Repost

Posted By: popsakov
Electric Light Orchestra - Face The Music (1975) {2006, Japanese Limited Edition, Remastered} Repost

Electric Light Orchestra - Face The Music (1975) {2006, Japanese Limited Edition, Remastered}
EAC Rip | FLAC (Img) + Cue + Log ~ 340 Mb | MP3 CBR320 ~ 127 Mb
Full Scans (JPG, 600 dpi) ~ 50 Mb | RAR 5% Recovery
Symphonic Rock, Art Rock, Progressive Rock | Epic / Jet Records / Sony Music Direct #MHCP 1096

Electric Light Orchestra's more modest follow-up to Eldorado is a very solid album, if not as bold or unified. It was also their first recorded at Musicland in Munich, which became Jeff Lynne's preferred venue for cutting records. At the time, he was also generating songs at a breakneck pace and had perfected the majestic, quasi-Beatles-type style (sort of high-wattage Magical Mystery Tour) introduced two albums earlier. The sound is stripped down a bit on Face the Music, Louis Clark's orchestral contributions generally more subdued than on Eldorado, even when they compete with the band, as on "Strange Magic." The soulful "Evil Woman" was one of the most respectable chart hits of its era, and one of the best songs that Lynne ever wrote (reportedly in 30 minutes), while "Strange Magic" showed off his writing in a more ethereal vein. "One Summer Dream," which is written in a similar mode, also has a touchingly wistful mood about it but is a somewhat lackluster finale compared to the albums that preceded and followed this one. The requisite rock & roll number, "Poker," is a quicker tempo than anything previously heard from the band, the guitar is pumped up louder than ever. And "Down Home Town," an experiment in achieving a country & western sound, is fresh at this point and more interesting than the equivalent material of Out of the Blue.
~ Bruce Eder, All Music
Electric Light Orchestra - Face The Music (1975) {2006, Japanese Limited Edition, Remastered} Repost


***************

Electric Light Orchestra - Face The Music (1975) {2006, Japanese Limited Edition, Remastered} Repost

Electric Light Orchestra - Face The Music (1975) {2006, Japanese Limited Edition, Remastered} Repost

Track List:

01. Fire On High [5:32]
02. Waterfall [4:12]
03. Evil Woman [4:30]
04. Nightrider [4:26]
05. Poker [3:32]
06. Strange Magic [4:30]
07. Down Home Town [3:55]
08. One Summer Dream [5:51]
Bonus Tracks
09. Fire on High Intro (Early Alternate Mix) (Bonus) [3:23]
10. Evil Woman (Stripped Down Mix) (Bonus) [5:00]
11. Strange Magic (U.S. Single Edit) (Bonus) [3:28]
12. Waterfall (Instrumental Mix) (Bonus) [4:15]

Personnel:
Jeff Lynne – lead vocals, guitars, producer
Bev Bevan – drums, percussion, spoken intro (backwards), backing vocals
Richard Tandy – piano, clavinet, Moog, guitar, Wurlitzer electric piano, tack piano
Kelly Groucutt – vocals, bass, backing vocals, lead vocals on "Poker" and "Down Home Town", co-lead vocals on "Nightrider"
Mik Kaminski – violin
Hugh McDowell – cello
Melvyn Gale – cello

Additional personnel:
Ellie Greenwich, Susan Collins, Nancy O'Neill, Margaret Raymond – uncredited vocals
Jeff Lynne, Richard Tandy and Louis Clark – Orchestral and choral arrangements
Orchestra conducted by Louis Clark

Exact Audio Copy V0.99 prebeta 5 from 4. May 2009

EAC extraction logfile from 13. February 2010, 17:48

Electric Light Orchestra / Face The Music

Used drive : HL-DT-STDVD-RAM GH22NP20 Adapter: 0 ID: 0

Read mode : Secure
Utilize accurate stream : Yes
Defeat audio cache : Yes
Make use of C2 pointers : No

Read offset correction : 102
Overread into Lead-In and Lead-Out : No
Fill up missing offset samples with silence : Yes
Delete leading and trailing silent blocks : No
Null samples used in CRC calculations : Yes
Used interface : Native Win32 interface for Win NT & 2000

Used output format : Internal WAV Routines
Sample format : 44.100 Hz; 16 Bit; Stereo


TOC of the extracted CD

Track | Start | Length | Start sector | End sector
––––––––––––––––––––––––––––-
1 | 0:00.00 | 5:31.43 | 0 | 24867
2 | 5:31.43 | 4:11.57 | 24868 | 43749
3 | 9:43.25 | 4:29.63 | 43750 | 63987
4 | 14:13.13 | 4:26.12 | 63988 | 83949
5 | 18:39.25 | 3:32.26 | 83950 | 99875
6 | 22:11.51 | 4:29.57 | 99876 | 120107
7 | 26:41.33 | 3:54.54 | 120108 | 137711
8 | 30:36.12 | 5:51.11 | 137712 | 164047
9 | 36:27.23 | 3:23.23 | 164048 | 179295
10 | 39:50.46 | 5:00.13 | 179296 | 201808
11 | 44:50.59 | 3:27.63 | 201809 | 217396
12 | 48:18.47 | 4:15.12 | 217397 | 236533


Range status and errors

Selected range

Filename C:\Electric Light Orchestra (1975) Face The Music\Electric Light Orchestra - Face The Music.wav

Peak level 100.0 %
Range quality 100.0 %
Copy CRC A949148A
Copy OK

No errors occurred


AccurateRip summary

Track 1 accurately ripped (confidence 4) [1ACAD729]
Track 2 accurately ripped (confidence 4) [61A91C31]
Track 3 accurately ripped (confidence 4) [FEC0A702]
Track 4 accurately ripped (confidence 4) [D7AA0809]
Track 5 accurately ripped (confidence 4) [C9C9D629]
Track 6 accurately ripped (confidence 4) [C1663F23]
Track 7 accurately ripped (confidence 4) [3C5F3ECA]
Track 8 accurately ripped (confidence 4) [E78FE58A]
Track 9 accurately ripped (confidence 4) [0CF0520F]
Track 10 accurately ripped (confidence 4) [1B325F3E]
Track 11 accurately ripped (confidence 4) [101E7810]
Track 12 accurately ripped (confidence 4) [2EAEF423]

All tracks accurately ripped

End of status report

foobar2000 1.3.16 / Dynamic Range Meter 1.1.1
log date: 2018-06-27 14:01:56

––––––––––––––––––––––––––––––––––––––––
Analyzed: Electric Light Orchestra / Face The Music
––––––––––––––––––––––––––––––––––––––––

DR Peak RMS Duration Track
––––––––––––––––––––––––––––––––––––––––
DR8 0.00 dB -11.78 dB 5:32 01-Fire On High
DR9 -0.01 dB -11.60 dB 4:12 02-Waterfall
DR10 -0.01 dB -12.37 dB 4:30 03-Evil Woman
DR9 -0.01 dB -11.34 dB 4:26 04-Nightrider
DR10 -0.01 dB -11.83 dB 3:32 05-Poker
DR12 -0.01 dB -15.28 dB 4:30 06-Strange Magic
DR10 -0.01 dB -12.88 dB 3:55 07-Down Home Town
DR10 -0.01 dB -12.05 dB 5:51 08-One Summer Dream
DR12 0.00 dB -14.18 dB 3:23 09-Fire on High Intro (Early Alternate Mix) (Bonus)
DR10 -0.02 dB -11.24 dB 5:00 10-Evil Woman (Stripped Down Mix) (Bonus)
DR9 0.00 dB -12.25 dB 3:28 11-Strange Magic (U.S. Single Edit) (Bonus)
DR8 -1.42 dB -11.21 dB 4:15 12-Waterfall (Instrumental Mix) (Bonus)
––––––––––––––––––––––––––––––––––––––––

Number of tracks: 12
Official DR value: DR10

Samplerate: 44100 Hz
Channels: 2
Bits per sample: 16
Bitrate: 861 kbps
Codec: FLAC
================================================================================

[CUETools log; Date: 27.06.2018 14:01:23; Version: 2.1.6]
[CTDB TOCID: cjWOIEE.5V06XrgI8Tu_qH4WkSc-] found.
Track | CTDB Status
1 | (29/29) Accurately ripped
2 | (29/29) Accurately ripped
3 | (29/29) Accurately ripped
4 | (29/29) Accurately ripped
5 | (29/29) Accurately ripped
6 | (29/29) Accurately ripped
7 | (29/29) Accurately ripped
8 | (29/29) Accurately ripped
9 | (29/29) Accurately ripped
10 | (29/29) Accurately ripped
11 | (29/29) Accurately ripped
12 | (27/29) Accurately ripped
[AccurateRip ID: 001801d8-00de5782-9e0c510c] found.
Track [ CRC | V2 ] Status
01 [1acad729|c0e6cce0] (06+11/21) Accurately ripped
02 [61a91c31|690dfd52] (06+11/21) Accurately ripped
03 [fec0a702|5460b0ed] (06+11/21) Accurately ripped
04 [d7aa0809|302d66ee] (06+11/21) Accurately ripped
05 [c9c9d629|63a29005] (06+11/21) Accurately ripped
06 [c1663f23|38fc14bd] (06+11/21) Accurately ripped
07 [3c5f3eca|ce9ac3f7] (06+11/21) Accurately ripped
08 [e78fe58a|c8fa5995] (06+11/21) Accurately ripped
09 [0cf0520f|e3dba679] (06+11/21) Accurately ripped
10 [1b325f3e|7911fd06] (06+11/21) Accurately ripped
11 [101e7810|d223d9c0] (06+11/21) Accurately ripped
12 [2eaef423|44ca72e2] (06+11/21) Accurately ripped
Offsetted by -474:
01 [5b5cf946] (00/21) No match (V2 was not tested)
02 [29650a7e] (00/21) No match (V2 was not tested)
03 [1a0d6a19] (00/21) No match (V2 was not tested)
04 [4813d626] (00/21) No match (V2 was not tested)
05 [c8edae4e] (00/21) No match (V2 was not tested)
06 [9cb51c80] (00/21) No match (V2 was not tested)
07 [85ad1995] (00/21) No match (V2 was not tested)
08 [d466af65] (00/21) No match (V2 was not tested)
09 [fed2eb56] (00/21) No match (V2 was not tested)
10 [fbbf23e5] (00/21) No match (V2 was not tested)
11 [40c6b517] (00/21) No match (V2 was not tested)
12 [843e77f1] (00/21) No match (V2 was not tested)
Offsetted by -18:
01 [ad2a30ba] (00/21) No match (V2 was not tested)
02 [8c6bf714] (00/21) No match (V2 was not tested)
03 [7768d659] (00/21) No match (V2 was not tested)
04 [ec344b8d] (00/21) No match (V2 was not tested)
05 [93a5c803] (00/21) No match (V2 was not tested)
06 [faaf2f03] (00/21) No match (V2 was not tested)
07 [036eb479] (00/21) No match (V2 was not tested)
08 [8d42e5e6] (00/21) No match (V2 was not tested)
09 [4d64e3c8] (00/21) No match (V2 was not tested)
10 [9e38fe08] (00/21) No match (V2 was not tested)
11 [7e799e50] (00/21) No match (V2 was not tested)
12 [15f99168] (00/21) No match (V2 was not tested)

Track Peak [ CRC32 ] [W/O NULL] [ LOG ]
– 100,0 [A949148A] [174064EC] CRC32
01 100,0 [6F334548] [57890A43]
02 99,9 [83428BA8] [EDFCFF0D]
03 99,9 [00844F77] [16BDBC7A]
04 99,9 [FE4D31DB] [466090E7]
05 99,8 [070B2B06] [E60E7E8F]
06 99,8 [A7069078] [F422E104]
07 99,9 [D8631B4B] [34B78F14]
08 99,9 [A8D2A55C] [80DE8599]
09 100,0 [E573F27B] [EBBB1E96]
10 99,7 [2FA527D1] [62CA16D4]
11 100,0 [D8085534] [D93B9565]
12 84,9 [CD7C71E6] [A7790D29]

Electric Light Orchestra - Face The Music (1975) {2006, Japanese Limited Edition, Remastered} Repost

All thanks go to the original ripper(s) …

>>> Electric Light Orchestra in my Blog <<<

Download from icerbox.com: