Tags
Language
Tags
March 2023
Su Mo Tu We Th Fr Sa
26 27 28 1 2 3 4
5 6 7 8 9 10 11
12 13 14 15 16 17 18
19 20 21 22 23 24 25
26 27 28 29 30 31 1

Electric Light Orchestra And Jeff Lynne - Original Album Classics (2018) {5CD Box Set} Repost

Posted By: popsakov
Electric Light Orchestra And Jeff Lynne - Original Album Classics (2018) {5CD Box Set} Repost

Electric Light Orchestra And Jeff Lynne - Original Album Classics (2018) {5CD Box Set}
EAC Rip | FLAC (Img) + Cue + Log ~ 1,41 Gb | MP3 CBR320 ~ 522 Mb
Full Scans | 03:03:21 | RAR 5% Recovery
Art Rock, Progressive Rock, Symphonic Rock | Sony Music / Legacy #190758 81832

5CD package containing albums from Electric Light Orchestra and Jeff Lynne's solo career. Albums are packaged in cardboard replica vinyl sleeves and bundled in a card slipcase. Albums featured: Armchair Theatre, Zoom, Mr. Blue Sky The Very Best Of ELO, Longwave & Electric Light Orchestra Live.

***************

Track List CD1: Jeff Lynne - Armchair Theatre

01. Every Little Thing [3:43]
02. Don't Let Go [3:01]
03. Lift Me Up [3:38]
04. Nobody Home [3:54]
05. September Song [2:59]
06. Now You're Gone [3:58]
07. Don't Say Goodbye [3:10]
08. What Would It Take [2:42]
09. Stormy Weather [3:44]
10. Blown Away [3:32]
11. Save Me Now [1:54]

Exact Audio Copy V1.3 from 2. September 2016

EAC extraction logfile from 13. February 2019, 13:35

Jeff Lynne / Armchair Theatre

Used drive : TSSTcorpCDDVDW SH-224GB Adapter: 1 ID: 0

Read mode : Secure
Utilize accurate stream : Yes
Defeat audio cache : Yes
Make use of C2 pointers : No

Read offset correction : 6
Overread into Lead-In and Lead-Out : No
Fill up missing offset samples with silence : Yes
Delete leading and trailing silent blocks : No
Null samples used in CRC calculations : Yes
Used interface : Native Win32 interface for Win NT & 2000

Used output format : User Defined Encoder
Selected bitrate : 128 kBit/s
Quality : High
Add ID3 tag : No
Command line compressor : C:\Program Files (x86)\Exact Audio Copy\FLAC\FLAC.EXE
Additional command line options : -V -8 -T "Date=%year%" -T "Genre=%genre%" %source%


TOC of the extracted CD

Track | Start | Length | Start sector | End sector
––––––––––––––––––––––––––––-
1 | 0:00.00 | 3:42.60 | 0 | 16709
2 | 3:42.60 | 3:01.33 | 16710 | 30317
3 | 6:44.18 | 3:37.46 | 30318 | 46638
4 | 10:21.64 | 3:53.57 | 46639 | 64170
5 | 14:15.46 | 2:59.12 | 64171 | 77607
6 | 17:14.58 | 3:58.29 | 77608 | 95486
7 | 21:13.12 | 3:10.17 | 95487 | 109753
8 | 24:23.29 | 2:41.53 | 109754 | 121881
9 | 27:05.07 | 3:43.39 | 121882 | 138645
10 | 30:48.46 | 3:31.50 | 138646 | 154520
11 | 34:20.21 | 1:54.29 | 154521 | 163099


Range status and errors

Selected range

Filename F:\ЕАС\rwa12\Jeff Lynne - Armchair Theatre.wav

Peak level 100.0 %
Extraction speed 2.6 X
Range quality 100.0 %
Test CRC 68011B9C
Copy CRC 68011B9C
Copy OK

No errors occurred


AccurateRip summary

Track 1 accurately ripped (confidence 1) [4331AA1C] (AR v2)
Track 2 accurately ripped (confidence 1) [7079DE0D] (AR v2)
Track 3 accurately ripped (confidence 1) [AFE17B06] (AR v2)
Track 4 accurately ripped (confidence 1) [14B9B377] (AR v2)
Track 5 accurately ripped (confidence 1) [DD2CCD0F] (AR v2)
Track 6 accurately ripped (confidence 1) [8F975E35] (AR v2)
Track 7 accurately ripped (confidence 1) [9D59F727] (AR v2)
Track 8 accurately ripped (confidence 1) [B65698BF] (AR v2)
Track 9 accurately ripped (confidence 1) [F9391C92] (AR v2)
Track 10 accurately ripped (confidence 1) [C0639A9C] (AR v2)
Track 11 accurately ripped (confidence 1) [E9BB75F8] (AR v2)

All tracks accurately ripped

End of status report

–– CUETools DB Plugin V2.1.6

[CTDB TOCID: N4z48f9TeJhuU2gI7cWR3FHUq4E-] found
Submit result: N4z48f9TeJhuU2gI7cWR3FHUq4E- has been confirmed
Track | CTDB Status
1 | (12/12) Accurately ripped
2 | (12/12) Accurately ripped
3 | (12/12) Accurately ripped
4 | (12/12) Accurately ripped
5 | (12/12) Accurately ripped
6 | (12/12) Accurately ripped
7 | (12/12) Accurately ripped
8 | (12/12) Accurately ripped
9 | (12/12) Accurately ripped
10 | (12/12) Accurately ripped
11 | (12/12) Accurately ripped


==== Log checksum 658F64609A1D7065252493211756D14D3F7E402A1E50F8A5937D32AA1B8A146E ====


Track List CD2: Electric Light Orchestra - Zoom

01. Alright [3:12]
02. Moment In Paradise [3:35]
03. State Of Mind [3:04]
04. Just For Love [3:39]
05. Stranger On A Quiet Street [3:39]
06. In My Own Time [3:04]
07. Easy Money [2:51]
08. It Really Doesn't Matter [3:20]
09. Ordinary Dream [3:22]
10. A Long Time Gone [3:15]
11. Melting In The Sun [3:10]
12. All She Wanted [3:15]
13. Lonesome Lullaby [4:04]

Exact Audio Copy V1.3 from 2. September 2016

EAC extraction logfile from 13. February 2019, 12:02

Electric Light Orchestra / Zoom

Used drive : TSSTcorpCDDVDW SH-224GB Adapter: 1 ID: 0

Read mode : Secure
Utilize accurate stream : Yes
Defeat audio cache : Yes
Make use of C2 pointers : No

Read offset correction : 6
Overread into Lead-In and Lead-Out : No
Fill up missing offset samples with silence : Yes
Delete leading and trailing silent blocks : No
Null samples used in CRC calculations : Yes
Used interface : Native Win32 interface for Win NT & 2000

Used output format : User Defined Encoder
Selected bitrate : 128 kBit/s
Quality : High
Add ID3 tag : No
Command line compressor : C:\Program Files (x86)\Exact Audio Copy\FLAC\FLAC.EXE
Additional command line options : -V -8 -T "Date=%year%" -T "Genre=%genre%" %source%


TOC of the extracted CD

Track | Start | Length | Start sector | End sector
––––––––––––––––––––––––––––-
1 | 0:00.00 | 3:12.07 | 0 | 14406
2 | 3:12.07 | 3:35.16 | 14407 | 30547
3 | 6:47.23 | 3:03.64 | 30548 | 44336
4 | 9:51.12 | 3:38.45 | 44337 | 60731
5 | 13:29.57 | 3:39.30 | 60732 | 77186
6 | 17:09.12 | 3:03.74 | 77187 | 90985
7 | 20:13.11 | 2:51.21 | 90986 | 103831
8 | 23:04.32 | 3:19.63 | 103832 | 118819
9 | 26:24.20 | 3:22.24 | 118820 | 133993
10 | 29:46.44 | 3:15.16 | 133994 | 148634
11 | 33:01.60 | 3:10.05 | 148635 | 162889
12 | 36:11.65 | 3:14.39 | 162890 | 177478
13 | 39:26.29 | 4:04.01 | 177479 | 195779


Range status and errors

Selected range

Filename F:\ЕАС\rwa12\Electric Light Orchestra - Zoom.wav

Peak level 98.7 %
Extraction speed 2.7 X
Range quality 100.0 %
Test CRC 57F10690
Copy CRC 57F10690
Copy OK

No errors occurred


AccurateRip summary

Track 1 accurately ripped (confidence 2) [3C63D416] (AR v2)
Track 2 accurately ripped (confidence 2) [9739EB03] (AR v2)
Track 3 accurately ripped (confidence 2) [6B2412AD] (AR v2)
Track 4 accurately ripped (confidence 2) [875F7803] (AR v2)
Track 5 accurately ripped (confidence 2) [AD683312] (AR v2)
Track 6 accurately ripped (confidence 2) [54100DFF] (AR v2)
Track 7 accurately ripped (confidence 2) [E6DEF40C] (AR v2)
Track 8 accurately ripped (confidence 2) [3C44A3CD] (AR v2)
Track 9 accurately ripped (confidence 2) [C6F55B16] (AR v2)
Track 10 accurately ripped (confidence 2) [0D67E927] (AR v2)
Track 11 accurately ripped (confidence 2) [05F98FAC] (AR v2)
Track 12 accurately ripped (confidence 2) [DAAA7030] (AR v2)
Track 13 accurately ripped (confidence 2) [1D452D03] (AR v2)

All tracks accurately ripped

End of status report

–– CUETools DB Plugin V2.1.6

[CTDB TOCID: iTFcRttsRpAaO2i_3gA9nwPHATI-] found
Submit result: iTFcRttsRpAaO2i_3gA9nwPHATI- has been confirmed
Track | CTDB Status
1 | (15/15) Accurately ripped
2 | (15/15) Accurately ripped
3 | (15/15) Accurately ripped
4 | (15/15) Accurately ripped
5 | (15/15) Accurately ripped
6 | (15/15) Accurately ripped
7 | (15/15) Accurately ripped
8 | (15/15) Accurately ripped
9 | (15/15) Accurately ripped
10 | (15/15) Accurately ripped
11 | (15/15) Accurately ripped
12 | (15/15) Accurately ripped
13 | (15/15) Accurately ripped


==== Log checksum 5C40BB0831C8F557604EA50DAEAD1B8C017F761CA366B607A4461EB5A5A4E31C ====


Track List CD3: Jeff Lynne - Long Wave

01. She [2:42]
02. If I Loved You [2:22]
03. So Sad [2:33]
04. Mercy, Mercy [2:53]
05. Running Scared [2:10]
06. Bewitched, Bothered And Bewildered [2:20]
07. Smile [2:32]
08. At Last [2:34]
09. Love Is A Many Splendored Thing [2:31]
10. Let It Rock [1:51]
11. Beyond The Sea [2:54]

Exact Audio Copy V1.3 from 2. September 2016

EAC extraction logfile from 13. February 2019, 9:56

Jeff Lynne / Long Wave

Used drive : TSSTcorpCDDVDW SH-224GB Adapter: 1 ID: 0

Read mode : Secure
Utilize accurate stream : Yes
Defeat audio cache : Yes
Make use of C2 pointers : No

Read offset correction : 6
Overread into Lead-In and Lead-Out : No
Fill up missing offset samples with silence : Yes
Delete leading and trailing silent blocks : No
Null samples used in CRC calculations : Yes
Used interface : Native Win32 interface for Win NT & 2000

Used output format : User Defined Encoder
Selected bitrate : 128 kBit/s
Quality : High
Add ID3 tag : No
Command line compressor : C:\Program Files (x86)\Exact Audio Copy\FLAC\FLAC.EXE
Additional command line options : -V -8 -T "Date=%year%" -T "Genre=%genre%" %source%


TOC of the extracted CD

Track | Start | Length | Start sector | End sector
––––––––––––––––––––––––––––-
1 | 0:00.00 | 2:41.52 | 0 | 12126
2 | 2:41.52 | 2:21.58 | 12127 | 22759
3 | 5:03.35 | 2:33.03 | 22760 | 34237
4 | 7:36.38 | 2:52.47 | 34238 | 47184
5 | 10:29.10 | 2:10.34 | 47185 | 56968
6 | 12:39.44 | 2:19.56 | 56969 | 67449
7 | 14:59.25 | 2:32.34 | 67450 | 78883
8 | 17:31.59 | 2:33.70 | 78884 | 90428
9 | 20:05.54 | 2:30.38 | 90429 | 101716
10 | 22:36.17 | 1:50.42 | 101717 | 110008
11 | 24:26.59 | 2:54.01 | 110009 | 123059


Range status and errors

Selected range

Filename F:\ЕАС\rwa12\Jeff Lynne - Long Wave.wav

Peak level 100.0 %
Extraction speed 2.4 X
Range quality 100.0 %
Test CRC 1597AC8A
Copy CRC 1597AC8A
Copy OK

No errors occurred


AccurateRip summary

Track 1 accurately ripped (confidence 1) [7640624A] (AR v2)
Track 2 accurately ripped (confidence 1) [B28363AC] (AR v2)
Track 3 accurately ripped (confidence 1) [E4B37C38] (AR v2)
Track 4 accurately ripped (confidence 1) [318B55E5] (AR v2)
Track 5 accurately ripped (confidence 1) [6E939816] (AR v2)
Track 6 accurately ripped (confidence 1) [88744E7C] (AR v2)
Track 7 accurately ripped (confidence 1) [17BD6839] (AR v2)
Track 8 accurately ripped (confidence 1) [38E85468] (AR v2)
Track 9 accurately ripped (confidence 1) [957863DC] (AR v2)
Track 10 accurately ripped (confidence 1) [156BC40B] (AR v2)
Track 11 accurately ripped (confidence 1) [D8348FB9] (AR v2)

All tracks accurately ripped

End of status report

–– CUETools DB Plugin V2.1.6

[CTDB TOCID: pVa7lPRdLHNg15PoOzXONsc3vFE-] found
Submit result: pVa7lPRdLHNg15PoOzXONsc3vFE- has been confirmed
Track | CTDB Status
1 | (13/13) Accurately ripped
2 | (13/13) Accurately ripped
3 | (13/13) Accurately ripped
4 | (13/13) Accurately ripped
5 | (13/13) Accurately ripped
6 | (13/13) Accurately ripped
7 | (13/13) Accurately ripped
8 | (13/13) Accurately ripped
9 | (13/13) Accurately ripped
10 | (13/13) Accurately ripped
11 | (13/13) Accurately ripped


==== Log checksum 70103FA1E3170735084247982744001D761F7748CC60C91957E877C9F74D7375 ====


Track List CD4: Electric Light Orchestra - Mr. Blue Sky (The Very Best Of Electric Light Orchestra) (All 2012 Versions)

01. Mr. Blue Sky [3:42]
02. Evil Woman [4:29]
03. Strange Magic [3:53]
04. Don't Bring Me Down [4:03]
05. Turn To Stone [3:43]
06. Showdown [4:16]
07. Telephone Line [4:30]
08. Livin' Thing [3:42]
09. Do Ya [3:56]
10. Can't Get It Out Of My Head [4:35]
11. 10538 Overture (40th Anniversary) [4:42]
12. Point Of No Return [3:15]

Exact Audio Copy V1.3 from 2. September 2016

EAC extraction logfile from 13. February 2019, 9:07

Electric Light Orchestra / Mr. Blue Sky (The Very Best Of Electric Light Orchestra)

Used drive : TSSTcorpCDDVDW SH-224GB Adapter: 1 ID: 0

Read mode : Secure
Utilize accurate stream : Yes
Defeat audio cache : Yes
Make use of C2 pointers : No

Read offset correction : 6
Overread into Lead-In and Lead-Out : No
Fill up missing offset samples with silence : Yes
Delete leading and trailing silent blocks : No
Null samples used in CRC calculations : Yes
Used interface : Native Win32 interface for Win NT & 2000

Used output format : User Defined Encoder
Selected bitrate : 128 kBit/s
Quality : High
Add ID3 tag : No
Command line compressor : C:\Program Files (x86)\Exact Audio Copy\FLAC\FLAC.EXE
Additional command line options : -V -8 -T "Date=%year%" -T "Genre=%genre%" %source%


TOC of the extracted CD

Track | Start | Length | Start sector | End sector
––––––––––––––––––––––––––––-
1 | 0:00.00 | 3:42.19 | 0 | 16668
2 | 3:42.19 | 4:29.10 | 16669 | 36853
3 | 8:11.29 | 3:53.19 | 36854 | 54347
4 | 12:04.48 | 4:02.40 | 54348 | 72537
5 | 16:07.13 | 3:42.48 | 72538 | 89235
6 | 19:49.61 | 4:15.62 | 89236 | 108422
7 | 24:05.48 | 4:30.02 | 108423 | 128674
8 | 28:35.50 | 3:42.19 | 128675 | 145343
9 | 32:17.69 | 3:56.05 | 145344 | 163048
10 | 36:13.74 | 4:34.46 | 163049 | 183644
11 | 40:48.45 | 4:41.57 | 183645 | 204776
12 | 45:30.27 | 3:15.02 | 204777 | 219403


Range status and errors

Selected range

Filename F:\ЕАС\rwa12\Electric Light Orchestra - Mr. Blue Sky (The Very Best Of Electric Light Orchestra).wav

Peak level 100.0 %
Extraction speed 2.8 X
Range quality 100.0 %
Test CRC 527EEF8E
Copy CRC 527EEF8E
Copy OK

No errors occurred


AccurateRip summary

Track 1 accurately ripped (confidence 1) [C10F6090] (AR v2)
Track 2 accurately ripped (confidence 1) [C24F97B9] (AR v2)
Track 3 accurately ripped (confidence 1) [A782411D] (AR v2)
Track 4 accurately ripped (confidence 1) [91D5AB32] (AR v2)
Track 5 accurately ripped (confidence 1) [6A8A51D4] (AR v2)
Track 6 accurately ripped (confidence 1) [4562C7E7] (AR v2)
Track 7 accurately ripped (confidence 1) [6B852F79] (AR v2)
Track 8 accurately ripped (confidence 1) [2F45A483] (AR v2)
Track 9 accurately ripped (confidence 1) [3AFFC400] (AR v2)
Track 10 accurately ripped (confidence 1) [16160463] (AR v2)
Track 11 accurately ripped (confidence 1) [DDE9F1B5] (AR v2)
Track 12 accurately ripped (confidence 1) [1DD36F72] (AR v2)

All tracks accurately ripped

End of status report

–– CUETools DB Plugin V2.1.6

[CTDB TOCID: APGMeglHRoTqAVJf8kF0bI_.vYE-] found
Submit result: APGMeglHRoTqAVJf8kF0bI_.vYE- has been confirmed
Track | CTDB Status
1 | (14/14) Accurately ripped
2 | (14/14) Accurately ripped
3 | (14/14) Accurately ripped
4 | (14/14) Accurately ripped
5 | (14/14) Accurately ripped
6 | (14/14) Accurately ripped
7 | (14/14) Accurately ripped
8 | (14/14) Accurately ripped
9 | (14/14) Accurately ripped
10 | (14/14) Accurately ripped
11 | (14/14) Accurately ripped
12 | (14/14) Accurately ripped


==== Log checksum FC1F86BD1954C944CFB985035C79D8620EF7BD32402F311363932511340A91E5 ====


Track List CD5: Electric Light Orchestra - Live (Live 2001)

01. Evil Woman [4:27]
02. Showdown [4:09]
03. Secret Messages [4:07]
04. Livin' Thing [4:09]
05. Sweet Talkin' Woman [3:16]
06. Mr. Blue Sky [3:32]
07. Can't Get It Out of My Head [4:12]
08. Twilight [3:31]
09. Confusion [3:35]
10. Don't Bring Me Down [4:08]
11. Roll Over Beethoven [6:25]

Exact Audio Copy V1.3 from 2. September 2016

EAC extraction logfile from 11. February 2019, 15:30

Electric Light Orchestra / Live

Used drive : TSSTcorpCDDVDW SH-224GB Adapter: 1 ID: 0

Read mode : Secure
Utilize accurate stream : Yes
Defeat audio cache : Yes
Make use of C2 pointers : No

Read offset correction : 6
Overread into Lead-In and Lead-Out : No
Fill up missing offset samples with silence : Yes
Delete leading and trailing silent blocks : No
Null samples used in CRC calculations : Yes
Used interface : Native Win32 interface for Win NT & 2000

Used output format : User Defined Encoder
Selected bitrate : 128 kBit/s
Quality : High
Add ID3 tag : No
Command line compressor : C:\Program Files (x86)\Exact Audio Copy\FLAC\FLAC.EXE
Additional command line options : -V -8 -T "Date=%year%" -T "Genre=%genre%" %source%


TOC of the extracted CD

Track | Start | Length | Start sector | End sector
––––––––––––––––––––––––––––-
1 | 0:00.00 | 4:27.24 | 0 | 20048
2 | 4:27.24 | 4:08.70 | 20049 | 38718
3 | 8:36.19 | 4:06.43 | 38719 | 57211
4 | 12:42.62 | 4:09.20 | 57212 | 75906
5 | 16:52.07 | 3:15.58 | 75907 | 90589
6 | 20:07.65 | 3:31.53 | 90590 | 106467
7 | 23:39.43 | 4:11.40 | 106468 | 125332
8 | 27:51.08 | 3:30.56 | 125333 | 141138
9 | 31:21.64 | 3:34.48 | 141139 | 157236
10 | 34:56.37 | 4:08.05 | 157237 | 175841
11 | 39:04.42 | 6:25.31 | 175842 | 204747


Range status and errors

Selected range

Filename F:\ЕАС\rwa12\Electric Light Orchestra - Live.wav

Peak level 100.0 %
Extraction speed 2.7 X
Range quality 100.0 %
Test CRC AA4EBC8B
Copy CRC AA4EBC8B
Copy OK

No errors occurred


AccurateRip summary

Track 1 accurately ripped (confidence 1) [7C0A6814] (AR v2)
Track 2 accurately ripped (confidence 1) [CF916AE1] (AR v2)
Track 3 accurately ripped (confidence 1) [2B774D1B] (AR v2)
Track 4 accurately ripped (confidence 1) [86EAFD91] (AR v2)
Track 5 accurately ripped (confidence 1) [1C2080D2] (AR v2)
Track 6 accurately ripped (confidence 1) [87E232F8] (AR v2)
Track 7 accurately ripped (confidence 1) [864B1E9C] (AR v2)
Track 8 accurately ripped (confidence 1) [B88282C2] (AR v2)
Track 9 accurately ripped (confidence 1) [DDB799CC] (AR v2)
Track 10 accurately ripped (confidence 1) [1FA83D76] (AR v2)
Track 11 accurately ripped (confidence 1) [1DE5136D] (AR v2)

All tracks accurately ripped

End of status report

–– CUETools DB Plugin V2.1.6

[CTDB TOCID: ckoL3pHl8DaYszhdutw.k7fGzhM-] found
Submit result: ckoL3pHl8DaYszhdutw.k7fGzhM- has been confirmed
Track | CTDB Status
1 | (12/12) Accurately ripped
2 | (12/12) Accurately ripped
3 | (12/12) Accurately ripped
4 | (12/12) Accurately ripped
5 | (12/12) Accurately ripped
6 | (12/12) Accurately ripped
7 | (12/12) Accurately ripped
8 | (12/12) Accurately ripped
9 | (12/12) Accurately ripped
10 | (12/12) Accurately ripped
11 | (12/12) Accurately ripped


==== Log checksum 72E72F9DD12CA1B13A51F5A9FC8D4B36C47FAEA1FCE10AEEB6D054E7C2F19C1E ====

Electric Light Orchestra And Jeff Lynne - Original Album Classics (2018) {5CD Box Set} Repost


All thanks go to rwa12

>>> ELO in my Blog <<<

DOWNLOAD: